<?xml version="1.0" standalone="no"?>
<!DOCTYPE svg PUBLIC "-//W3C//DTD SVG 1.1//EN" "http://www.w3.org/Graphics/SVG/1.1/DTD/svg11.dtd" >
<svg xmlns="http://www.w3.org/2000/svg">
<metadata></metadata>
<defs>
<font id="thesans-capscaps" horiz-adv-x="1126" >
<font-face units-per-em="2048" ascent="1638" descent="-410" />
<missing-glyph horiz-adv-x="446" />
<glyph horiz-adv-x="2048" />
<glyph horiz-adv-x="2048" />
<glyph unicode="&#xd;" horiz-adv-x="681" />
<glyph unicode=" "  horiz-adv-x="446" />
<glyph unicode="&#x09;" horiz-adv-x="446" />
<glyph unicode="&#xa0;" horiz-adv-x="446" />
<glyph unicode="!" horiz-adv-x="526" d="M145 63q0 45 33 77t86 32q51 0 85 -31.5t34 -77t-35 -78t-84 -32.5q-51 0 -85 30.5t-34 79.5zM160 1126h209l-25 -868h-158z" />
<glyph unicode="&#x22;" horiz-adv-x="749" d="M106 1513h195l-31 -471h-135zM449 1513h194l-29 -471h-137z" />
<glyph unicode="#" horiz-adv-x="1396" d="M59 391v131h312l41 381h-295v131h309l37 348h155l-36 -348h299l37 348h157l-37 -348h295v-131h-307l-41 -381h293v-131h-307l-41 -391h-158l41 391h-299l-41 -391h-158l41 391h-297zM528 522h299l41 381h-299z" />
<glyph unicode="$" horiz-adv-x="1050" d="M84 1018q0 152 109.5 256t302.5 121l12 227h139l-10 -223q131 -4 250 -43l-23 -156q-113 45 -237 49l-21 -463q197 -68 290 -157t93 -230q0 -170 -117.5 -278.5t-308.5 -130.5l-14 -299h-139l14 293q-162 4 -299 49l22 182q125 -59 289 -65l19 481q-199 66 -285 151.5 t-86 235.5zM276 1036q0 -76 44.5 -123t148.5 -86l16 416q-94 -10 -151.5 -63.5t-57.5 -143.5zM573 150q98 12 158 67.5t60 149.5q0 82 -44.5 133t-152.5 94z" />
<glyph unicode="%" horiz-adv-x="1636" d="M88 1061q0 164 97.5 258t234.5 94q143 0 230 -77.5t87 -245.5q0 -162 -99 -259.5t-239 -97.5q-141 0 -226 82t-85 246zM250 47l975 1383l131 -95l-975 -1382zM252 1075q0 -209 156 -209q74 0 119.5 57.5t45.5 153.5q0 203 -161 203q-70 0 -115 -56.5t-45 -148.5zM877 297 q0 164 97 258t234 94q143 0 230.5 -77.5t87.5 -245.5q0 -162 -99.5 -259.5t-238.5 -97.5q-141 0 -226 82t-85 246zM1040 311q0 -209 156 -209q74 0 120 57.5t46 153.5q0 203 -162 203q-70 0 -115 -56.5t-45 -148.5z" />
<glyph unicode="&#x26;" horiz-adv-x="1361" d="M90 293q0 104 60.5 185t173.5 159q-145 160 -146 262q0 119 88 195.5t234 76.5q137 0 217 -64.5t80 -166.5q0 -92 -55.5 -163.5t-153.5 -143.5q154 -150 344 -297q123 162 104 381h187q12 -266 -156 -473l205 -146l-109 -139l-231 164q-199 -147 -461 -148 q-184 0 -282.5 88.5t-98.5 229.5zM276 313q0 -78 61.5 -132t162.5 -54q168 0 293 98q-242 188 -361 314q-156 -111 -156 -226zM360 913q0 -66 117 -188q139 99 139 199q0 49 -31.5 78.5t-95.5 29.5q-57 0 -93 -31.5t-36 -87.5z" />
<glyph unicode="'" horiz-adv-x="407" d="M106 1513h195l-31 -471h-135z" />
<glyph unicode="(" horiz-adv-x="620" d="M143 582q0 528 283 987h170q-272 -444 -272 -977q0 -543 276 -987h-176q-281 449 -281 977z" />
<glyph unicode=")" horiz-adv-x="620" d="M33 -395q274 442 274 985q0 532 -274 979h174q280 -455 280 -985.5t-280 -978.5h-174z" />
<glyph unicode="*" horiz-adv-x="765" d="M78 1096l211 92l-211 94l69 119l185 -135l-23 229h137l-24 -229l186 135l68 -119l-211 -92l211 -94l-70 -119l-184 135l22 -229h-137l23 229l-185 -135z" />
<glyph unicode="+" horiz-adv-x="1153" d="M55 451v153h432v449h175v-449h436v-153h-436v-451h-175v451h-432z" />
<glyph unicode="," horiz-adv-x="466" d="M53 -246q174 186 88 295q-43 53 -14 117.5t102 64.5q80 0 115 -73.5t-15.5 -205.5t-197.5 -267z" />
<glyph unicode="-" horiz-adv-x="675" d="M96 440v148h484v-148h-484z" />
<glyph unicode="." horiz-adv-x="466" d="M106 108.5q0 51.5 37 89.5t90.5 38t90 -38t36.5 -89.5t-36.5 -89t-90 -37.5t-90.5 37.5t-37 89z" />
<glyph unicode="/" horiz-adv-x="858" d="M82 0l528 1382h178l-526 -1382h-180z" />
<glyph unicode="0" horiz-adv-x="1196" d="M98 692q0 344 144.5 525.5t369.5 181.5q486 0 486 -692q0 -188 -45 -333t-120 -228t-163 -123.5t-184 -40.5q-487 0 -488 710zM295 709q0 -569 299 -570q135 0 221 138t86 417q0 291 -73.5 422t-225.5 131q-139 0 -223 -131t-84 -407z" />
<glyph unicode="1" horiz-adv-x="720" d="M53 1264l338 118h144v-1382h-191v1194l-260 -102z" />
<glyph unicode="2" horiz-adv-x="1026" d="M123 0v152l260 299q168 195 230.5 315.5t62.5 232.5q0 104 -61.5 171t-180.5 67q-137 0 -270 -84l-27 168q160 80 346.5 80t290 -104.5t103.5 -268.5q0 -141 -76 -285.5t-260 -359.5l-183 -213v-2q164 8 570 8v-176h-805z" />
<glyph unicode="3" horiz-adv-x="1024" d="M133 4l17 166q80 -27 192 -27q141 0 228 75t87 188q0 129 -115.5 195.5t-348.5 37.5v149q436 -12 436 256q0 96 -59.5 148.5t-168.5 52.5q-125 0 -239 -59l-17 155q139 59 297 60q186 0 283.5 -90t97.5 -232q0 -117 -62.5 -204t-168.5 -125l-2 -5q119 -20 192.5 -111 t73.5 -218q0 -188 -145.5 -310t-372.5 -122q-129 0 -205 20z" />
<glyph unicode="4" horiz-adv-x="1114" d="M35 481l569 901h238v-876h231v-170h-231v-336h-183v336h-604zM219 498q121 6 443 6v698h-3z" />
<glyph unicode="5" horiz-adv-x="946" d="M119 -6l18 170q66 -18 139 -19q168 0 265.5 80t97.5 209q0 127 -95 194.5t-280 67.5q-41 0 -102 -4v690h639v-176h-465v-354q238 0 368 -105.5t130 -289.5q0 -213 -160 -343t-412 -130q-72 0 -143 10z" />
<glyph unicode="6" horiz-adv-x="1179" d="M135 551q0 428 193.5 638t505.5 210q82 0 122 -6v-164q-53 10 -135 10q-393 0 -479 -440q-10 -53 -18 -86l2 -4q109 164 333 163q190 0 307 -113.5t117 -287.5q0 -221 -135 -356t-358 -135q-213 0 -334 148t-121 423zM340 436q0 -129 71.5 -215t190.5 -86q137 0 213 84 t76 221q0 125 -71.5 202t-201.5 77q-125 0 -201.5 -80t-76.5 -203z" />
<glyph unicode="7" horiz-adv-x="931" d="M51 1202v180h821v-159q-123 -264 -234.5 -600t-172.5 -623h-209q74 307 191.5 647t218.5 559q-63 -4 -615 -4z" />
<glyph unicode="8" horiz-adv-x="1128" d="M113 326q0 117 74.5 206t205.5 170q-129 74 -193.5 156t-64.5 186q0 164 122 264.5t323 100.5q182 0 290.5 -92t108.5 -236q0 -111 -69.5 -191.5t-196.5 -164.5q295 -160 295 -371q0 -174 -133.5 -274t-333.5 -100q-203 0 -315.5 95t-112.5 251zM307 344 q0 -96 68.5 -152.5t187.5 -56.5q109 0 179.5 53.5t70.5 147.5q0 49 -20.5 91t-64.5 78t-84 61.5t-103 58.5q-113 -68 -173.5 -131.5t-60.5 -149.5zM324 1065q0 -78 58 -137.5t181 -124.5q121 76 173 134t52 128q0 84 -59 139.5t-167.5 55.5t-173 -53.5t-64.5 -141.5z" />
<glyph unicode="9" horiz-adv-x="1191" d="M113 924q0 209 132 344t347 135q213 0 339 -142.5t126 -437.5q0 -432 -191.5 -636.5t-509.5 -204.5q-98 0 -172 12v172q78 -23 193 -23q377 0 450 400q4 14 8.5 37.5t7.5 40t5 24.5v4q-45 -66 -131 -108.5t-191 -42.5q-190 0 -301.5 115.5t-111.5 310.5zM301 954 q0 -137 71.5 -213.5t192.5 -76.5q125 0 203 81t78 185q0 145 -74 231t-197 86q-119 0 -196.5 -84t-77.5 -209z" />
<glyph unicode=":" horiz-adv-x="526" d="M135 108.5q0 53.5 38 90.5t91 37q51 0 89 -38t38 -89.5t-38 -89t-89 -37.5q-53 0 -91 36.5t-38 90zM135 706.5q0 53.5 38 90.5t91 37t90 -37t37 -90q0 -51 -38 -89t-89 -38q-53 0 -91 36.5t-38 90z" />
<glyph unicode=";" horiz-adv-x="526" d="M84 -246q174 186 88 295q-45 53 -14.5 117.5t104.5 64.5q78 0 114 -73.5t-14.5 -205.5t-197.5 -267zM135 706.5q0 53.5 38 90.5t91 37t90 -37t37 -90q0 -51 -38 -89t-89 -38q-53 0 -91 36.5t-38 90z" />
<glyph unicode="&#x3c;" horiz-adv-x="1118" d="M74 592l856 358v-721z" />
<glyph unicode="=" horiz-adv-x="1200" d="M145 268v152h908v-152h-908zM145 618v152h908v-152h-908z" />
<glyph unicode="&#x3e;" horiz-adv-x="1118" d="M188 229v721l859 -358z" />
<glyph unicode="?" horiz-adv-x="745" d="M115 973l22 164q242 -6 380 -96.5t138 -225.5q0 -61 -25.5 -112.5t-62.5 -84t-76.5 -72.5t-68.5 -75t-37 -90t16 -123h-182q-33 100 -22.5 162.5t50.5 116t85 87t81 77.5t36 87q0 80 -98.5 132.5t-235.5 52.5zM199 63q0 45 32.5 77t85.5 32q51 0 85 -31.5t34 -77 t-34.5 -78t-84 -32.5t-84 30.5t-34.5 79.5z" />
<glyph unicode="@" horiz-adv-x="1705" d="M139 631q0 336 227.5 558t546.5 222q303 0 476.5 -172t173.5 -426q0 -229 -110 -347t-292 -118q-106 0 -155.5 56.5t-36.5 136.5h-4q-29 -74 -104 -133.5t-165 -59.5q-182 0 -182 240q0 203 108.5 338t303.5 135q109 0 227 -27l-63 -354q-37 -199 100 -199q211 0 211 324 q0 197 -125 332t-371 135q-254 0 -428 -177t-174 -450q0 -244 142.5 -393.5t398.5 -149.5q158 0 299 48v-144q-131 -45 -320 -45q-317 0 -500.5 184.5t-183.5 485.5zM666 616q0 -131 71 -131q76 0 139.5 98.5t96.5 264.5l16 82q-33 10 -100 10q-106 0 -164.5 -103.5 t-58.5 -220.5z" />
<glyph unicode="A" horiz-adv-x="1259" d="M20 0l504 1382h209l508 -1382h-211l-115 324h-587l-115 -324h-193zM377 473h487l-180 494q-35 92 -61 207h-5q-29 -117 -63 -209z" />
<glyph unicode="B" horiz-adv-x="1167" d="M174 0v1382q301 6 408 7q223 0 335.5 -87.5t112.5 -244.5q0 -109 -67.5 -198t-180.5 -124v-4q137 -23 208 -111.5t71 -205.5q0 -55 -13.5 -108.5t-51.5 -111t-95 -100.5t-153.5 -71.5t-221.5 -28.5q-47 0 -176 3t-176 3zM362 158q57 -10 177 -11q162 0 243.5 71t81.5 190 q0 235 -369 235h-3q-96 0 -130 -2v-483zM362 786q39 -2 125 -2q168 0 258.5 63.5t90.5 178.5q0 100 -64.5 155.5t-222.5 55.5q-76 0 -187 -4v-447z" />
<glyph unicode="C" horiz-adv-x="1193" d="M94 655q0 334 170 537t506 203q150 0 313 -41l-20 -172q-160 49 -313 49q-225 0 -338 -151.5t-113 -393.5q0 -534 467 -534h2q170 0 309 69l21 -168q-168 -69 -369 -69h-6q-319 0 -474 181t-155 490z" />
<glyph unicode="D" horiz-adv-x="1388" d="M174 0v1380q33 0 114 3t156.5 4.5t143.5 1.5q706 0 706 -682q0 -346 -210 -530.5t-560 -184.5q-74 0 -188.5 4t-161.5 4zM362 164q76 -12 183 -12q254 0 402.5 136t148.5 406q0 541 -527 541q-53 0 -207 -6v-1065z" />
<glyph unicode="E" horiz-adv-x="1026" d="M174 0v1382h711v-155h-523v-439h498v-151h-498v-479h523v-158h-711z" />
<glyph unicode="F" horiz-adv-x="960" d="M174 0v1382h705v-155h-517v-449h490v-151h-490v-627h-188z" />
<glyph unicode="G" horiz-adv-x="1396" d="M88 664q0 324 203 530.5t545 206.5q190 -1 378 -60l-28 -176q-180 74 -369 74q-225 0 -376.5 -144.5t-151.5 -408.5q0 -256 138 -398.5t374 -142.5q123 0 243 37v523h187v-644q-212 -79 -451 -79h-6q-315 0 -500.5 181t-185.5 501z" />
<glyph unicode="H" horiz-adv-x="1429" d="M174 0v1382h188v-585h705v585h188v-1382h-188v637h-705v-637h-188z" />
<glyph unicode="I" horiz-adv-x="536" d="M174 0v1382h188v-1382h-188z" />
<glyph unicode="J" horiz-adv-x="673" d="M2 2v164q68 -23 141 -23q88 0 129 49.5t41 180.5v1009h189v-1022q0 -374 -344 -374h-2q-84 0 -154 16z" />
<glyph unicode="K" horiz-adv-x="1196" d="M174 0v1382h188v-651l549 651h232l-584 -667l606 -715h-256l-547 684v-684h-188z" />
<glyph unicode="L" horiz-adv-x="872" d="M174 0v1382h188v-1220h496v-162h-684z" />
<glyph unicode="M" horiz-adv-x="1820" d="M98 0l203 1382h231l291 -870q53 -156 78 -274h4q25 113 74 262l301 882h233l209 -1382h-198l-117 799q-31 211 -43 340h-4q-31 -137 -68 -250l-297 -889h-200l-281 829q-70 211 -88 310h-2q-6 -94 -39 -359l-94 -780h-193z" />
<glyph unicode="N" horiz-adv-x="1447" d="M174 0v1382h248l514 -829q72 -117 170 -303q-14 297 -14 739v393h182v-1382h-246l-526 856q-78 123 -158 287q14 -258 14 -699v-444h-184z" />
<glyph unicode="O" horiz-adv-x="1443" d="M86 676q0 336 187.5 531.5t467.5 195.5q285 0 451 -180.5t166 -516t-187.5 -531t-468.5 -195.5q-303 0 -459.5 186t-156.5 510zM287 702q0 -256 109.5 -405.5t322.5 -149.5q182 0 310 141.5t128 395.5q0 264 -113.5 408.5t-322.5 144.5q-182 0 -308 -142.5t-126 -392.5z " />
<glyph unicode="P" horiz-adv-x="1073" d="M174 0v1382q205 8 340 9q236 0 365 -110t129 -296q0 -203 -149.5 -332t-385.5 -129q-74 0 -111 4v-528h-188zM362 688q47 -8 113 -8q154 2 245 79t91 208q0 268 -317 268q-92 0 -132 -2v-545z" />
<glyph unicode="Q" horiz-adv-x="1441" d="M86 676q0 336 187.5 531.5t467.5 195.5q285 0 451 -180.5t166 -516t-187.5 -531t-468.5 -195.5q-303 0 -459.5 186t-156.5 510zM287 702q0 -256 109.5 -405.5t322.5 -149.5q182 0 310 141.5t128 395.5q0 264 -113.5 408.5t-322.5 144.5q-182 0 -308 -142.5t-126 -392.5z M655 -147q45 5 96 5q133 0 299 -38q161 -37 289 -37q53 0 101 6v-168q-72 -11 -140 -11q-75 0 -145 13q-135 25 -258 53q-78 17 -154 17q-44 0 -88 -6v166z" />
<glyph unicode="R" horiz-adv-x="1132" d="M174 0v1382q125 8 346 9q469 0 469 -361q0 -172 -116.5 -274.5t-305.5 -114.5l121 -147l391 -494h-239l-469 621h-9v-621h-188zM362 762q41 -4 117 -4q147 0 230.5 67.5t83.5 180.5q0 123 -76 177t-230 54q-51 0 -125 -4v-471z" />
<glyph unicode="S" horiz-adv-x="1030" d="M104 1010q0 174 131.5 282.5t360.5 108.5q127 0 250 -25l-10 -168q-131 37 -250 37q-139 0 -213 -58.5t-74 -156.5q0 -82 64.5 -136t155.5 -89t183.5 -76t157 -121.5t64.5 -199.5q0 -188 -139.5 -307t-376.5 -119q-152 0 -279 32l10 181q143 -51 285 -52q135 0 219 58.5 t84 179.5q0 72 -46 124t-115.5 79.5t-149.5 62.5t-149.5 73t-116 112.5t-46.5 177.5z" />
<glyph unicode="T" horiz-adv-x="1056" d="M37 1225v157h985v-157h-399v-1225h-189v1225h-397z" />
<glyph unicode="U" horiz-adv-x="1419" d="M174 465v917h188v-903q0 -162 75 -253t268 -91q184 0 269 87t85 292v868h184v-854q0 -270 -140 -409t-411 -139q-156 0 -262 39.5t-159.5 112.5t-75 151.5t-21.5 181.5z" />
<glyph unicode="V" horiz-adv-x="1265" d="M23 1382h208l310 -888q61 -184 90 -287h2q41 154 96 301l318 874h192l-508 -1382h-211z" />
<glyph unicode="W" horiz-adv-x="1949" d="M70 1382h200l234 -901q33 -121 55 -266h2q23 135 55 256l256 911h213l265 -919q35 -119 55 -244h2q23 131 47 225l240 938h186l-364 -1382h-232l-264 930q-31 109 -51 239h-2q-14 -117 -49 -237l-259 -932h-225z" />
<glyph unicode="X" horiz-adv-x="1226" d="M35 0l454 713l-426 669h218l327 -528l322 528h213l-420 -663l469 -719h-236l-352 571l-350 -571h-219z" />
<glyph unicode="Y" horiz-adv-x="1099" d="M18 1382h207l219 -467q59 -123 105 -239h2q33 84 119 264l213 442h196l-440 -884v-498h-188v498z" />
<glyph unicode="Z" horiz-adv-x="1103" d="M94 0v139l580 914q78 119 112 166q-131 -4 -301 -5h-370v168h891v-143l-611 -950l-82 -121q43 4 344 4h357v-172h-920z" />
<glyph unicode="[" horiz-adv-x="659" d="M176 -408v1987h406v-141h-234v-1700h234v-146h-406z" />
<glyph unicode="\" horiz-adv-x="837" d="M66 1382h170l534 -1382h-174z" />
<glyph unicode="]" horiz-adv-x="659" d="M78 -262h233v1700h-233v141h405v-1987h-405v146z" />
<glyph unicode="^" horiz-adv-x="1095" d="M127 770l338 612h147l355 -610l-138 -70l-294 543l-283 -543z" />
<glyph unicode="_" horiz-adv-x="1024" d="M0 -371h1024v-145h-1024v145z" />
<glyph unicode="`" horiz-adv-x="755" d="M195 1378l94 129l291 -225l-76 -106z" />
<glyph unicode="a" d="M45 0l414 1065h213l409 -1065h-207l-83 223h-474l-84 -223h-188zM367 360h376l-129 334q-18 51 -59 176h-2q-16 -72 -55 -174z" />
<glyph unicode="b" horiz-adv-x="1087" d="M195 0v1065q39 0 162.5 2t201.5 2q369 0 369 -258q0 -84 -48.5 -147.5t-136.5 -96.5v-2q100 -23 152.5 -87t52.5 -154q0 -57 -19.5 -109.5t-65.5 -105t-137 -83t-216 -30.5q-61 0 -315 4zM381 141q61 -8 133 -8q119 0 179.5 50t60.5 136q0 166 -275 166q-72 0 -98 -2 v-342zM381 612q39 -2 90 -2q125 0 193.5 44t68.5 132q0 147 -213 148q-96 0 -139 -2v-320z" />
<glyph unicode="c" horiz-adv-x="1003" d="M98 510q0 246 143.5 407.5t422.5 161.5q127 0 237 -30l-18 -166q-127 39 -238 39q-168 0 -258 -110t-90 -284q0 -184 93 -281t267 -97q129 0 238 51l16 -164q-135 -51 -293 -51q-254 0 -387 138t-133 386z" />
<glyph unicode="d" horiz-adv-x="1218" d="M195 0v1065q41 0 171 2t193 2q571 0 571 -522q0 -272 -172 -412.5t-454 -140.5q-51 0 -309 6zM381 156q49 -6 143 -6q188 0 299 97t111 290q0 383 -402 383q-57 0 -151 -5v-759z" />
<glyph unicode="e" horiz-adv-x="935" d="M195 0v1065h602v-145h-416v-302h395v-141h-395v-327h416v-150h-602z" />
<glyph unicode="f" horiz-adv-x="897" d="M195 0v1065h596v-145h-410v-314h387v-143h-387v-463h-186z" />
<glyph unicode="g" horiz-adv-x="1200" d="M90 512q0 246 159 406.5t429 160.5q168 0 323 -47l-32 -164q-147 57 -293 58q-168 0 -278.5 -103.5t-110.5 -292.5q0 -182 101 -282.5t271 -100.5q102 0 177 25v377h186v-496q-181 -69 -379 -69h-6q-246 0 -396.5 138t-150.5 390z" />
<glyph unicode="h" horiz-adv-x="1302" d="M195 0v1065h186v-436h541v436h186v-1065h-186v469h-541v-469h-186z" />
<glyph unicode="i" horiz-adv-x="575" d="M195 0v1065h186v-1065h-186z" />
<glyph unicode="j" horiz-adv-x="665" d="M53 2v164q55 -18 113 -19q68 0 96.5 40t28.5 141v737h186v-746q0 -168 -70.5 -250.5t-232.5 -82.5q-61 0 -121 16z" />
<glyph unicode="k" horiz-adv-x="1110" d="M195 0v1065h186v-490l426 490h233l-460 -512l481 -553h-250l-430 514v-514h-186z" />
<glyph unicode="l" horiz-adv-x="808" d="M195 0v1065h186v-905h381v-160h-567z" />
<glyph unicode="m" horiz-adv-x="1648" d="M147 0l162 1065h232l219 -645q45 -139 57 -203h2q16 82 55 197l226 651h243l156 -1065h-196l-84 592q-12 92 -29 256h-2q-20 -92 -55 -191l-224 -657h-198l-205 612q-51 147 -68 234h-2q-4 -82 -26 -262l-76 -584h-187z" />
<glyph unicode="n" horiz-adv-x="1331" d="M195 0v1065h245l396 -614q68 -100 125 -213h2q-8 92 -9 342l-2 485h183v-1065h-248l-402 625q-66 100 -116 209h-2q8 -135 8 -254v-580h-180z" />
<glyph unicode="o" horiz-adv-x="1239" d="M92 522q0 256 157 407.5t384 151.5q240 0 377 -139t137 -399q0 -258 -155.5 -408.5t-391.5 -150.5q-252 0 -380 146t-128 392zM291 539q0 -176 77.5 -285t243.5 -109q147 0 240.5 98.5t93.5 282.5q0 190 -87 293t-241 103q-137 0 -232 -101.5t-95 -281.5z" />
<glyph unicode="p" horiz-adv-x="1005" d="M195 0v1065q258 6 325 6q193 0 300.5 -89t107.5 -245q0 -172 -123 -273.5t-326 -101.5q-55 0 -98 7v-369h-186zM381 520q53 -8 100 -8q119 0 184.5 54.5t65.5 156.5q0 88 -59.5 142.5t-171.5 54.5q-88 0 -119 -2v-398z" />
<glyph unicode="q" horiz-adv-x="1239" d="M92 522q0 256 157 407.5t384 151.5q240 0 377 -139t137 -399q0 -258 -155.5 -408.5t-391.5 -150.5q-252 0 -380 146t-128 392zM291 539q0 -176 77.5 -285t243.5 -109q147 0 240.5 98.5t93.5 282.5q0 190 -87 293t-241 103q-137 0 -232 -101.5t-95 -281.5zM571 -137 q37 4 77 4q133 0 300 -41q158 -38 286 -38q49 0 93 5v-164q-63 -9 -124 -9q-75 0 -146 14q-129 24 -250 52q-80 18 -158 18q-39 0 -78 -5v164z" />
<glyph unicode="r" horiz-adv-x="1044" d="M195 0v1065q104 6 317 6q188 0 289.5 -73.5t101.5 -213.5q0 -131 -88 -210.5t-231 -94.5q8 -8 92 -112l289 -367h-234l-342 457h-8v-457h-186zM381 588q66 -4 113 -4q96 0 154.5 50t58.5 132q0 80 -57.5 121t-162.5 41q-61 0 -106 -6v-334z" />
<glyph unicode="s" horiz-adv-x="927" d="M111 760q0 147 112.5 234t313.5 87q117 0 208 -18l-8 -162q-96 31 -211 31q-219 0 -219 -152q0 -55 52.5 -92t126 -60.5t147.5 -52t126 -90t52 -155.5q0 -158 -126 -253t-320 -95q-119 0 -230 26l8 174q94 -43 244 -43q94 0 159.5 42t65.5 128q0 57 -51 93t-126 59.5 t-148.5 51.5t-124.5 90.5t-51 156.5z" />
<glyph unicode="t" horiz-adv-x="882" d="M39 909v156h803v-156h-310v-909h-186v909h-307z" />
<glyph unicode="u" horiz-adv-x="1298" d="M188 369v696h187v-664q0 -264 276 -264q274 0 275 283v645h184v-659q0 -184 -118 -303t-355 -119q-219 0 -334 99t-115 286z" />
<glyph unicode="v" horiz-adv-x="1085" d="M20 1065h207l226 -594q53 -135 90 -272h2q63 201 90 266l235 600h195l-418 -1065h-213z" />
<glyph unicode="w" horiz-adv-x="1785" d="M49 1065h211l197 -637q37 -121 57 -217h4q25 115 60 217l213 637h210l216 -633q31 -92 63 -223h2q29 106 66 225l192 631h199l-342 -1065h-234l-207 612q-27 78 -71 242h-2q-33 -129 -72 -248l-201 -606h-223z" />
<glyph unicode="x" horiz-adv-x="1183" d="M68 0l405 530l-391 535h237l277 -395l281 395h217l-387 -526l407 -539h-248l-284 406l-287 -406h-227z" />
<glyph unicode="y" horiz-adv-x="970" d="M18 1065h207l172 -334q47 -88 88 -192h2q39 92 101 206l170 320h194l-377 -698v-367h-186v365z" />
<glyph unicode="z" horiz-adv-x="1013" d="M117 0v139l463 647l84 117q-102 -4 -230 -4h-301v166h754v-145l-481 -670q-49 -66 -62 -82q31 4 250 4h301v-172h-778z" />
<glyph unicode="{" horiz-adv-x="698" d="M59 575v146q123 6 170 52t47 169v240q0 397 320 397h37v-141q-106 0 -146.5 -53.5t-40.5 -196.5v-238q0 -264 -190 -299v-4q190 -29 190 -303v-356q0 -143 40 -196.5t147 -53.5v-146h-37q-172 0 -246 97.5t-74 302.5v358q0 121 -49 170t-168 55z" />
<glyph unicode="|" horiz-adv-x="571" d="M211 -512v2048h145v-2048h-145z" />
<glyph unicode="}" horiz-adv-x="692" d="M78 -262q106 0 146 53t40 197v356q0 274 191 303v4q-190 25 -191 291v246q0 143 -40 196.5t-146 53.5v141h37q319 0 319 -397v-232q0 -129 47 -176t170 -53v-146q-119 -6 -168 -55t-49 -170v-358q0 -205 -73.5 -302.5t-245.5 -97.5h-37v146z" />
<glyph unicode="~" horiz-adv-x="1185" d="M100 592q129 113 275 113q104 0 231 -66t209 -66q98 0 207 99l61 -131q-123 -127 -280 -127q-106 0 -238.5 65.5t-204.5 65.5q-100 0 -200 -88z" />
<glyph unicode="&#xa1;" horiz-adv-x="526" d="M145 1014q0 47 34 78.5t85 31.5q49 0 84 -30.5t35 -79.5q0 -45 -34 -77t-85 -32t-85 32t-34 77zM160 -49l22 868h160l25 -868h-207z" />
<glyph unicode="&#xa2;" horiz-adv-x="1064" d="M92 702q0 225 133 370t350 165v154h140v-154q137 -4 217 -41l-12 -156q-102 43 -205 45v-741q102 6 209 55l14 -159q-102 -41 -223 -54v-198h-140v194q-223 6 -353 136.5t-130 383.5zM285 723q-1 -346 290 -377v735q-123 -14 -206.5 -109t-83.5 -249z" />
<glyph unicode="&#xa3;" horiz-adv-x="1011" d="M119 0v139q125 90 181 173t56 200q0 29 -12 168h-223v141h207q-23 219 -23 252q0 197 92 286t275 89q84 0 166 -16l-11 -152q-84 18 -149 18q-94 0 -141.5 -56t-47.5 -157q0 -39 23 -264h293v-141h-279q10 -92 11 -143q0 -121 -46.5 -208t-146.5 -175q86 8 166 8h375 v-162h-766z" />
<glyph unicode="&#xa4;" d="M123 223l149 185q-82 94 -82 266q0 158 93 256l-160 196l135 99l152 -207q68 37 168 37q94 0 163 -35l154 207l131 -101l-158 -198q68 -88 68 -242q0 -145 -82 -248l172 -213l-135 -102l-164 221q-80 -49 -180 -49q-76 0 -139 27l-148 -199zM356 678q0 -111 50.5 -178.5 t160.5 -67.5q84 0 143.5 68.5t59.5 183.5q0 233 -213 234q-86 0 -143.5 -66t-57.5 -174z" />
<glyph unicode="&#xa5;" horiz-adv-x="1210" d="M78 1382h205l219 -454q63 -131 104 -248h2q43 119 121 270l213 432h199l-398 -786h291v-125h-336v-143h336v-125h-336v-203h-186v203h-338v125h338v143h-338v125h293z" />
<glyph unicode="&#xa6;" horiz-adv-x="2048" d="M0 0v160h2048v-160h-2048z" />
<glyph unicode="&#xa7;" horiz-adv-x="1069" d="M104 903q0 121 56.5 260.5t144.5 235.5q143 156 344 155q74 0 160 -12l-8 -153q-74 20 -164 20q-195 0 -195 -176q0 -63 53.5 -133t128 -140.5t149.5 -151.5t128 -196.5t53 -246.5q0 -121 -55 -258.5t-145 -233.5q-147 -154 -357 -154q-84 0 -151 13l6 162 q68 -25 170 -25q193 0 192 158q0 68 -52 141.5t-127 147t-150.5 155.5t-128 195.5t-52.5 236.5zM272 948q0 -106 44 -198.5t108.5 -162t131.5 -136t122 -149.5t70 -171q38 105 38 199q0 109 -45 203t-111.5 164.5t-135 136t-123 144.5t-66.5 163q-33 -98 -33 -193z" />
<glyph unicode="&#xa8;" horiz-adv-x="1118" d="M236 1339q0 45 31.5 78t78.5 33q45 0 77 -32t32 -79q0 -45 -31 -76.5t-78 -31.5t-78.5 31.5t-31.5 76.5zM629 1339q0 45 31.5 78t78.5 33q45 0 77 -32t32 -79q0 -45 -31 -76.5t-78 -31.5t-78.5 31.5t-31.5 76.5z" />
<glyph unicode="&#xa9;" horiz-adv-x="1548" d="M82 684q0 285 200.5 485.5t487.5 200.5t487.5 -198.5t200.5 -483.5q0 -287 -200.5 -487.5t-487.5 -200.5q-291 0 -489.5 198.5t-198.5 485.5zM229 688q0 -225 159 -387t382 -162q225 0 384 160t159 385t-159 386t-384 161t-383 -159t-158 -384zM446 676q0 162 87.5 268.5 t269.5 106.5q88 0 162 -27l-17 -131q-66 33 -147 33q-197 0 -197 -244q0 -227 189 -227q86 0 159 30l21 -127q-94 -35 -203 -34q-162 0 -243 95t-81 257z" />
<glyph unicode="&#xaa;" horiz-adv-x="790" d="M98 864q0 117 107.5 183.5t296.5 66.5v37q0 123 -133 123q-113 0 -215 -53l-15 135q113 43 252 43q141 0 201.5 -63.5t60.5 -164.5q0 -68 -1 -168t-1 -122q0 -109 4 -179h-151q0 66 10 109l-4 2q-20 -51 -79.5 -88t-127.5 -37q-102 0 -153.5 48t-51.5 128zM117 430v148 h555v-148h-555zM250 889q0 -35 23.5 -56.5t64.5 -21.5q76 0 120 62.5t44 117.5v19q-252 0 -252 -121z" />
<glyph unicode="&#xab;" horiz-adv-x="1042" d="M111 504l235 373l139 -78l-194 -293l192 -291l-143 -78zM506 504l254 368l135 -77l-209 -289l207 -285l-139 -80z" />
<glyph unicode="&#xac;" horiz-adv-x="1081" d="M76 463v151h903v-473h-162v322h-741z" />
<glyph unicode="&#xad;" horiz-adv-x="675" d="M96 440v148h484v-148h-484z" />
<glyph unicode="&#xae;" horiz-adv-x="1150" d="M123 1087q0 186 132 317.5t320.5 131.5t319.5 -130t131 -319q0 -184 -133 -316t-318 -132q-190 0 -321 130t-131 318zM248 1089.5q0 -137.5 96 -236.5t231.5 -99t231.5 97t96 232q0 137 -96.5 236.5t-231.5 99.5q-137 0 -232 -96t-95 -233.5zM424 856v467h162 q160 0 159 -123q0 -113 -108 -133q10 -12 39 -61l88 -150h-123l-109 195h-8v-195h-100zM524 1116h29q45 0 65.5 21.5t20.5 50.5q0 57 -72 57h-43v-129z" />
<glyph unicode="&#xaf;" horiz-adv-x="788" d="M162 1264v137h452v-137h-452z" />
<glyph unicode="&#xb0;" horiz-adv-x="770" d="M109 1247q0 119 82.5 190.5t193.5 71.5q131 0 199.5 -72.5t68.5 -185.5q0 -119 -84 -190.5t-196 -71.5q-121 0 -192.5 69.5t-71.5 188.5zM254 1249q0 -66 35 -102.5t90 -36.5q57 0 94 39t37 100q0 55 -32 98.5t-97 43.5q-55 0 -91 -40t-36 -102z" />
<glyph unicode="&#xb1;" horiz-adv-x="1175" d="M94 559v154h406v407h176v-407h405v-154h-405v-412h-176v412h-406zM104 29h967v-156h-967v156z" />
<glyph unicode="&#xb2;" horiz-adv-x="1996" d="M117 549q0 150 103.5 251t271.5 101q119 0 240.5 -61.5t273.5 -173.5q309 236 507 235q174 0 270.5 -95.5t96.5 -240.5q0 -150 -102.5 -251t-278.5 -101q-115 0 -235.5 60.5t-272.5 172.5q-145 -109 -267 -171t-243 -62q-176 0 -270 96.5t-94 239.5zM301 559 q0 -82 50 -133t143 -51q120 0 360 178q-125 94 -209 140t-158 46q-86 0 -136 -52t-50 -128zM1143 561q125 -94 209 -140t157 -46q88 0 137.5 52t49.5 130q0 82 -51.5 132t-141.5 50q-119 0 -360 -178z" />
<glyph unicode="&#xb3;" horiz-adv-x="1112" d="M117 641l737 510l109 -129l-586 -379l586 -375l-107 -135zM145 29h836v-156h-836v156z" />
<glyph unicode="&#xb4;" horiz-adv-x="796" d="M203 1280l291 227l92 -127l-310 -202z" />
<glyph unicode="&#xb6;" horiz-adv-x="1284" d="M172 1006q0 168 120 272t331 104h524v-147h-143v-1432h-162v1432h-164v-1432h-162v826q-344 57 -344 377z" />
<glyph unicode="&#xb7;" horiz-adv-x="479" d="M109 590q0 55 37.5 93t93 38t93.5 -38t38 -93t-38 -93t-93.5 -38t-93 38t-37.5 93z" />
<glyph unicode="&#xb8;" horiz-adv-x="819" d="M311 -420q184 135 86 316h178q109 -233 -180 -392z" />
<glyph unicode="&#xb9;" horiz-adv-x="1112" d="M131 29h834v-156h-834v156zM147 260l586 381l-586 375l107 135l739 -508l-737 -510z" />
<glyph unicode="&#xba;" horiz-adv-x="858" d="M96 1044q0 158 95.5 257.5t242.5 99.5q137 0 228.5 -79t91.5 -267q0 -164 -97.5 -264.5t-248.5 -100.5q-311 0 -312 354zM137 430v148h576v-148h-576zM260 1049q0 -221 160 -222q78 0 124 56.5t46 169.5q0 213 -164 213q-70 0 -118 -54.5t-48 -162.5z" />
<glyph unicode="&#xbb;" horiz-adv-x="1042" d="M147 219l209 289l-206 285l139 79l250 -362l-256 -369zM559 213l193 295l-193 289l143 80l230 -367l-236 -373z" />
<glyph unicode="&#xbc;" horiz-adv-x="1304" d="M152 410q0 213 137 351t354 138q115 0 198 -52t122 -140q0 121 -2 172q-12 233 -135.5 355t-317.5 122l20 153q287 -6 457 -184t170 -487q0 -422 -188 -662q-70 -88 -174.5 -140t-223.5 -52q-201 0 -309 113.5t-108 312.5zM336 426q0 -137 70.5 -210t187.5 -73 q131 0 219 99.5t88 244.5q0 115 -69.5 186.5t-198.5 71.5t-213 -91t-84 -228z" />
<glyph unicode="&#xbd;" horiz-adv-x="1247" d="M80 -375l627 883l-594 844v143h989v-158h-762l582 -823l-623 -866h834v-164h-1053v141z" />
<glyph unicode="&#xbe;" horiz-adv-x="1605" d="M92 1337v158h1421v-158h-215v-1853h-178v1853h-635v-1853h-176v1853h-217z" />
<glyph unicode="&#xbf;" horiz-adv-x="745" d="M92 266q0 59 25.5 111.5t62.5 85.5t77 71.5t67.5 74.5t37 91.5t-15.5 122.5h182q33 -102 22 -164.5t-52 -116t-85 -86t-80 -76.5t-36 -87q0 -80 99.5 -132t236.5 -50l-23 -164q-242 4 -380 94t-138 225zM311 1018q0 45 35 77.5t84 32.5t84 -30.5t35 -79.5q0 -45 -33 -77 t-86 -32q-51 0 -85 32t-34 77z" />
<glyph unicode="&#xc0;" horiz-adv-x="1259" d="M20 0l504 1382h209l508 -1382h-211l-115 324h-587l-115 -324h-193zM358 1692l95 129l290 -226l-75 -106zM377 473h487l-180 494q-35 92 -61 207h-5q-29 -117 -63 -209z" />
<glyph unicode="&#xc1;" horiz-adv-x="1259" d="M20 0l504 1382h209l508 -1382h-211l-115 324h-587l-115 -324h-193zM377 473h487l-180 494q-35 92 -61 207h-5q-29 -117 -63 -209zM481 1593l291 228l92 -127l-309 -203z" />
<glyph unicode="&#xc2;" horiz-adv-x="1259" d="M20 0l504 1382h209l508 -1382h-211l-115 324h-587l-115 -324h-193zM350 1606l279 190l289 -186l-74 -111l-217 139l-209 -139zM377 473h487l-180 494q-35 92 -61 207h-5q-29 -117 -63 -209z" />
<glyph unicode="&#xc3;" horiz-adv-x="1259" d="M20 0l504 1382h209l508 -1382h-211l-115 324h-587l-115 -324h-193zM295 1683q84 84 197 84q72 0 158.5 -48t137.5 -48q80 0 142 66l43 -125q-82 -82 -195 -82q-78 0 -163 48t-140 48q-72 0 -137 -65zM377 473h487l-180 494q-35 92 -61 207h-5q-29 -117 -63 -209z" />
<glyph unicode="&#xc4;" horiz-adv-x="1259" d="M20 0l504 1382h209l508 -1382h-211l-115 324h-587l-115 -324h-193zM322 1624q0 47 31.5 79t78.5 32q45 0 77 -32t32 -79t-31 -77.5t-78 -30.5t-78.5 31.5t-31.5 76.5zM377 473h487l-180 494q-35 92 -61 207h-5q-29 -117 -63 -209zM715 1624q0 47 31.5 79t78.5 32 q45 0 77 -32t32 -79t-31 -77.5t-78 -30.5t-78.5 31.5t-31.5 76.5z" />
<glyph unicode="&#xc5;" horiz-adv-x="1259" d="M20 0l502 1378q-55 27 -89 80t-34 119q0 96 69 160.5t163 64.5q98 0 165.5 -64.5t67.5 -160.5q0 -66 -35.5 -119t-93.5 -82l506 -1376h-211l-115 324h-587l-115 -324h-193zM377 473h487l-180 494q-35 92 -61 207h-5q-29 -117 -63 -209zM518 1577q0 -47 33 -81t80 -34 t80.5 34t33.5 81t-33.5 82t-80.5 35t-80 -35t-33 -82z" />
<glyph unicode="&#xc6;" horiz-adv-x="1599" d="M-88 0l735 1382h791v-155h-512v-439h491v-151h-491v-479h530v-158h-715v334h-458l-174 -334h-197zM352 483h389v742h-4q-80 -178 -135 -281z" />
<glyph unicode="&#xc7;" horiz-adv-x="1193" d="M94 655q0 334 170 537t506 203q150 0 313 -41l-20 -172q-160 49 -313 49q-225 0 -338 -151.5t-113 -393.5q0 -535 469 -534q170 0 309 69l21 -168q-170 -70 -375 -69q-319 0 -474 181t-155 490zM514 -420q184 135 86 316h178q109 -233 -180 -392z" />
<glyph unicode="&#xc8;" horiz-adv-x="1026" d="M174 0v1382h711v-155h-523v-439h498v-151h-498v-479h523v-158h-711zM279 1692l94 129l291 -226l-76 -106z" />
<glyph unicode="&#xc9;" horiz-adv-x="1026" d="M174 0v1382h711v-155h-523v-439h498v-151h-498v-479h523v-158h-711zM387 1593l291 228l92 -127l-309 -203z" />
<glyph unicode="&#xca;" horiz-adv-x="1026" d="M174 0v1382h711v-155h-523v-439h498v-151h-498v-479h523v-158h-711zM240 1606l278 190l289 -186l-74 -111l-217 139l-209 -139z" />
<glyph unicode="&#xcb;" horiz-adv-x="1026" d="M174 0v1382h711v-155h-523v-439h498v-151h-498v-479h523v-158h-711zM213 1624q0 47 33 79t78 32t76.5 -32t31.5 -79t-31.5 -77.5t-76.5 -30.5q-47 0 -79 31.5t-32 76.5zM606 1624q0 47 33 79t78 32t76.5 -32t31.5 -79t-31.5 -77.5t-76.5 -30.5q-47 0 -79 31.5t-32 76.5z " />
<glyph unicode="&#xcc;" horiz-adv-x="536" d="M33 1692l94 129l291 -228l-76 -104zM174 0v1382h188v-1382h-188z" />
<glyph unicode="&#xcd;" horiz-adv-x="536" d="M115 1593l291 228l92 -129l-310 -203zM174 0v1382h188v-1382h-188z" />
<glyph unicode="&#xce;" horiz-adv-x="536" d="M-10 1606l280 190l289 -186l-74 -111l-217 139l-209 -139zM174 0v1382h188v-1382h-188z" />
<glyph unicode="&#xcf;" horiz-adv-x="536" d="M-41 1624q0 47 33 79t78 32t77.5 -32t32.5 -79t-32.5 -79t-77.5 -32t-78 32t-33 79zM174 0v1382h188v-1382h-188zM352 1624q0 47 33 79t78 32t77.5 -32t32.5 -79t-32.5 -79t-77.5 -32t-78 32t-33 79z" />
<glyph unicode="&#xd0;" horiz-adv-x="1376" d="M82 870v148h1173v-148h-223v-469q0 -184 20.5 -232t96.5 -48q45 0 111 16l12 -135q-86 -20 -193 -20q-127 0 -175 66.5t-48 215.5v606h-375v-870h-176v870h-223z" />
<glyph unicode="&#xd1;" horiz-adv-x="1447" d="M174 0v1382h248l514 -829q72 -117 170 -303q-14 297 -14 739v393h182v-1382h-246l-526 856q-78 123 -158 287q14 -258 14 -699v-444h-184zM377 1683q84 84 196 84q72 0 159 -48t138 -48q80 0 142 66l43 -125q-82 -82 -195 -82q-78 0 -163 48t-140 48q-72 0 -137 -65z" />
<glyph unicode="&#xd2;" horiz-adv-x="1443" d="M86 676q0 336 187.5 531.5t467.5 195.5q285 0 451 -180.5t166 -516t-187.5 -531t-468.5 -195.5q-303 0 -459.5 186t-156.5 510zM287 702q0 -256 109.5 -405.5t322.5 -149.5q182 0 310 141.5t128 395.5q0 264 -113.5 408.5t-322.5 144.5q-182 0 -308 -142.5t-126 -392.5z M477 1692l94 129l291 -226l-76 -106z" />
<glyph unicode="&#xd3;" horiz-adv-x="1443" d="M86 676q0 336 187.5 531.5t467.5 195.5q285 0 451 -180.5t166 -516t-187.5 -531t-468.5 -195.5q-303 0 -459.5 186t-156.5 510zM287 702q0 -256 109.5 -405.5t322.5 -149.5q182 0 310 141.5t128 395.5q0 264 -113.5 408.5t-322.5 144.5q-182 0 -308 -142.5t-126 -392.5z M612 1593l291 228l92 -127l-309 -203z" />
<glyph unicode="&#xd4;" horiz-adv-x="1443" d="M86 676q0 336 187.5 531.5t467.5 195.5q285 0 451 -180.5t166 -516t-187.5 -531t-468.5 -195.5q-303 0 -459.5 186t-156.5 510zM287 702q0 -256 109.5 -405.5t322.5 -149.5q182 0 310 141.5t128 395.5q0 264 -113.5 408.5t-322.5 144.5q-182 0 -308 -142.5t-126 -392.5z M453 1606l278 190l289 -186l-74 -111l-217 139l-209 -139z" />
<glyph unicode="&#xd5;" horiz-adv-x="1443" d="M86 676q0 336 187.5 531.5t467.5 195.5q285 0 451 -180.5t166 -516t-187.5 -531t-468.5 -195.5q-303 0 -459.5 186t-156.5 510zM287 702q0 -256 109.5 -405.5t322.5 -149.5q182 0 310 141.5t128 395.5q0 264 -113.5 408.5t-322.5 144.5q-182 0 -308 -142.5t-126 -392.5z M387 1686q84 84 197 83q72 0 158.5 -48t138.5 -48q80 0 141 66l43 -125q-82 -82 -195 -82q-78 0 -162.5 48t-140.5 48q-72 0 -137 -65z" />
<glyph unicode="&#xd6;" horiz-adv-x="1443" d="M86 676q0 336 187.5 531.5t467.5 195.5q285 0 451 -180.5t166 -516t-187.5 -531t-468.5 -195.5q-303 0 -459.5 186t-156.5 510zM287 702q0 -256 109.5 -405.5t322.5 -149.5q182 0 310 141.5t128 395.5q0 264 -113.5 408.5t-322.5 144.5q-182 0 -308 -142.5t-126 -392.5z M418 1624q0 47 32.5 79t77.5 32t77 -32t32 -79t-32 -77.5t-77 -30.5q-47 0 -78.5 31.5t-31.5 76.5zM811 1624q0 47 33 79t78 32t76.5 -32t31.5 -79t-31.5 -77.5t-76.5 -30.5q-47 0 -79 31.5t-32 76.5z" />
<glyph unicode="&#xd7;" horiz-adv-x="694" d="M10 -356q43 -16 99 -17q82 0 113.5 64.5t31.5 263.5q0 137 -11.5 462.5t-11.5 559.5q0 287 78 410.5t240 123.5q53 0 102 -12v-160q-57 16 -100 17q-82 0 -113.5 -67.5t-31.5 -270.5q0 -150 12 -469.5t12 -548.5q0 -287 -74.5 -409.5t-238.5 -122.5q-59 0 -107 12v164z " />
<glyph unicode="&#xd8;" horiz-adv-x="1443" d="M84 680q0 336 184.5 529.5t464.5 193.5q76 0 148 -17l73 199l140 -47l-72 -192q158 -72 244 -236t86 -412q0 -334 -184.5 -526t-473.5 -192q-86 0 -159 18l-76 -209l-142 45l78 209q-311 156 -311 637zM276 696q0 -348 181 -471l368 998q-68 12 -139 10 q-176 -10 -293 -151.5t-117 -385.5zM592 160q57 -16 135 -17q190 6 311 146.5t121 390.5q0 365 -201 485z" />
<glyph unicode="&#xd9;" horiz-adv-x="1419" d="M174 465v917h188v-903q0 -162 75 -253t268 -91q184 0 269 87t85 292v868h184v-854q0 -270 -140 -409t-411 -139q-156 0 -262 39.5t-159.5 112.5t-75 151.5t-21.5 181.5zM459 1692l94 129l291 -226l-76 -106z" />
<glyph unicode="&#xda;" horiz-adv-x="1419" d="M174 465v917h188v-903q0 -162 75 -253t268 -91q184 0 269 87t85 292v868h184v-854q0 -270 -140 -409t-411 -139q-156 0 -262 39.5t-159.5 112.5t-75 151.5t-21.5 181.5zM571 1593l291 228l92 -127l-309 -203z" />
<glyph unicode="&#xdb;" horiz-adv-x="1419" d="M174 465v917h188v-903q0 -162 75 -253t268 -91q184 0 269 87t85 292v868h184v-854q0 -270 -140 -409t-411 -139q-156 0 -262 39.5t-159.5 112.5t-75 151.5t-21.5 181.5zM424 1606l278 190l289 -186l-73 -111l-218 139l-208 -139z" />
<glyph unicode="&#xdc;" horiz-adv-x="1419" d="M174 465v917h188v-903q0 -162 75 -253t268 -91q184 0 269 87t85 292v868h184v-854q0 -270 -140 -409t-411 -139q-156 0 -262 39.5t-159.5 112.5t-75 151.5t-21.5 181.5zM383 1624q0 47 31.5 79t79.5 32q45 0 76.5 -32t31.5 -79t-30.5 -77.5t-78 -30.5t-79 31.5 t-31.5 76.5zM776 1624q0 47 32 79t79 32q45 0 76.5 -32t31.5 -79t-30.5 -77.5t-77.5 -30.5t-79 31.5t-32 76.5z" />
<glyph unicode="&#xdd;" horiz-adv-x="1533" d="M133 0v139h297q-139 90 -213 239.5t-74 338.5q0 303 176.5 495.5t460.5 192.5q272 0 439 -176t167 -494q0 -195 -80.5 -351.5t-215.5 -244.5h303v-139h-480v141q285 188 285 574q0 236 -111.5 389t-316.5 153q-203 0 -323.5 -147t-120.5 -387q0 -201 68.5 -339 t221.5 -241v-143h-483z" />
<glyph unicode="&#xde;" horiz-adv-x="1245" d="M2 879v139h338l195 -592q47 -143 69 -233h4q25 113 56 217l323 1142h199l-479 -1552h-213l-304 879h-188z" />
<glyph unicode="&#xdf;" horiz-adv-x="1288" d="M131 496v153h1024v-153h-1024z" />
<glyph unicode="&#xe0;" d="M45 0l414 1065h213l409 -1065h-207l-83 223h-474l-84 -223h-188zM322 1378l94 129l291 -225l-76 -106zM367 360h376l-129 334q-18 51 -59 176h-2q-16 -72 -55 -174z" />
<glyph unicode="&#xe1;" d="M45 0l414 1065h213l409 -1065h-207l-83 223h-474l-84 -223h-188zM367 360h376l-129 334q-18 51 -59 176h-2q-16 -72 -55 -174zM414 1280l291 227l92 -127l-310 -202z" />
<glyph unicode="&#xe2;" d="M45 0l414 1065h213l409 -1065h-207l-83 223h-474l-84 -223h-188zM279 1292l278 191l289 -187l-74 -110l-217 139l-209 -139zM367 360h376l-129 334q-18 51 -59 176h-2q-16 -72 -55 -174z" />
<glyph unicode="&#xe3;" d="M45 0l414 1065h213l409 -1065h-207l-83 223h-474l-84 -223h-188zM233 1370q84 84 197 84q72 0 159 -48t138 -48q80 0 141 65l43 -125q-82 -82 -194 -81q-78 0 -163 48t-140 48q-72 0 -138 -66zM367 360h376l-129 334q-18 51 -59 176h-2q-16 -72 -55 -174z" />
<glyph unicode="&#xe4;" d="M45 0l414 1065h213l409 -1065h-207l-83 223h-474l-84 -223h-188zM258 1339q0 45 33 78t78 33t76.5 -32t31.5 -79q0 -45 -31.5 -76.5t-76.5 -31.5q-47 0 -79 31.5t-32 76.5zM367 360h376l-129 334q-18 51 -59 176h-2q-16 -72 -55 -174zM651 1339q0 45 33 78t78 33 t76.5 -32t31.5 -79q0 -45 -31.5 -76.5t-76.5 -31.5q-47 0 -79 31.5t-32 76.5z" />
<glyph unicode="&#xe5;" d="M45 0l410 1057q-121 59 -121 198q0 96 68.5 161t162.5 65q98 0 166 -65t68 -161q0 -63 -34 -115.5t-91 -82.5l407 -1057h-207l-83 223h-474l-84 -223h-188zM367 360h376l-129 334q-18 51 -59 176h-2q-16 -72 -55 -174zM453 1255.5q0 -47.5 32.5 -81t79.5 -33.5t81 33.5 t34 81t-34 82t-81 34.5t-79.5 -34.5t-32.5 -82z" />
<glyph unicode="&#xe6;" horiz-adv-x="1363" d="M-63 0l589 1065h684v-145h-405v-304h391v-139h-391v-330h420v-147h-607v238h-356l-129 -238h-196zM326 367h292v534h-2q-61 -129 -104 -205z" />
<glyph unicode="&#xe7;" horiz-adv-x="1003" d="M98 510q0 246 143.5 407.5t422.5 161.5q127 0 237 -30l-18 -166q-127 39 -238 39q-168 0 -258 -110t-90 -284q0 -184 93 -281t267 -97q129 0 238 51l16 -164q-135 -51 -293 -51q-254 0 -387 138t-133 386zM395 -416q184 135 86 316h178q109 -233 -180 -392z" />
<glyph unicode="&#xe8;" horiz-adv-x="935" d="M195 0v1065h602v-145h-416v-302h395v-141h-395v-327h416v-150h-602zM248 1378l94 129l291 -225l-76 -106z" />
<glyph unicode="&#xe9;" horiz-adv-x="935" d="M195 0v1065h602v-145h-416v-302h395v-141h-395v-327h416v-150h-602zM352 1280l291 227l92 -127l-309 -202z" />
<glyph unicode="&#xea;" horiz-adv-x="935" d="M195 0v1065h602v-145h-416v-302h395v-141h-395v-327h416v-150h-602zM205 1292l278 191l289 -187l-74 -110l-217 139l-209 -139z" />
<glyph unicode="&#xeb;" horiz-adv-x="935" d="M195 0v1065h602v-145h-416v-302h395v-141h-395v-327h416v-150h-602zM195 1339q0 45 31.5 78t78.5 33q45 0 77 -32t32 -79q0 -45 -31 -76.5t-78 -31.5t-78.5 31.5t-31.5 76.5zM588 1339q0 45 31.5 78t78.5 33q45 0 77 -32t32 -79q0 -45 -31 -76.5t-78 -31.5t-78.5 31.5 t-31.5 76.5z" />
<glyph unicode="&#xec;" horiz-adv-x="575" d="M57 1378l95 129l290 -225l-75 -106zM195 0v1065h186v-1065h-186z" />
<glyph unicode="&#xed;" horiz-adv-x="575" d="M172 1280l291 227l92 -127l-309 -202zM195 0v1065h186v-1065h-186z" />
<glyph unicode="&#xee;" horiz-adv-x="575" d="M6 1292l281 191l288 -187l-75 -110l-217 139l-209 -139zM195 0v1065h186v-1065h-186z" />
<glyph unicode="&#xef;" horiz-adv-x="575" d="M-14 1339q0 47 31.5 79t76.5 32t78 -33t33 -78t-32 -76.5t-79 -31.5q-45 0 -76.5 31.5t-31.5 76.5zM195 0v1065h186v-1065h-186zM379 1339q0 47 31.5 79t76.5 32t78 -33t33 -78t-31.5 -76.5t-79.5 -31.5q-45 0 -76.5 31.5t-31.5 76.5z" />
<glyph unicode="&#xf0;" horiz-adv-x="1228" d="M143 360q125 117 263 117q96 0 217.5 -62.5t201.5 -62.5q100 0 197 80l59 -127q-125 -109 -264 -108q-104 0 -221 61t-193 61q-94 0 -198 -86zM143 717q125 117 269 117q98 0 220 -62.5t191 -62.5q92 0 197 90l61 -127q-117 -117 -264 -117q-100 0 -217 60.5t-197 60.5 q-96 0 -200 -86z" />
<glyph unicode="&#xf1;" horiz-adv-x="1331" d="M195 0v1065h245l396 -614q68 -100 125 -213h2q-8 92 -9 342l-2 485h183v-1065h-248l-402 625q-66 100 -116 209h-2q8 -135 8 -254v-580h-180zM315 1370q84 84 197 84q72 0 159 -48t138 -48q80 0 141 65l43 -125q-82 -82 -194 -81q-78 0 -163 48t-140 48q-72 0 -138 -66z " />
<glyph unicode="&#xf2;" horiz-adv-x="1239" d="M92 522q0 256 157 407.5t384 151.5q240 0 377 -139t137 -399q0 -258 -155.5 -408.5t-391.5 -150.5q-252 0 -380 146t-128 392zM291 539q0 -176 77.5 -285t243.5 -109q147 0 240.5 98.5t93.5 282.5q0 190 -87 293t-241 103q-137 0 -232 -101.5t-95 -281.5zM389 1378 l94 129l291 -225l-76 -106z" />
<glyph unicode="&#xf3;" horiz-adv-x="1239" d="M92 522q0 256 157 407.5t384 151.5q240 0 377 -139t137 -399q0 -258 -155.5 -408.5t-391.5 -150.5q-252 0 -380 146t-128 392zM291 539q0 -176 77.5 -285t243.5 -109q147 0 240.5 98.5t93.5 282.5q0 190 -87 293t-241 103q-137 0 -232 -101.5t-95 -281.5zM496 1280 l290 227l93 -127l-310 -202z" />
<glyph unicode="&#xf4;" horiz-adv-x="1239" d="M92 522q0 256 157 407.5t384 151.5q240 0 377 -139t137 -399q0 -258 -155.5 -408.5t-391.5 -150.5q-252 0 -380 146t-128 392zM291 539q0 -176 77.5 -285t243.5 -109q147 0 240.5 98.5t93.5 282.5q0 190 -87 293t-241 103q-137 0 -232 -101.5t-95 -281.5zM346 1292 l279 191l288 -187l-73 -110l-217 139l-209 -139z" />
<glyph unicode="&#xf5;" horiz-adv-x="1239" d="M92 522q0 256 157 407.5t384 151.5q240 0 377 -139t137 -399q0 -258 -155.5 -408.5t-391.5 -150.5q-252 0 -380 146t-128 392zM285 1370q84 84 196 84q72 0 159 -48t138 -48q80 0 142 65l43 -125q-82 -82 -195 -81q-78 0 -163 48t-140 48q-72 0 -137 -66zM291 539 q0 -176 77.5 -285t243.5 -109q147 0 240.5 98.5t93.5 282.5q0 190 -87 293t-241 103q-137 0 -232 -101.5t-95 -281.5z" />
<glyph unicode="&#xf6;" horiz-adv-x="1239" d="M92 522q0 256 157 407.5t384 151.5q240 0 377 -139t137 -399q0 -258 -155.5 -408.5t-391.5 -150.5q-252 0 -380 146t-128 392zM291 539q0 -176 77.5 -285t243.5 -109q147 0 240.5 98.5t93.5 282.5q0 190 -87 293t-241 103q-137 0 -232 -101.5t-95 -281.5zM317 1339 q0 45 32 78t79 33q45 0 77 -32t32 -79q0 -45 -31 -76.5t-78 -31.5t-79 31.5t-32 76.5zM711 1339q0 45 31.5 78t78.5 33q45 0 77 -32t32 -79q0 -45 -31 -76.5t-78 -31.5t-78.5 31.5t-31.5 76.5z" />
<glyph unicode="&#xf7;" horiz-adv-x="1202" d="M94 451v155h1014v-155h-1014zM477 115q0 51 37 87t88 36t87 -36t36 -87.5t-36 -88t-87 -36.5q-53 0 -89 35.5t-36 89.5zM477 940q0 51 37 87t88 36t87 -36t36 -87t-36 -88t-87 -37q-53 0 -89 37t-36 88z" />
<glyph unicode="&#xf8;" horiz-adv-x="1179" d="M66 522q0 256 155.5 407.5t380.5 151.5q53 0 109 -10l59 162l127 -43l-55 -154q270 -114 270 -495q0 -258 -154.5 -407.5t-388.5 -149.5q-66 0 -114 12l-68 -178l-127 43l64 172q-127 59 -192.5 187t-65.5 302zM256 539q0 -244 131 -332l270 706q-37 8 -94 5 q-131 -6 -219 -107.5t-88 -271.5zM506 154q37 -8 106 -4q139 6 224.5 105t85.5 271q0 248 -146 338z" />
<glyph unicode="&#xf9;" horiz-adv-x="1298" d="M188 369v696h187v-664q0 -264 276 -264q274 0 275 283v645h184v-659q0 -184 -118 -303t-355 -119q-219 0 -334 99t-115 286zM406 1378l94 129l291 -225l-76 -106z" />
<glyph unicode="&#xfa;" horiz-adv-x="1298" d="M188 369v696h187v-664q0 -264 276 -264q274 0 275 283v645h184v-659q0 -184 -118 -303t-355 -119q-219 0 -334 99t-115 286zM520 1280l291 227l92 -127l-309 -202z" />
<glyph unicode="&#xfb;" horiz-adv-x="1298" d="M188 369v696h187v-664q0 -264 276 -264q274 0 275 283v645h184v-659q0 -184 -118 -303t-355 -119q-219 0 -334 99t-115 286zM362 1292l279 191l289 -187l-74 -110l-217 139l-209 -139z" />
<glyph unicode="&#xfc;" horiz-adv-x="1298" d="M188 369v696h187v-664q0 -264 276 -264q274 0 275 283v645h184v-659q0 -184 -118 -303t-355 -119q-219 0 -334 99t-115 286zM334 1339q0 45 31.5 78t78.5 33q45 0 77 -32t32 -79q0 -45 -30.5 -76.5t-78 -31.5t-79 31.5t-31.5 76.5zM727 1339q0 45 32 78t79 33 q45 0 76.5 -32t31.5 -79q0 -45 -30.5 -76.5t-77.5 -31.5t-79 31.5t-32 76.5z" />
<glyph unicode="&#xfd;" horiz-adv-x="1495" d="M68 0l579 1434h195l588 -1434h-1362zM324 166h833l-422 1051z" />
<glyph unicode="&#xfe;" horiz-adv-x="4020" d="M426 758q-10 110 0 192l399 -26q-4 -70 0 -138zM838 1894q63 72 133 134l264 -304q-57 -49 -94 -92zM1241 854q0 317 225.5 542.5t544.5 225.5q317 0 541.5 -225.5t224.5 -542.5q0 -160 -58.5 -299t-154.5 -233v-248l-53 -15l100 -235l-94 -25l94 -227l-96 -25l33 -79 l-94 -216h-162q-10 -59 -89 -99t-192 -40t-192.5 40t-87.5 99h-162l-162 386l98 26l-98 238l109 26l-60 146v248q-98 100 -156.5 239t-58.5 293zM1399 854q0 -135 56.5 -257t158.5 -208h190l-53 436q-20 -4 -117 -37q-27 -8 -41 26t-8 74t25 44q209 63 401.5 63t403.5 -63 q18 -4 23 -44t-8 -74t-40 -26q-43 18 -125 37l-47 -436h188q94 80 154.5 202t60.5 263q0 254 -179 432t-431 178q-254 0 -433 -178t-179 -432zM1597 -172l54 -127l770 195l-56 129zM1599 -434l82 -199h660l45 105l-19 43l-239 -60l-39 105l334 84l-51 118zM1610 86l51 -121 l749 191v106h-800v-176zM1868 846l45 -457h194l43 457q-55 10 -139 10q-88 0 -143 -10zM1917 2390q96 10 188 0l-26 -395q-78 4 -135 -2zM1974 918h6v2h-4v12h-2v-14zM1985 920q0 -2 4 -2t4 2v8h-2v-8q0 -2 -2 -2t-2 2v8h-2v-8zM1997 924q2 -4 6 -6v2q-2 -2 -4 0q2 4 4 6v2 q-6 2 -6 -4zM2009 913h2q-2 10 0 21h-2q-2 -11 0 -21zM2015 920q2 -2 6 0v-2h2v8q0 6 -8 2v-2q6 4 6 -2q-6 0 -6 -4zM2017 920q0 2 4 2q-2 0 -4 -2zM2028 918q8 0 8 4q0 2 -4 4h-2q0 2 6 2v2q-8 0 -8 -4q0 -2 4 -4h2q0 -2 -6 -2v-2zM2040 913h2q2 10 0 21h-2q2 -10 0 -21z M2787 1726l260 299q76 -66 134 -135l-297 -258q-50 57 -97 94zM3199 786q4 68 0 138l395 26q8 -92 2 -192z" />
<glyph unicode="&#xff;" horiz-adv-x="970" d="M18 1065h207l172 -334q47 -88 88 -192h2q39 92 101 206l170 320h194l-377 -698v-367h-186v365zM162 1339q0 45 31.5 78t78.5 33q45 0 77 -32t32 -79q0 -45 -31 -76.5t-78 -31.5t-78.5 31.5t-31.5 76.5zM555 1339q0 45 31.5 78t79.5 33q45 0 76.5 -32t31.5 -79 q0 -45 -30.5 -76.5t-78 -31.5t-79 31.5t-31.5 76.5z" />
<glyph unicode="&#x152;" horiz-adv-x="1703" d="M86 680q0 326 184.5 519.5t458.5 193.5q53 0 140 -5.5t126 -5.5h568v-155h-525v-439h498v-151h-498v-479h525v-158h-564q-57 0 -155.5 -6t-151.5 -6q-305 0 -455.5 187t-150.5 505zM283 698q0 -248 105.5 -397t334.5 -149q78 0 133 12v1057q-66 12 -135 12 q-186 0 -312 -144.5t-126 -390.5z" />
<glyph unicode="&#x153;" horiz-adv-x="1456" d="M92 522q0 250 150.5 401.5t371.5 151.5q39 0 131.5 -5t131.5 -5h440v-145h-416v-302h395v-141h-395v-327h416v-150h-434q-43 0 -151.5 -5t-147.5 -5q-246 0 -369 144.5t-123 387.5zM289 539q0 -174 77.5 -280.5t247.5 -106.5q62 0 103 10v743q-61 8 -111 8 q-133 0 -225 -101t-92 -273z" />
<glyph unicode="&#x178;" horiz-adv-x="1099" d="M18 1382h207l219 -467q59 -123 105 -239h2q33 84 119 264l213 442h196l-440 -884v-498h-188v498zM233 1624q0 47 33 79t78 32t77 -32t32 -79t-32 -77.5t-77 -30.5q-47 0 -79 31.5t-32 76.5zM627 1624q0 47 32.5 79t77.5 32t77 -32t32 -79t-32 -77.5t-77 -30.5 q-47 0 -78.5 31.5t-31.5 76.5z" />
<glyph unicode="&#x2c6;" horiz-adv-x="886" d="M160 1292l278 191l289 -187l-74 -110l-217 139l-209 -139z" />
<glyph unicode="&#x2dc;" horiz-adv-x="1015" d="M186 1370q84 84 197 84q72 0 159 -48t138 -48q80 0 141 65l43 -125q-82 -82 -194 -81q-78 0 -163 48t-140 48q-72 0 -138 -66z" />
<glyph unicode="&#x2000;" horiz-adv-x="1197" />
<glyph unicode="&#x2001;" horiz-adv-x="2395" />
<glyph unicode="&#x2002;" horiz-adv-x="1197" />
<glyph unicode="&#x2003;" horiz-adv-x="2395" />
<glyph unicode="&#x2004;" horiz-adv-x="798" />
<glyph unicode="&#x2005;" horiz-adv-x="598" />
<glyph unicode="&#x2006;" horiz-adv-x="399" />
<glyph unicode="&#x2007;" horiz-adv-x="399" />
<glyph unicode="&#x2008;" horiz-adv-x="299" />
<glyph unicode="&#x2009;" horiz-adv-x="479" />
<glyph unicode="&#x200a;" horiz-adv-x="133" />
<glyph unicode="&#x2010;" horiz-adv-x="675" d="M96 440v148h484v-148h-484z" />
<glyph unicode="&#x2011;" horiz-adv-x="675" d="M96 440v148h484v-148h-484z" />
<glyph unicode="&#x2012;" horiz-adv-x="675" d="M96 440v148h484v-148h-484z" />
<glyph unicode="&#x2013;" horiz-adv-x="1024" d="M0 512v160h1024v-160h-1024z" />
<glyph unicode="&#x2014;" horiz-adv-x="2048" d="M0 512v160h2048v-160h-2048z" />
<glyph unicode="&#x2018;" horiz-adv-x="497" d="M124 1061q-36 74 14.5 207t197.5 268l80 -72q-172 -186 -88 -293q45 -55 14 -119.5t-104 -64.5q-78 0 -114 74z" />
<glyph unicode="&#x2019;" horiz-adv-x="497" d="M80 1044q172 186 88 293q-45 55 -14.5 120t104.5 65q78 0 114 -74t-14.5 -207t-197.5 -268z" />
<glyph unicode="&#x201a;" horiz-adv-x="497" d="M80 -246q174 186 88 295q-45 53 -14.5 117.5t104.5 64.5q78 0 114 -73.5t-14.5 -205.5t-197.5 -267z" />
<glyph unicode="&#x201c;" horiz-adv-x="886" d="M124 1061q-36 74 14 207t198 268l80 -72q-172 -186 -88 -293q45 -55 14 -119.5t-104 -64.5q-78 0 -114 74zM513 1061q-36 74 14.5 207t197.5 268l80 -72q-172 -186 -88 -293q45 -55 14 -119.5t-104 -64.5q-78 0 -114 74z" />
<glyph unicode="&#x201d;" horiz-adv-x="886" d="M80 1044q172 186 88 293q-45 55 -14.5 120t104.5 65q78 0 114 -74t-14.5 -207t-197.5 -268zM469 1044q172 186 88 293q-45 55 -14.5 120t104.5 65q78 0 114 -74t-14.5 -207t-197.5 -268z" />
<glyph unicode="&#x201e;" horiz-adv-x="886" d="M80 -246q174 186 88 295q-45 53 -14.5 117.5t104.5 64.5q78 0 114 -73.5t-14.5 -205.5t-197.5 -267zM469 -246q174 186 88 295q-45 53 -14.5 117.5t104.5 64.5q78 0 114 -73.5t-14.5 -205.5t-197.5 -267z" />
<glyph unicode="&#x2022;" horiz-adv-x="880" d="M182 598q0 102 73 175t173 73q102 0 175 -73t73 -175t-73 -175t-175 -73t-174 73t-72 175z" />
<glyph unicode="&#x2026;" horiz-adv-x="1361" d="M106 104.5q0 51.5 37 88t88.5 36.5t87 -36.5t35.5 -88t-35.5 -87t-87 -35.5t-88.5 35.5t-37 87zM547 104.5q0 51.5 35.5 88t87 36.5t88.5 -36.5t37 -88t-37 -87t-88.5 -35.5t-87 35.5t-35.5 87zM987 104.5q0 51.5 36 88t87 36.5q53 0 89 -36.5t36 -88t-37 -87t-88 -35.5 t-87 35.5t-36 87z" />
<glyph unicode="&#x202f;" horiz-adv-x="479" />
<glyph unicode="&#x2039;" horiz-adv-x="641" d="M109 504l247 370l138 -77l-203 -291l201 -287l-142 -80z" />
<glyph unicode="&#x203a;" horiz-adv-x="641" d="M147 217l203 291l-200 287l141 79l241 -364l-247 -371z" />
<glyph unicode="&#x205f;" horiz-adv-x="598" />
<glyph unicode="&#x20ac;" d="M27 471v121h176q-2 20 -2 63q0 45 4 123h-178v119h192q88 506 565 506q121 0 248 -31l-33 -158q-113 35 -237 35q-289 0 -348 -352h383v-119h-396q-4 -57 -4 -92q0 -16 1 -48t1 -46h398v-121h-385q27 -168 110.5 -250t243.5 -82q139 0 250 43l35 -147q-154 -55 -324 -55 q-451 0 -516 491h-184z" />
<glyph unicode="&#x2122;" horiz-adv-x="1431" d="M90 1270v112h442v-112h-149v-463h-141v463h-152zM567 807l90 575h177l92 -315l20 -94l19 86l96 323h176l88 -575h-141l-45 301l-15 111l-24 -95l-92 -317h-142l-90 321l-22 91l-6 -76l-50 -336h-131z" />
<glyph unicode="&#xe000;" horiz-adv-x="1064" d="M0 0v1065h1065v-1065h-1065z" />
<glyph unicode="&#xfb01;" horiz-adv-x="1024" d="M0 0v160h1024v-160h-1024z" />
<glyph unicode="&#xfb02;" horiz-adv-x="2048" d="M0 0v160h2048v-160h-2048z" />
</font>
</defs>
</svg>
