<?xml version="1.0" standalone="no"?> <!DOCTYPE svg PUBLIC "-//W3C//DTD SVG 1.0//EN" "http://www.w3.org/TR/2001/REC-SVG-20010904/DTD/svg10.dtd" > <svg xmlns="http://www.w3.org/2000/svg" width="100%" height="100%">
<defs >
<font id="TerminalDosis-ExtraLight" horiz-adv-x="435" ><font-face
    font-family="Terminal Dosis"
    units-per-em="1000"
    panose-1="2 1 2 3 2 2 2 6 0 3"
    ascent="1027"
    descent="-237"
    alphabetic="0" />
<missing-glyph horiz-adv-x="317" d="M60 112Q60 118 63 122L137 236L63 351Q60 356 60 360Q60 368 65 373T78 378Q87 378 93 370L159 268L225 370Q230 378 239 378Q246 378 251 373T257 360Q257 356 254 351L180 236L253 122Q256 118 256 112Q256 105 251 100T238
95Q229 95 224 103L159 203L93 103Q87 95 78 95Q71 95 66 100T60 112Z" />
<glyph unicode=" " glyph-name="space" horiz-adv-x="200" />
<glyph unicode="!" glyph-name="exclam" horiz-adv-x="193" d="M61 15T61 30T71 55T97 66Q111 66 121 56T132 30Q132 16 122 5T97 -6Q82 -6 72 4ZM70 717Q70 748 96 748Q108 748 115 740T123 717Q123 627 118 440T112 163Q112 156 107 152T96 147Q90 147 86 151T81
163Q81 253 76 440T70 717Z" />
<glyph unicode="&quot;" glyph-name="quotedbl" horiz-adv-x="255" d="M43 751Q43 758 51 763T67 768T83 763T92 751L82 599Q82 581 67 581Q53 581 53 599L43 751ZM163 751Q163 758 171 763T187 768T203 763T212 751L202 599Q202 581 187 581Q173 581 173 599L163 751Z" />
<glyph unicode="#" glyph-name="numbersign" horiz-adv-x="547" d="M32 268T32 283T44 298H160L186 475H81Q63 475 63 491Q63 505 75 505H191L221 703Q223 713 233 713Q252 713 252 693L223 505H358L388 703Q390 713 400 713Q419 713 419 693L390 505H497Q516
505 516 490Q516 485 512 480T503 475H386L359 298H466Q485 298 485 282Q485 277 481 273T472 268H354L322 51Q319 36 305 36Q289 36 289 55L321 268H187L155 52Q152 36 140 36Q123 36 123 55L154 268H50Q32 268 32 283ZM192 298H326L353 475H219L192 298Z" />
<glyph unicode="$" glyph-name="dollar" horiz-adv-x="484" d="M44 105Q44 112 50 119T61 126T77 113T103 83T154 54T238 40V375Q214 383 208 385L182 395Q160 403 154 407T130 421T106 439T89 460T74 486T66 518T62 558Q62 594 73 622T101 668T142 697T189 714T238
720V751Q238 758 243 763T256 768T268 763T274 751V721Q329 719 373 702T417 669Q417 662 411 655T399 647Q395 647 380 655T337 673T274 684V402Q310 389 334 376T383 340T422 281T435 195Q435 108 392 62T274 6V-35Q274 -42 269 -47T256 -52T244 -47T238 -35V4Q193
4 154 16T93 44T57 77T44 105ZM98 561Q98 527 108 502T141 461T184 435T238 414V684Q98 676 98 561ZM274 43Q399 61 399 192Q399 264 367 301T274 362V43Z" />
<glyph unicode="%" glyph-name="percent" horiz-adv-x="741" d="M46 469V624Q46 679 77 705T161 731T244 705T276 624V469Q276 414 245 388T161 362T78 388T46 469ZM80 469Q80 393 161 393Q243 393 243 469V624Q243 700 161 700Q80 700 80 624V469ZM163 -5Q163
1 165 4L556 760Q560 768 569 768Q575 768 581 763T587 749Q587 744 584 738L196 -9Q190 -20 179 -20Q163 -20 163 -5ZM465 104V259Q465 314 496 340T580 366T663 340T695 259V104Q695 49 664 23T580 -3T497 23T465 104ZM499 104Q499 28 580 28Q662 28 662 104V259Q662
335 580 335Q499 335 499 259V104Z" />
<glyph unicode="&amp;" glyph-name="ampersand" horiz-adv-x="595" d="M41 199Q41 273 81 322T182 397Q155 429 140 450T111 508T96 583Q96 660 144 704T263 748Q299 748 329 738T376 712T402 684T411 661Q411 645 394 645Q388 645 380 656L360 680Q350 694 325
705T267 716Q207 716 173 679T138 580Q138 530 160 490T227 401L450 154Q487 238 489 359Q489 380 506 380Q521 380 521 357Q521 223 474 127L571 21Q576 14 576 10Q576 3 571 -1T560 -6T548 0L458 97Q390 -10 260 -10Q158 -10 100 50T41 199ZM78 203Q78 129 128
77T266 25Q379 25 434 122L203 371Q177 357 161 347T123 315T90 266T78 203Z" />
<glyph unicode="&apos;" glyph-name="quotesingle" horiz-adv-x="135" d="M43 751Q43 758 51 763T67 768T83 763T92 751L82 599Q82 581 67 581Q53 581 53 599L43 751Z" />
<glyph unicode="(" glyph-name="parenleft" horiz-adv-x="278" d="M67 143V591Q67 662 116 715T241 768Q248 768 253 763T258 751T253 739T241 733Q178 733 141 690T103 591V143Q103 72 143 44T241 15Q258 15 258 -2Q258 -10 253 -15T241 -20Q162 -20 115 23T67 143Z" />
<glyph unicode=")" glyph-name="parenright" horiz-adv-x="278" d="M20 -2Q20 15 37 15Q94 15 134 43T175 143V591Q175 647 138 690T37 733Q30 733 25 738T20 751T25 763T37 768Q112 768 161 715T211 591V143Q211 67 164 24T37 -20Q31 -20 26 -15T20 -2Z" />
<glyph unicode="*" glyph-name="asterisk" horiz-adv-x="416" d="M39 602Q39 610 44 616T57 622Q60 622 62 621L195 574L190 714Q190 731 208 731T226 714L221 573L354 621Q356 622 360 622Q367 622 372 616T377 602Q377 589 365 586L232 547L317 435Q320 430
320 426Q320 418 314 413T300 407Q293 407 287 414L208 529L128 413Q124 407 117 407T103 412T96 425Q96 431 100 436L184 546L50 586Q39 589 39 602Z" />
<glyph unicode="+" glyph-name="plus" horiz-adv-x="427" d="M36 240Q36 258 53 258H196V400Q196 407 201 412T214 418T226 413T231 400V258H373Q380 258 385 253T391 240T386 228T373 223H231V80Q231 63 214 63Q196 63 196 80V223H53Q36 223 36 240Z" />
<glyph unicode="," glyph-name="comma" horiz-adv-x="162" d="M45 30Q45 45 55 55T80 66Q94 66 105 57T116 29Q116 14 85 -66Q80 -77 69 -77Q53 -77 53 -64Q53 -59 54 -56L72 -5Q45 2 45 30Z" />
<glyph unicode="-" glyph-name="hyphen" horiz-adv-x="395" d="M50 240Q50 258 67 258H327Q334 258 339 253T345 240T340 228T327 223H67Q50 223 50 240Z" />
<glyph unicode="." glyph-name="period" horiz-adv-x="161" d="M45 15T45 30T55 55T81 66Q95 66 105 56T116 30Q116 16 106 5T81 -6Q66 -6 56 4Z" />
<glyph unicode="/" glyph-name="slash" horiz-adv-x="468" d="M22 -5Q22 1 24 4L415 760Q419 768 428 768Q434 768 440 763T446 749Q446 744 443 738L55 -9Q50 -20 38 -20Q22 -20 22 -5Z" />
<glyph unicode="0" glyph-name="zero" horiz-adv-x="521" d="M65 200V525Q65 632 118 681T260 731T402 682T456 525V200Q456 93 403 44T260 -6T118 43T65 200ZM101 200Q101 115 142 73T260 30T378 72T420 200V525Q420 610 379 652T260 695T142 653T101 525V200ZM229
349T229 362T238 384T261 393T283 384T292 362T283 340T261 330T239 339Z" />
<glyph unicode="1" glyph-name="one" horiz-adv-x="209" d="M19 563Q19 566 29 586L95 714Q104 731 118 731Q134 731 134 714V18Q134 0 116 0T98 18V639L55 559Q48 546 37 546Q30 546 25 551T19 563Z" />
<glyph unicode="2" glyph-name="two" horiz-adv-x="461" d="M38 18V115Q38 154 63 192T128 258L210 320L294 384Q332 415 357 456T383 543Q383 603 343 649T229 695Q168 695 130 661T92 563Q92 546 73 546Q56 546 56 574Q56 640 105 685T231 731Q315 731 367 676T419
544Q419 485 384 433T297 342L196 269Q145 234 110 195T74 115V36H412Q419 36 424 31T429 18T424 6T412 0H56Q49 0 44 5T38 18Z" />
<glyph unicode="3" glyph-name="three" horiz-adv-x="473" d="M33 151Q33 179 49 179Q68 179 68 158Q68 140 75 121T97 80T146 44T226 30Q304 30 346 72T388 200V219Q388 293 346 331T230 369Q211 369 211 387T229 405Q301 405 335 438T370 548Q370 622 338 658T233
695Q189 695 158 682T113 649T93 609T87 570Q87 546 69 546T51 576Q51 597 58 620T84 670T142 714T236 731Q406 731 406 557Q406 427 322 386Q424 343 424 219V200Q424 94 371 44T230 -6Q138 -6 86 42T33 151Z" />
<glyph unicode="4" glyph-name="four" horiz-adv-x="417" d="M11 196Q11 204 14 208L271 717Q278 731 291 731Q298 731 303 727T308 715Q308 710 305 704L57 214H289V448Q289 465 307 465T325 448V214H384Q402 214 402 196T384 178H325V18Q325 0 307 0T289 18V178H28Q11
178 11 196Z" />
<glyph unicode="5" glyph-name="five" horiz-adv-x="459" d="M32 159Q32 179 49 179Q68 179 68 161Q68 101 113 66T227 30Q304 30 345 72T387 200V219Q387 301 346 342T228 383H93Q68 383 68 397Q68 398 68 405T69 414L87 713Q89 731 105 731H372Q387 731 387
713T372 695H123L104 419H228Q317 419 370 371T423 219V200Q423 93 370 44T227 -6Q137 -6 85 41T32 159Z" />
<glyph unicode="6" glyph-name="six" horiz-adv-x="504" d="M65 200V525Q65 632 118 681T260 731T402 683T456 566Q456 546 439 546Q420 546 420 564Q420 622 374 658T260 695Q183 695 142 653T101 525V351Q153 425 261 425Q456 425 456 229V200Q456 93 403 44T261
-6T119 43T65 200ZM101 200Q101 115 142 73T261 30T379 72T420 200V229Q420 313 380 351T261 389Q101 389 101 238V200Z" />
<glyph unicode="7" glyph-name="seven" horiz-adv-x="442" d="M33 564V713Q33 720 38 725T51 731H406Q412 731 418 726T424 713V641Q424 636 422 633L104 10Q99 0 89 0Q69 0 69 15Q69 20 72 26L388 646V695H69V564Q69 557 64 552T51 546T39 551T33 564Z" />
<glyph unicode="8" glyph-name="eight" horiz-adv-x="489" d="M49 200V212Q49 354 153 398Q68 436 68 557Q68 731 245 731T422 557Q422 436 337 398Q440 355 440 212V200Q440 94 387 44T245 -6T103 44T49 200ZM85 200Q85 115 127 73T246 30Q322 30 363 72T404
200V212Q404 296 363 337T245 379T127 338T85 212V200ZM104 557Q104 416 245 416T386 557Q386 695 245 695T104 557Z" />
<glyph unicode="9" glyph-name="nine" horiz-adv-x="504" d="M48 159Q48 179 65 179Q84 179 84 161Q84 103 130 67T244 30Q321 30 362 72T403 200V374Q351 300 243 300Q48 300 48 496V525Q48 632 101 681T243 731T385 682T439 525V200Q439 93 386 44T244 -6T102
42T48 159ZM84 496Q84 412 124 374T243 336Q403 336 403 487V525Q403 610 362 652T243 695T125 653T84 525V496Z" />
<glyph unicode=":" glyph-name="colon" horiz-adv-x="193" d="M61 15T61 30T71 55T97 66Q111 66 121 56T132 30Q132 16 122 5T97 -6Q82 -6 72 4ZM61 371T61 386T71 411T97 422Q111 422 121 412T132 386Q132 372 122 361T97 350Q82 350 72 360Z" />
<glyph unicode=";" glyph-name="semicolon" horiz-adv-x="195" d="M61 30Q61 45 71 55T96 66Q110 66 121 57T132 29Q132 14 101 -66Q96 -77 85 -77Q69 -77 69 -64Q69 -59 70 -56L88 -5Q61 2 61 30ZM62 371T62 386T72 411T98 422Q112 422 122 412T133 386Q133 372
123 361T98 350Q83 350 73 360Z" />
<glyph unicode="&lt;" glyph-name="less" horiz-adv-x="395" d="M30 277Q30 288 40 296L315 478Q320 481 324 481Q331 481 337 476T343 464Q343 454 334 449L76 277L334 106Q343 101 343 91Q343 84 337 79T324 74Q320 74 315 77L40 259Q30 265 30 277Z" />
<glyph unicode="=" glyph-name="equal" horiz-adv-x="431" d="M73 176Q73 194 90 194H340Q347 194 352 189T358 176T353 164T340 159H90Q73 159 73 176ZM73 379Q73 397 90 397H340Q347 397 352 392T358 379T353 367T340 362H90Q73 362 73 379Z" />
<glyph unicode="&gt;" glyph-name="greater" horiz-adv-x="395" d="M52 91Q52 101 61 106L319 277L61 449Q52 454 52 464Q52 471 58 476T71 481Q76 481 80 478L355 296Q365 288 365 277Q365 265 355 259L80 77Q76 74 71 74Q64 74 58 79T52 91Z" />
<glyph unicode="?" glyph-name="question" horiz-adv-x="383" d="M25 690Q25 710 68 729T164 748Q253 748 299 697T345 566Q345 519 328 478T291 415T243 365T204 325Q186 302 182 269T177 164Q177 147 160 147T143 164Q143 249 151 285T178 345Q187 356 216 383T262
430T294 486T310 565Q310 635 272 674T160 713Q123 713 97 703T57 683T39 673T30 678T25 690ZM124 15T124 30T134 55T160 66Q174 66 184 56T195 30T185 5T160 -6T135 4Z" />
<glyph unicode="@" glyph-name="at" horiz-adv-x="707" d="M61 220Q61 290 78 349T130 454T224 526T363 552Q507 552 583 471T659 234Q659 41 551 41Q517 41 491 59T457 102Q428 75 403 64T336 52Q210 52 210 158Q210 222 257 244T404 267H453V288Q453 335 427
357T346 379Q307 379 281 368T253 356Q245 356 241 362T236 374Q236 390 274 402T355 414Q420 414 454 382T488 289V125Q490 104 510 89T553 74Q592 74 608 121T625 233Q625 367 559 441T360 515Q288 515 235 491T153 425T109 332T95 221Q95 165 107 118T146 31T219
-32T329 -55Q369 -55 401 -47T451 -30T475 -22Q481 -22 485 -26T490 -36Q490 -53 438 -71T326 -90Q214 -90 138 -12T61 220ZM245 157Q245 85 334 85Q388 85 420 110T453 166V233H405Q365 233 341 231T293 222T257 199T245 157Z" />
<glyph unicode="A" glyph-name="A" horiz-adv-x="521" d="M25 16Q25 20 26 22L243 723Q247 737 261 737T280 723L495 22Q495 21 495 20T496 17Q496 10 490 5T476 0Q464 0 460 13L409 177H111L61 13Q57 0 43 0Q25 0 25 16ZM122 213H398L261 661L122 213Z" />
<glyph unicode="B" glyph-name="B" horiz-adv-x="527" d="M83 17V713Q83 731 101 731H251Q350 731 403 696T456 564Q456 501 433 457T371 396Q474 353 474 220V203Q474 97 421 49T278 0H101Q83 0 83 17ZM119 36H278Q438 36 438 203V220Q438 304 397 341T278 378H119V36ZM119
414H258Q344 414 382 447T420 564Q420 641 378 668T253 695H119V414Z" />
<glyph unicode="C" glyph-name="C" horiz-adv-x="512" d="M76 200V525Q76 631 131 681T275 731Q366 731 416 685T467 574Q467 546 449 546T431 564Q430 586 423 605T401 647T353 682T274 695Q112 695 112 525V200Q112 30 278 30Q316 30 344 39T386 60T411 93T425
126T431 161Q433 179 449 179Q467 179 467 150Q467 88 415 41T272 -6Q185 -6 131 44T76 200Z" />
<glyph unicode="D" glyph-name="D" horiz-adv-x="550" d="M83 17V714Q83 731 101 731H278Q367 731 420 682T474 525V206Q474 99 421 50T278 0H101Q83 0 83 17ZM119 36H278Q355 36 396 78T438 206V525Q438 610 397 652T278 695H119V36Z" />
<glyph unicode="E" glyph-name="E" horiz-adv-x="498" d="M83 18V713Q83 731 101 731H457Q474 731 474 714Q474 695 457 695H119V384H279Q296 384 296 365Q296 348 279 348H119V36H457Q474 36 474 17Q474 0 457 0H101Q83 0 83 18Z" />
<glyph unicode="F" glyph-name="F" horiz-adv-x="489" d="M83 17V713Q83 731 101 731H457Q474 731 474 714Q474 695 457 695H119V384H279Q296 384 296 365Q296 348 279 348H119V17Q119 0 101 0T83 17Z" />
<glyph unicode="G" glyph-name="G" horiz-adv-x="531" d="M76 200V525Q76 632 129 681T271 731Q361 731 414 684T467 566Q467 546 449 546Q432 546 431 564Q422 630 381 662T271 695Q194 695 153 653T112 525V200Q112 115 153 73T271 30T389 72T431 200V348H272Q255
348 255 366T272 384H450Q467 384 467 365V200Q467 93 414 44T271 -6T129 43T76 200Z" />
<glyph unicode="H" glyph-name="H" horiz-adv-x="557" d="M83 18V714Q83 731 101 731T119 714V397H438V714Q438 731 456 731T474 714V18Q474 0 456 0T438 18V361H119V18Q119 0 101 0T83 18Z" />
<glyph unicode="I" glyph-name="I" horiz-adv-x="202" d="M83 18V714Q83 731 101 731T119 714V18Q119 0 101 0T83 18Z" />
<glyph unicode="J" glyph-name="J" horiz-adv-x="496" d="M26 159Q26 179 43 179Q62 179 62 161Q62 97 107 64T222 30Q299 30 340 72T381 200V695H222Q205 695 205 714Q205 731 222 731H399Q417 731 417 713V200Q417 93 364 44T222 -6Q132 -6 79 41T26 159Z" />
<glyph unicode="K" glyph-name="K" horiz-adv-x="508" d="M83 18V714Q83 731 101 731T119 714V322L442 725Q446 731 456 731Q463 731 468 725T474 712Q474 706 470 702L239 415L497 27Q500 22 500 18Q500 11 495 6T481 0Q472 0 466 9L215 385L119 265V18Q119 0
101 0T83 18Z" />
<glyph unicode="L" glyph-name="L" horiz-adv-x="452" d="M83 18V714Q83 731 101 731T119 714V36H423Q438 36 438 18T423 0H101Q83 0 83 18Z" />
<glyph unicode="M" glyph-name="M" horiz-adv-x="653" d="M83 18V714Q83 731 101 731Q112 731 132 695L326 313L521 695Q541 731 552 731Q570 731 570 714V18Q570 0 552 0T534 18V643L345 279Q335 260 326 260Q316 260 307 279L119 643V18Q119 0 101 0T83 18Z" />
<glyph unicode="N" glyph-name="N" horiz-adv-x="557" d="M83 18V714Q83 731 101 731Q112 731 132 695L438 89V714Q438 731 456 731T474 714V18Q474 0 456 0Q445 0 427 36L119 643V18Q119 0 101 0T83 18Z" />
<glyph unicode="O" glyph-name="O" horiz-adv-x="543" d="M76 200V525Q76 632 129 681T271 731T413 682T467 525V200Q467 93 414 44T271 -6T129 43T76 200ZM112 200Q112 115 153 73T271 30T389 72T431 200V525Q431 610 390 652T271 695T153 653T112 525V200Z" />
<glyph unicode="P" glyph-name="P" horiz-adv-x="513" d="M83 18V714Q83 729 101 731H278Q367 731 420 682T474 525V513Q474 406 421 356T278 306H119V18Q119 0 101 0T83 18ZM119 342H278Q355 342 396 385T438 513V525Q438 610 397 652T278 695H119V342Z" />
<glyph unicode="Q" glyph-name="Q" horiz-adv-x="543" d="M76 200V525Q76 632 129 681T271 731T413 682T467 525V200Q467 99 419 49T290 -5V-91Q290 -109 272 -109T254 -91V-5Q172 -1 124 48T76 200ZM112 200Q112 39 254 30V114Q254 131 272 131T290 114V31Q431
41 431 200V525Q431 610 390 652T271 695T153 653T112 525V200Z" />
<glyph unicode="R" glyph-name="R" horiz-adv-x="509" d="M83 18V714Q83 729 101 731H268Q360 731 417 686T474 540Q474 370 306 350L471 29Q474 23 474 18Q474 10 469 5T456 0Q452 0 449 2T442 9T436 17L432 28Q428 36 427 36L267 348H119V18Q119 0 101 0T83
18ZM119 384H268Q347 384 392 422T438 540T393 657T268 695H119V384Z" />
<glyph unicode="S" glyph-name="S" horiz-adv-x="481" d="M42 95Q42 102 48 109T59 116T75 103T100 73T149 44T230 30Q312 30 354 71T397 192Q397 244 379 279T330 333T264 365L193 390Q157 402 127 420T79 473T60 558Q60 609 78 645T128 699T191 724T257 731Q317
731 366 714T415 679Q415 672 409 665T397 657Q393 657 376 666T328 685T256 695Q214 695 181 685T122 644T96 561Q96 518 114 489T163 444T228 417T300 391T366 355T414 294T433 195Q433 93 380 44T235 -6Q190 -6 152 6T90 34T55 67T42 95Z" />
<glyph unicode="T" glyph-name="T" horiz-adv-x="455" d="M14 706T14 713T19 725T32 731H423Q441 731 441 714Q441 695 423 695H246V18Q246 0 228 0T210 18V695H32Q24 695 19 700Z" />
<glyph unicode="U" glyph-name="U" horiz-adv-x="549" d="M79 200V714Q79 731 97 731T115 714V200Q115 115 156 73T274 30T392 72T434 200V714Q434 731 452 731T470 714V200Q470 93 417 44T274 -6T132 43T79 200Z" />
<glyph unicode="V" glyph-name="V" horiz-adv-x="519" d="M24 715Q24 731 42 731Q56 731 60 718L260 70L459 718Q463 731 475 731Q483 731 489 726T495 714Q495 713 495 712T494 709L279 8Q274 -6 260 -6T242 8L25 709Q24 711 24 715Z" />
<glyph unicode="W" glyph-name="W" horiz-adv-x="739" d="M26 715Q26 731 43 731Q59 731 62 718L242 70L348 455Q353 472 370 472Q385 472 390 455L498 70L677 718Q680 731 696 731Q713 731 713 715Q713 712 712 709L517 8Q512 -6 498 -6Q483 -6 480 8L370 400L261
8Q256 -6 242 -6Q227 -6 224 8L27 709Q26 712 26 715Z" />
<glyph unicode="X" glyph-name="X" horiz-adv-x="447" d="M28 18Q28 23 31 29L203 366L33 700Q28 710 28 717Q28 731 46 731Q58 731 76 695L223 405L371 695Q389 731 401 731Q419 731 419 717Q419 710 414 700L243 366L416 29Q419 23 419 18Q419 10 414 5T401
0Q397 0 394 2T386 9Q384 14 382 17L376 28L372 36L223 327L75 36Q74 36 70 28L66 17Q64 14 61 9T54 2T46 0Q38 0 33 5T28 18Z" />
<glyph unicode="Y" glyph-name="Y" horiz-adv-x="509" d="M22 715Q22 731 35 731Q46 731 55 714L254 313L454 714Q462 731 474 731T486 715Q486 705 481 695L273 279Q272 277 272 273V18Q272 0 254 0T236 18V273Q236 277 235 279L28 695Q22 707 22 715Z" />
<glyph unicode="Z" glyph-name="Z" horiz-adv-x="464" d="M27 17Q27 23 30 29L380 695H55Q37 695 37 713T55 731H410Q428 731 428 716Q428 708 423 700L74 36H420Q438 36 438 18T420 0H45Q27 0 27 17Z" />
<glyph unicode="[" glyph-name="bracketleft" horiz-adv-x="285" d="M74 -4V751Q74 758 79 763T92 768H248Q255 768 260 763T265 751T260 739T248 733H110V14H248Q255 14 260 9T265 -4T260 -16T248 -21H92Q85 -21 80 -16T74 -4Z" />
<glyph unicode="\" glyph-name="backslash" horiz-adv-x="340" d="M28 735Q28 744 33 749T46 754Q57 754 60 745L312 21Q313 19 313 15Q313 0 296 0Q283 0 279 12L29 727Q28 730 28 735Z" />
<glyph unicode="]" glyph-name="bracketright" horiz-adv-x="285" d="M20 -11T20 -4T25 8T37 14H175V733H37Q30 733 25 738T20 751T25 763T37 768H193Q200 768 205 763T211 751V-4Q211 -11 206 -16T193 -21H37Q30 -21 25 -16Z" />
<glyph unicode="^" glyph-name="asciicircum" horiz-adv-x="260" d="M0 619Q0 628 9 633L113 689Q121 694 130 694T147 689L251 634Q260 630 260 617Q260 610 255 606T243 601L234 604L130 659L26 603Q25 603 22 602T18 600Q11 600 6 605T0 619Z" />
<glyph unicode="_" glyph-name="underscore" horiz-adv-x="345" d="M-4 -18Q-4 0 13 0H333Q340 0 345 -5T351 -18T346 -30T333 -35H13Q-4 -35 -4 -18Z" />
<glyph unicode="`" glyph-name="grave" horiz-adv-x="133" d="M0 676Q0 694 16 694Q19 694 23 692L125 632Q133 628 133 619Q133 612 128 607T114 601Q110 601 105 604L10 658Q0 664 0 676Z" />
<glyph unicode="a" glyph-name="a" horiz-adv-x="423" d="M35 126Q35 201 94 229T268 258H324V286Q324 350 291 396T192 443Q165 443 142 437T105 423T88 416Q80 416 75 423T70 436Q70 451 109 464T194 478Q280 478 319 424T359 286V18Q359 0 342 0Q334 0 329
5T324 18V70Q258 -6 174 -6Q112 -6 74 27T35 126ZM70 126Q70 78 98 54T173 29Q227 29 275 67T324 139V223H269Q224 223 194 220T132 208T86 178T70 126Z" />
<glyph unicode="b" glyph-name="b" horiz-adv-x="468" d="M69 18V751Q69 768 86 768Q104 768 104 751V402Q147 478 238 478Q312 478 365 425T418 298V176Q418 104 365 49T240 -6Q196 -6 159 16T104 70V18Q104 11 99 6T86 0T74 5T69 18ZM104 139Q104 108 146 69T242
29Q298 29 340 74T383 176V298Q383 354 341 398T241 443Q187 443 146 403T104 298V139Z" />
<glyph unicode="c" glyph-name="c" horiz-adv-x="402" d="M52 176V296Q52 377 98 427T235 478Q290 478 328 458T366 419Q366 412 361 407T348 402Q343 402 331 412T294 432T235 443Q164 443 126 404T87 296V176Q87 107 125 68T236 29Q273 29 298 39T336 60T355
70Q362 70 367 65T372 53Q372 34 333 14T235 -6Q145 -6 99 44T52 176Z" />
<glyph unicode="d" glyph-name="d" horiz-adv-x="468" d="M50 176V298Q50 372 103 425T230 478Q321 478 364 402V751Q364 768 382 768Q399 768 399 751V18Q399 11 394 6T382 0T370 5T364 18V70Q347 38 310 16T228 -6Q157 -6 104 49T50 176ZM85 176Q85 119 127
74T226 29Q280 29 322 68T364 139V298Q364 363 323 403T227 443Q170 443 128 399T85 298V176Z" />
<glyph unicode="e" glyph-name="e" horiz-adv-x="445" d="M51 176V301Q51 373 103 425T229 478Q301 478 353 427T406 298Q406 272 400 256T380 233T355 225T323 223H86V176Q86 109 133 69T255 29Q292 29 317 39T354 60T373 70Q380 70 385 64T391 52Q391 42 375
29T326 5T253 -6Q164 -6 108 44T51 176ZM86 258H311Q348 258 359 265T371 295Q371 352 331 397T229 443Q169 443 128 401T86 301V258Z" />
<glyph unicode="f" glyph-name="f" horiz-adv-x="289" d="M69 17V590Q69 662 122 715T247 768H257Q264 768 269 763T275 750Q275 733 257 733H247Q188 733 147 690T104 590V472H257Q264 472 269 467T275 455T270 443T257 437H104V17Q104 10 99 5T85 0Q69 0 69 17Z" />
<glyph unicode="g" glyph-name="g" horiz-adv-x="446" d="M32 -108Q32 -29 123 3Q62 20 62 74Q62 120 111 143Q59 189 59 269V314Q59 387 103 432T220 478Q293 478 339 430Q353 456 374 473T414 491Q435 491 435 471Q435 462 430 457T417 452Q381 452 357 406Q382
371 382 314V269Q382 197 337 150T219 103Q173 103 137 124Q97 106 97 76Q97 53 120 41T179 25T255 17T331 2T389 -33T413 -102Q413 -166 363 -201T226 -237Q138 -237 85 -202T32 -108ZM67 -105Q67 -150 109 -177T226 -205Q299 -205 338 -178T378 -103Q378 -80
367 -64T339 -38T299 -23T255 -15T209 -11T172 -7Q67 -37 67 -105ZM94 270Q94 212 128 175T221 138Q278 138 312 175T347 269V314Q347 370 313 406T220 443Q162 443 128 407T94 314V270Z" />
<glyph unicode="h" glyph-name="h" horiz-adv-x="482" d="M69 18V751Q69 768 86 768Q104 768 104 751V402Q147 478 238 478Q312 478 365 425T418 298V18Q418 0 400 0Q383 0 383 18V298Q383 354 341 398T241 443Q187 443 146 403T104 298V18Q104 11 99 6T86 0T74 5T69 18Z" />
<glyph unicode="i" glyph-name="i" horiz-adv-x="171" d="M53 647T53 660T62 682T85 691T107 682T116 660T107 638T85 628T63 637ZM68 18V455Q68 462 73 467T85 472Q103 472 103 455V18Q103 11 98 6T85 0T73 5T68 18Z" />
<glyph unicode="j" glyph-name="j" horiz-adv-x="173" d="M-36 -219Q-36 -202 -18 -202Q35 -202 52 -164T69 -48V455Q69 472 86 472Q104 472 104 455V-48Q104 -237 -18 -237Q-25 -237 -30 -232T-36 -219ZM54 647T54 660T63 682T86 691T108 682T117 660T108 638T86
628T64 637Z" />
<glyph unicode="k" glyph-name="k" horiz-adv-x="437" d="M69 18V751Q69 768 86 768Q104 768 104 751V233L374 468Q380 472 384 472Q403 472 403 456Q403 446 397 441L236 301L421 28Q424 24 424 18Q424 11 419 6T407 0Q399 0 393 9L209 278L104 186V18Q104 11
99 6T86 0T74 5T69 18Z" />
<glyph unicode="l" glyph-name="l" horiz-adv-x="189" d="M77 18V751Q77 768 94 768Q112 768 112 751V18Q112 11 107 6T94 0T82 5T77 18Z" />
<glyph unicode="m" glyph-name="m" horiz-adv-x="767" d="M68 18V455Q68 472 85 472Q103 472 103 455V402Q146 478 237 478Q288 478 327 451T387 378Q412 427 453 452T539 478Q606 478 654 429T703 298V18Q703 11 698 6T685 0T673 5T668 18V298Q668 366 629 404T538
443Q485 443 444 404T403 304V17Q403 0 385 0Q368 0 368 17V303Q368 362 331 402T239 443T144 403T103 298V18Q103 11 98 6T85 0T73 5T68 18Z" />
<glyph unicode="n" glyph-name="n" horiz-adv-x="481" d="M68 18V455Q68 472 85 472Q103 472 103 455V402Q146 478 237 478Q311 478 364 425T417 298V18Q417 0 399 0Q382 0 382 18V298Q382 354 340 398T240 443Q186 443 145 403T103 298V18Q103 11 98 6T85 0T73 5T68 18Z" />
<glyph unicode="o" glyph-name="o" horiz-adv-x="455" d="M50 176V298Q50 370 102 424T227 478T352 425T405 298V176Q405 104 352 49T227 -6T103 49T50 176ZM85 176Q85 119 127 74T227 29T327 74T370 176V298Q370 354 328 398T227 443T127 399T85 298V176Z" />
<glyph unicode="p" glyph-name="p" horiz-adv-x="468" d="M69 -219V455Q69 472 86 472Q104 472 104 455V402Q147 478 238 478Q312 478 365 425T418 298V176Q418 104 365 49T240 -6Q196 -6 159 16T104 70V-219Q104 -226 99 -231T86 -237T74 -232T69 -219ZM104 139Q104
108 146 69T242 29Q298 29 340 74T383 176V298Q383 354 341 398T241 443Q187 443 146 403T104 298V139Z" />
<glyph unicode="q" glyph-name="q" horiz-adv-x="468" d="M50 176V298Q50 372 103 425T230 478Q321 478 364 402V455Q364 472 382 472Q399 472 399 455V-219Q399 -226 394 -231T382 -237T370 -232T364 -219V70Q347 38 310 16T228 -6Q157 -6 104 49T50 176ZM85
176Q85 119 127 74T226 29Q280 29 322 68T364 139V298Q364 363 323 403T227 443Q170 443 128 399T85 298V176Z" />
<glyph unicode="r" glyph-name="r" horiz-adv-x="308" d="M68 18V455Q68 472 85 472Q103 472 103 455V402Q148 478 242 478H279Q286 478 291 473T296 460T291 448T279 443H242Q186 443 145 403T103 298V18Q103 11 98 6T85 0T73 5T68 18Z" />
<glyph unicode="s" glyph-name="s" horiz-adv-x="373" d="M38 59Q38 66 42 71T52 76T67 68L88 52Q100 44 125 37T183 29Q242 29 271 52T300 112Q300 155 274 179T211 215L137 238Q100 250 74 276T48 348Q48 399 86 438T196 478Q240 478 279 464T318 436Q318 430
313 423T301 416Q300 416 267 429T197 443Q139 443 111 414T83 349Q83 313 109 292T172 261T246 239T309 196T335 114Q335 58 295 26T184 -6Q122 -6 80 16T38 59Z" />
<glyph unicode="t" glyph-name="t" horiz-adv-x="272" d="M66 139V686Q66 693 71 698T83 703Q90 703 95 698T101 686V472H236Q243 472 248 467T253 454T248 442T236 437H101V139Q101 82 126 59T212 35H235Q242 35 247 30T252 18T247 6T235 0H212Q66 0 66 139Z" />
<glyph unicode="u" glyph-name="u" horiz-adv-x="483" d="M64 174V454Q64 461 69 466T82 472T94 467T99 454V174Q99 117 141 73T242 29Q300 29 342 73T384 174V455Q384 462 389 467T402 472T414 467T419 455V174Q419 102 367 48T242 -6Q169 -6 117 48T64 174Z" />
<glyph unicode="v" glyph-name="v" horiz-adv-x="392" d="M19 454Q19 462 24 467T37 472Q49 472 54 461L196 68L337 455L338 460Q340 464 340 464T343 468T347 471T354 472Q361 472 367 467T373 455Q373 452 369 440L213 6Q208 -6 196 -6T179 6L23 440Q19 452 19 454Z" />
<glyph unicode="w" glyph-name="w" horiz-adv-x="654" d="M19 454Q19 462 24 467T37 472Q49 472 54 461L195 70L310 432Q315 445 328 445T346 432L457 65L601 461Q604 472 617 472Q635 472 635 455Q635 449 631 441L474 6Q470 -6 459 -6Q450 -6 445 5L328 380L213
11Q207 -6 196 -6Q189 -6 186 -3T179 11L23 441Q19 449 19 454Z" />
<glyph unicode="x" glyph-name="x" horiz-adv-x="381" d="M27 11Q27 16 30 21L169 238L30 451Q27 456 27 460Q27 468 32 473T45 478Q55 478 60 470L191 270L323 470Q328 478 337 478Q344 478 349 473T355 460Q355 456 352 451L212 238L352 21Q355 16 355 11Q355
4 350 -1T337 -6Q328 -6 323 2L191 205L60 2Q54 -6 45 -6Q38 -6 33 -1T27 11Z" />
<glyph unicode="y" glyph-name="y" horiz-adv-x="395" d="M18 461Q18 468 23 473T37 478Q50 478 53 467L198 67L342 467Q347 478 358 478Q376 478 376 461Q376 457 375 455L215 13L195 -42Q189 -58 174 -95T146 -151T116 -193T78 -226T36 -237Q29 -237 24 -232T19
-220Q19 -202 34 -202Q51 -202 67 -194T97 -167T120 -132T143 -84T162 -38L180 13L20 455Q18 459 18 461Z" />
<glyph unicode="z" glyph-name="z" horiz-adv-x="385" d="M26 16Q26 24 30 28L297 437H54Q47 437 42 442T36 454Q36 462 41 467T54 472H331Q338 472 343 467T349 454Q349 448 346 444L78 35H341Q348 35 353 30T359 17T354 5T341 0H44Q26 0 26 16Z" />
<glyph unicode="{" glyph-name="braceleft" horiz-adv-x="285" d="M34 373T34 384T43 399T64 403T84 407T94 422Q94 430 84 510T73 607Q73 672 124 720T248 768Q255 768 260 763T265 751T260 739T248 733Q188 733 149 694T109 604Q109 587 119 509T130 422Q130
407 119 397T96 384Q130 373 130 347Q130 337 120 243T109 127Q109 96 124 73T162 38T207 21T248 15Q265 15 265 -2Q265 -10 260 -15T248 -20Q173 -20 123 21T73 129Q73 147 83 243T94 347Q94 357 85 361T64 365T44 368Z" />
<glyph unicode="|" glyph-name="bar" horiz-adv-x="184" d="M74 -4V751Q74 758 79 763T92 768T104 763T110 751V-4Q110 -11 105 -16T92 -21T80 -16T74 -4Z" />
<glyph unicode="}" glyph-name="braceright" horiz-adv-x="285" d="M20 -2Q20 15 37 15Q56 15 78 20T123 37T161 72T176 127Q176 148 166 242T155 347Q155 361 165 370T189 384Q177 387 166 397T155 422Q155 430 165 508T176 604Q176 655 137 694T37 733Q30 733
25 738T20 751T25 763T37 768Q109 768 160 720T212 607Q212 590 202 510T191 422Q191 412 200 408T221 403T241 399T251 384T242 369T221 364T201 361T191 347Q191 339 201 243T212 129Q212 63 162 22T37 -20Q31 -20 26 -15T20 -2Z" />
<glyph unicode="~" glyph-name="asciitilde" horiz-adv-x="400" d="M53 242Q53 261 83 277T142 294Q166 294 204 276T269 257Q289 257 301 265T321 281T334 289Q348 289 348 274Q348 253 320 238T264 223Q241 223 203 241T135 260Q116 260 102 251T80 234T66 225Q53
225 53 242Z" />
</font>
</defs>
</svg>
