<?xml version="1.0" standalone="no"?> <!DOCTYPE svg PUBLIC "-//W3C//DTD SVG 1.0//EN" "http://www.w3.org/TR/2001/REC-SVG-20010904/DTD/svg10.dtd" > <svg xmlns="http://www.w3.org/2000/svg" width="100%" height="100%">
<defs >
<font id="TerminalDosis-ExtraBold" horiz-adv-x="492" ><font-face
    font-family="Terminal Dosis"
    units-per-em="1000"
    panose-1="2 1 9 3 2 2 2 6 0 3"
    ascent="1027"
    descent="-237"
    alphabetic="0" />
<missing-glyph horiz-adv-x="408" d="M30 63Q30 81 40 95L136 236L40 377Q30 391 30 409Q30 432 49 447T92 463Q120 463 136 440L204 325L272 440Q288 463 316 463Q340 463 359 448T378 409Q378 391 368 377L272 236L368 95Q378 81 378 63Q378 40 359 25T316 9Q288
9 272 32L204 147L136 32Q120 9 92 9Q68 9 49 24T30 63Z" />
<glyph unicode=" " glyph-name="space" horiz-adv-x="200" />
<glyph unicode="!" glyph-name="exclam" horiz-adv-x="229" d="M39 71Q39 103 61 125T116 148Q147 148 169 125T192 71T170 17T116 -6Q84 -6 62 17T39 71ZM42 670Q42 698 62 714T115 731Q146 731 166 715T187 670Q187 610 180 465T173 261Q173 240 155 229T115
217Q56 217 56 261Q56 320 49 465T42 670Z" />
<glyph unicode="&quot;" glyph-name="quotedbl" horiz-adv-x="315" d="M23 731Q23 747 39 757T77 768T115 758T132 731L122 597Q122 581 111 570T77 559T44 570T33 597L23 731ZM183 731Q183 747 199 757T237 768T275 758T292 731L282 597Q282 581 271 570T237
559T204 570T193 597L183 731Z" />
<glyph unicode="#" glyph-name="numbersign" horiz-adv-x="717" d="M21 238T21 263T33 305T64 322H156L177 430H106Q87 430 76 445T64 486Q64 511 76 528T107 545H200L226 681Q229 695 248 704T291 713Q321 713 341 699T361 656L340 545H443L469 681Q472 695 491
704T534 713Q563 713 583 699T605 656L583 545H653Q670 545 683 529T696 488Q696 463 683 447T652 430H562L540 322H610Q627 322 640 305T654 265Q654 240 640 224T609 207H518L490 62Q487 48 469 38T430 28Q402 28 378 43T353 85L376 207H275L247 62Q244 48 225
38T187 28Q159 28 135 43T111 85L133 207H63Q44 207 33 222ZM297 322H399L420 430H318L297 322Z" />
<glyph unicode="$" glyph-name="dollar" horiz-adv-x="541" d="M24 130Q24 158 44 186T92 214Q111 214 157 182T242 142V304Q206 318 185 327T133 354T85 392T55 442T42 510Q42 599 98 650T242 713V741Q242 752 253 760T280 768Q294 768 306 760T318 741V716Q346
715 373 711T430 698T478 671T497 629Q497 603 481 575T435 547Q421 547 388 564T318 584V438Q351 425 374 415T426 386T472 346T502 293T515 222Q515 131 462 75T318 4V-25Q318 -35 306 -43T280 -52Q264 -52 253 -44T242 -25V0Q153 3 89 42T24 130ZM188 525Q188
489 252 462V581Q188 568 188 525ZM308 143Q369 157 369 206Q369 248 308 277V143Z" />
<glyph unicode="%" glyph-name="percent" horiz-adv-x="807" d="M24 454V596Q24 666 64 698T174 731Q242 731 283 699T324 596V454Q324 384 283 352T174 319Q105 319 65 351T24 454ZM125 454Q125 406 174 406Q224 406 224 454V596Q224 644 174 644Q125 644 125
596V454ZM177 7Q177 16 182 26L533 747Q545 772 575 772Q597 772 615 757T634 719Q634 708 630 700L278 -21Q266 -46 233 -46Q209 -46 193 -30T177 7ZM483 132V274Q483 344 523 376T633 409Q701 409 742 377T783 274V132Q783 62 742 30T633 -3Q564 -3 524 29T483
132ZM584 132Q584 84 633 84Q683 84 683 132V274Q683 322 633 322Q584 322 584 274V132Z" />
<glyph unicode="&amp;" glyph-name="ampersand" horiz-adv-x="655" d="M18 213Q18 276 52 331T138 418Q73 490 73 563Q73 648 136 698T294 748Q383 748 443 708T504 623Q504 596 481 574T430 551Q413 551 398 562T372 587T341 612T295 624Q261 624 239 606T217
556Q217 540 223 524T244 488L268 458Q276 449 299 426L324 401L468 252Q482 285 482 330T494 393T554 411Q593 411 606 394T620 340Q620 248 562 156L638 78Q647 68 647 53Q647 30 625 10T575 -10Q555 -10 537 8L483 63Q395 -10 278 -10Q163 -10 91 55T18 213ZM175
226Q175 181 206 153T295 125Q355 125 392 157L225 328Q175 285 175 226Z" />
<glyph unicode="&apos;" glyph-name="quotesingle" horiz-adv-x="155" d="M23 731Q23 747 39 757T77 768T115 758T132 731L122 597Q122 581 111 570T77 559T44 570T33 597L23 731Z" />
<glyph unicode="(" glyph-name="parenleft" horiz-adv-x="358" d="M43 173V561Q43 652 113 710T267 768Q344 768 344 701Q344 670 331 652T297 633Q252 633 226 611T199 561V173Q199 115 297 115Q344 115 344 46Q344 13 328 -3T263 -20Q224 -20 187 -9T117 24T64
84T43 173Z" />
<glyph unicode=")" glyph-name="parenright" horiz-adv-x="358" d="M14 46Q14 115 61 115Q159 115 159 173V561Q159 589 133 611T61 633Q40 633 27 651T14 701Q14 768 91 768Q174 768 244 710T315 561V173Q315 123 295 85T241 24T171 -9T95 -20Q46 -20 30 -4T14 46Z" />
<glyph unicode="*" glyph-name="asterisk" horiz-adv-x="491" d="M22 563Q22 584 38 601T77 618Q85 618 92 615L197 581L192 683Q193 706 208 718T246 731Q268 731 283 719T299 683L295 579L401 615Q408 618 416 618Q438 618 453 599T468 556Q468 519 434 512L332
488L402 387Q410 377 410 358Q410 335 391 320T349 304Q323 304 311 323L246 423L180 322Q169 304 145 304Q124 304 103 318T82 356Q82 374 94 388L160 482L56 512Q22 519 22 563Z" />
<glyph unicode="+" glyph-name="plus" horiz-adv-x="455" d="M20 240Q20 267 33 285T67 304H164V400Q164 419 183 433T228 448Q255 448 273 434T291 400V304H387Q406 304 420 285T435 240Q435 213 421 195T387 177H291V80Q291 59 274 46T228 33Q201 33 183 46T164
80V177H67Q46 177 33 194T20 240Z" />
<glyph unicode="," glyph-name="comma" horiz-adv-x="199" d="M23 71Q23 103 45 125T99 148T153 126T176 72Q176 56 114 -88Q106 -106 84 -106Q66 -106 50 -95T34 -67Q34 -59 38 -51L63 3Q23 26 23 71Z" />
<glyph unicode="-" glyph-name="hyphen" horiz-adv-x="416" d="M31 240Q31 267 44 285T78 304H338Q357 304 371 285T386 240Q386 213 372 195T338 177H78Q57 177 44 194T31 240Z" />
<glyph unicode="." glyph-name="period" horiz-adv-x="199" d="M23 71Q23 103 45 125T100 148Q131 148 153 125T176 71T154 17T100 -6Q68 -6 46 17T23 71Z" />
<glyph unicode="/" glyph-name="slash" horiz-adv-x="491" d="M17 7Q17 16 22 26L373 747Q385 772 415 772Q437 772 455 757T474 719Q474 708 470 700L118 -21Q106 -46 73 -46Q49 -46 33 -30T17 7Z" />
<glyph unicode="0" glyph-name="zero" horiz-adv-x="569" d="M39 230V495Q39 617 106 674T284 731Q396 731 463 674T530 495V230Q530 108 463 51T284 -6Q173 -6 106 51T39 230ZM195 230Q195 130 284 130Q374 130 374 230V495Q374 595 284 595Q195 595 195 495V230ZM234
339T234 362T247 398T285 412Q308 412 321 399T335 362T322 325T285 311Q261 311 248 325Z" />
<glyph unicode="1" glyph-name="one" horiz-adv-x="308" d="M-2 593Q-2 629 27 646L159 726Q170 733 188 733Q214 733 235 719T257 684V48Q257 25 234 13T179 0T124 12T101 48V557L72 539Q60 531 47 531Q26 531 12 550T-2 593Z" />
<glyph unicode="2" glyph-name="two" horiz-adv-x="517" d="M23 48V145Q23 188 55 231T134 308L226 376Q273 410 305 447T338 519Q338 547 319 568T262 590Q229 590 208 572T187 515Q187 492 165 475T105 458Q35 458 35 539Q35 626 102 678T261 731Q354 731 424
675T494 524Q494 464 462 411T385 322T295 256T217 198T185 145V136H447Q466 136 480 116T494 69T480 21T447 0H91Q68 0 46 14T23 48Z" />
<glyph unicode="3" glyph-name="three" horiz-adv-x="534" d="M16 183Q16 216 32 228T90 240Q137 240 153 229T170 188Q170 130 259 130Q310 130 330 150T351 220V239Q351 286 327 302T255 319Q210 319 210 379T255 439Q272 439 283 441T307 451T326 477T333 525Q333
597 259 597Q221 597 203 586T185 546T169 504T112 489Q60 489 46 501T31 552Q31 622 86 676T259 731Q482 731 482 550Q482 493 462 448T405 386Q507 348 507 239V220Q507 104 438 49T254 -6Q136 -6 76 52T16 183Z" />
<glyph unicode="4" glyph-name="four" horiz-adv-x="525" d="M-5 208Q-5 223 3 238L234 691Q255 731 299 731Q323 731 350 714T377 672Q377 665 372 653L195 298H281V368Q281 391 304 403T359 415T414 403T437 368V298H480Q503 298 515 277T528 226Q528 199 513
177T480 154H437V48Q437 25 414 13T359 0T304 12T281 48V154H47Q24 154 10 168T-5 208Z" />
<glyph unicode="5" glyph-name="five" horiz-adv-x="521" d="M13 180Q13 219 32 234T91 249Q138 249 153 234T169 191Q169 162 193 146T256 130Q347 130 347 224V243Q347 292 324 316T258 341H106Q73 341 60 356T46 402Q46 409 48 431L75 683Q80 731 103 731H422Q443
731 455 711T467 663T455 615T422 595H203L193 461H258Q370 461 436 409T503 243V224Q503 106 436 50T260 -6Q145 -6 79 49T13 180Z" />
<glyph unicode="6" glyph-name="six" horiz-adv-x="562" d="M39 230V495Q39 617 108 674T294 731T470 673T530 543Q530 508 513 494T457 480Q376 480 376 537Q376 564 351 579T289 595Q195 595 195 495V405Q235 449 320 449Q415 449 472 400T530 239V230Q530 108
463 51T285 -6Q173 -6 106 51T39 230ZM195 219Q195 120 285 120Q374 120 374 219V228Q374 329 284 329Q195 329 195 237V219Z" />
<glyph unicode="7" glyph-name="seven" horiz-adv-x="512" d="M12 528V683Q12 701 33 716T80 731H435Q458 731 480 716T503 683V558Q503 523 471 463L237 15Q226 -6 193 -6Q155 -6 125 17T94 73Q94 86 101 99L347 525V595H168V528Q168 508 144 494T89 480Q57 480
35 494T12 528Z" />
<glyph unicode="8" glyph-name="eight" horiz-adv-x="545" d="M27 200V212Q27 358 151 400Q52 434 52 553Q52 643 111 687T273 731T434 687T494 553Q494 434 395 400Q518 358 518 212V200Q518 94 451 44T273 -6T95 44T27 200ZM183 219Q183 119 273 119Q362 119
362 219V241Q362 336 273 336Q183 336 183 241V219ZM202 533Q202 461 273 461T344 533Q344 606 273 606T202 533Z" />
<glyph unicode="9" glyph-name="nine" horiz-adv-x="563" d="M33 182Q33 217 50 231T106 245Q187 245 187 188Q187 161 212 146T274 130Q368 130 368 230V320Q328 276 243 276Q148 276 91 325T33 486V495Q33 617 100 674T278 731Q390 731 457 674T524 495V230Q524
108 455 51T269 -6T93 52T33 182ZM189 497Q189 396 279 396Q368 396 368 488V506Q368 605 278 605Q189 605 189 506V497Z" />
<glyph unicode=":" glyph-name="colon" horiz-adv-x="225" d="M36 71Q36 103 58 125T113 148Q144 148 166 125T189 71T167 17T113 -6Q81 -6 59 17T36 71ZM36 345Q36 377 58 399T113 422Q144 422 166 399T189 345T167 291T113 268Q81 268 59 291T36 345Z" />
<glyph unicode=";" glyph-name="semicolon" horiz-adv-x="225" d="M33 71Q33 103 55 125T109 148T163 126T186 72Q186 56 124 -88Q116 -106 94 -106Q76 -106 60 -95T44 -67Q44 -59 48 -51L73 3Q33 26 33 71ZM39 345Q39 377 61 399T116 422Q147 422 169 399T192
345T170 291T116 268Q84 268 62 291T39 345Z" />
<glyph unicode="&lt;" glyph-name="less" horiz-adv-x="427" d="M19 241T19 277T50 333L304 498Q310 503 323 503Q347 503 369 481T391 430Q391 402 373 391L197 277L373 163Q391 152 391 124Q391 95 369 73T323 51Q310 51 304 56L50 221Q19 241 19 277Z" />
<glyph unicode="=" glyph-name="equal" horiz-adv-x="448" d="M47 135Q47 162 60 180T94 199H354Q373 199 387 180T402 135Q402 108 388 90T354 72H94Q73 72 60 89T47 135ZM47 338Q47 365 60 383T94 402H354Q373 402 387 383T402 338Q402 311 388 293T354 275H94Q73
275 60 292T47 338Z" />
<glyph unicode="&gt;" glyph-name="greater" horiz-adv-x="427" d="M36 124Q36 152 54 163L230 277L54 391Q36 402 36 430Q36 459 58 481T104 503Q117 503 123 498L377 333Q408 313 408 277T377 221L123 56Q117 51 104 51Q80 51 58 73T36 124Z" />
<glyph unicode="?" glyph-name="question" horiz-adv-x="453" d="M20 597Q20 645 72 688T217 731Q312 731 371 684T430 566Q430 470 318 383Q292 362 280 342T265 306T262 258Q262 217 203 217Q172 217 160 231T148 284Q148 378 215 436Q218 439 241 457T273 484T293
511T304 549Q304 582 279 599T214 617Q180 617 158 605T129 579T110 552T80 540Q57 540 39 555T20 597ZM128 71Q128 103 150 125T204 148Q236 148 258 125T281 71T259 17T204 -6T150 17T128 71Z" />
<glyph unicode="@" glyph-name="at" horiz-adv-x="753" d="M35 206Q35 370 125 472T388 575Q548 575 639 485T730 240Q730 137 689 71T571 4Q527 4 498 25T463 80Q409 7 337 7Q288 7 250 37T212 125Q212 252 415 252H442V265Q442 329 368 329Q333 329 303 315T269
301Q255 301 245 321T234 358Q234 388 280 410T383 432Q452 432 502 396T552 296V125Q556 98 562 88T580 78Q634 78 634 215Q634 491 389 491Q132 491 132 207Q132 -59 359 -59Q405 -59 444 -47T488 -35Q505 -35 515 -50T525 -79Q525 -111 463 -127T340 -143Q213
-143 124 -52T35 206ZM334 127Q334 86 368 86Q396 86 422 111T448 168V190H430Q334 190 334 127Z" />
<glyph unicode="A" glyph-name="A" horiz-adv-x="589" d="M4 64Q4 67 6 75L192 685Q200 710 228 723T294 737T359 724T396 685L583 75Q585 67 585 64Q585 38 553 19T485 0Q442 0 434 29L400 154H189L155 29Q147 0 104 0Q69 0 37 19T4 64ZM221 274H367L294 542L221 274Z" />
<glyph unicode="B" glyph-name="B" horiz-adv-x="572" d="M54 47V683Q54 706 74 718T122 731H327Q527 731 527 553Q527 433 442 396Q493 377 519 342T545 236V215Q545 103 491 52T344 0H122Q91 0 73 14T54 47ZM209 136H309Q389 136 389 228V244Q389 336 309 336H209V136ZM209
456H314Q341 456 356 476T371 525T356 574T314 595H209V456Z" />
<glyph unicode="C" glyph-name="C" horiz-adv-x="562" d="M46 230V495Q46 617 112 674T286 731Q396 731 466 678T537 532Q537 489 519 474T459 458Q384 458 381 505Q378 595 292 595Q202 595 202 495V230Q202 130 293 130Q321 130 339 139T366 166T376 197T381
230Q385 277 458 277Q501 277 519 262T537 203Q537 106 467 50T286 -6Q179 -6 113 51T46 230Z" />
<glyph unicode="D" glyph-name="D" horiz-adv-x="590" d="M54 47V684Q54 703 73 717T122 731H299Q411 731 478 674T545 495V236Q545 114 478 57T299 0H122Q92 0 73 14T54 47ZM210 136H299Q389 136 389 236V495Q389 595 299 595H210V136Z" />
<glyph unicode="E" glyph-name="E" horiz-adv-x="539" d="M54 48V683Q54 706 74 718T122 731H478Q501 731 513 711T525 664Q525 635 513 615T478 595H210V426H360Q382 426 394 408T407 365Q407 342 395 324T360 306H210V136H478Q500 136 512 116T525 67Q525 40
513 20T478 0H122Q94 0 74 12T54 48Z" />
<glyph unicode="F" glyph-name="F" horiz-adv-x="515" d="M54 48V683Q54 706 74 718T122 731H469Q492 731 504 711T516 664Q516 635 504 615T469 595H210V426H361Q383 426 395 408T408 365Q408 342 396 324T361 306H210V48Q210 25 187 13T132 0T77 12T54 48Z" />
<glyph unicode="G" glyph-name="G" horiz-adv-x="573" d="M46 230V495Q46 617 112 674T286 731Q396 731 466 678T537 532Q537 489 519 474T459 458Q382 458 381 505Q381 519 380 528T374 552T360 574T334 588T292 595Q202 595 202 495V230Q202 130 291 130Q381
130 381 230V264H322Q300 264 288 281T275 324Q275 347 288 365T322 384H490Q512 384 524 370T537 335V230Q537 108 470 51T291 -6Q180 -6 113 51T46 230Z" />
<glyph unicode="H" glyph-name="H" horiz-adv-x="619" d="M54 48V684Q54 707 77 719T132 731T187 719T210 684V439H409V684Q409 707 432 719T487 731T542 719T565 684V48Q565 25 542 13T487 0T432 12T409 48V319H210V48Q210 25 187 13T132 0T77 12T54 48Z" />
<glyph unicode="I" glyph-name="I" horiz-adv-x="264" d="M54 48V684Q54 707 77 719T132 731T187 719T210 684V48Q210 25 187 13T132 0T77 12T54 48Z" />
<glyph unicode="J" glyph-name="J" horiz-adv-x="548" d="M6 203Q6 246 24 261T85 277Q158 277 162 230Q164 209 166 197T177 167T203 139T250 130Q341 130 341 230V595H254Q232 595 220 615T207 664Q207 691 219 711T254 731H429Q457 731 477 719T497 683V230Q497
108 431 51T257 -6Q147 -6 77 50T6 203Z" />
<glyph unicode="K" glyph-name="K" horiz-adv-x="566" d="M54 48V684Q54 707 77 719T132 731T187 719T210 684V444L397 709Q412 731 438 731Q469 731 499 706T530 651Q530 635 520 621L356 415L563 98Q571 85 571 72Q571 43 541 19T477 -6Q441 -6 423 23L252 283L210
229V48Q210 25 187 13T132 0T77 12T54 48Z" />
<glyph unicode="L" glyph-name="L" d="M54 48V684Q54 707 77 719T132 731T187 719T210 684V136H438Q459 136 471 116T483 68T471 20T438 0H122Q94 0 74 12T54 48Z" />
<glyph unicode="M" glyph-name="M" horiz-adv-x="712" d="M54 48V653Q54 693 76 712T132 731Q177 731 200 718T253 653L356 473L459 653Q488 704 511 717T580 731Q613 731 635 712T658 653V48Q658 25 635 13T580 0T525 12T502 48V423L406 259Q389 230 354 230Q320
230 305 259L210 433V48Q210 25 187 13T132 0T77 12T54 48Z" />
<glyph unicode="N" glyph-name="N" horiz-adv-x="619" d="M54 48V683Q54 706 77 718T132 731Q177 731 198 718T247 653L409 344V684Q409 707 432 719T487 731T542 719T565 684V48Q565 25 542 13T487 0Q423 0 400 42L210 388V48Q210 25 187 13T132 0T77 12T54 48Z" />
<glyph unicode="O" glyph-name="O" horiz-adv-x="583" d="M46 230V495Q46 617 113 674T291 731Q403 731 470 674T537 495V230Q537 108 470 51T291 -6Q180 -6 113 51T46 230ZM202 230Q202 130 291 130Q381 130 381 230V495Q381 595 291 595Q202 595 202 495V230Z" />
<glyph unicode="P" glyph-name="P" horiz-adv-x="569" d="M54 48V684Q54 703 70 717T112 731H319Q426 731 490 676T555 501V496Q555 377 488 321T309 264H210V48Q210 25 187 13T132 0T77 12T54 48ZM210 384H309Q399 384 399 484V495Q399 595 309 595H210V384Z" />
<glyph unicode="Q" glyph-name="Q" horiz-adv-x="583" d="M46 230V495Q46 618 112 674T291 731T470 675T537 495V230Q537 122 484 65T339 -3V-61Q339 -84 325 -96T291 -109T258 -97T243 -61V-3Q152 8 99 64T46 230ZM202 230Q202 163 243 140V184Q243 207 257 219T291
231T325 219T339 184V140Q381 164 381 230V495Q381 595 291 595Q202 595 202 495V230Z" />
<glyph unicode="R" glyph-name="R" horiz-adv-x="584" d="M54 48V684Q54 703 67 717T102 731H309Q555 731 555 517Q555 361 434 314L556 93Q561 86 561 75Q561 46 530 20T463 -6T413 23L276 289H210V48Q210 25 187 13T132 0T77 12T54 48ZM210 409H309Q353 409
376 430T399 502T376 573T309 595H210V409Z" />
<glyph unicode="S" glyph-name="S" horiz-adv-x="533" d="M19 120Q19 148 39 176T87 204Q102 204 120 193T154 167T198 142T257 130Q296 130 325 146T354 196T322 254T243 299T149 345T70 418T37 530Q37 634 112 685T293 737Q319 737 347 734T411 723T469 695T492
649Q492 623 476 595T430 567Q418 567 379 586T293 605Q243 605 218 588T193 545Q193 522 216 503T275 471T351 436T428 389T486 317T510 212Q510 107 441 49T260 -10Q163 -10 91 30T19 120Z" />
<glyph unicode="T" glyph-name="T" horiz-adv-x="542" d="M8 662Q8 690 20 710T55 731H487Q510 731 522 711T534 662Q534 632 522 612T487 591H349V48Q349 25 326 13T271 0T216 12T193 48V591H55Q33 591 21 611T8 662Z" />
<glyph unicode="U" glyph-name="U" horiz-adv-x="606" d="M51 230V684Q51 707 73 719T129 731Q161 731 184 719T207 684V230Q207 130 303 130T399 230V684Q399 707 421 719T477 731Q509 731 532 719T555 684V230Q555 108 486 51T303 -6Q188 -6 120 51T51 230Z" />
<glyph unicode="V" glyph-name="V" horiz-adv-x="589" d="M4 667Q4 693 36 712T104 731Q147 731 155 702L295 189L434 702Q442 731 485 731Q520 731 552 712T585 667Q585 664 583 656L397 46Q389 21 361 8T295 -6T230 7T193 46L6 656Q4 664 4 667Z" />
<glyph unicode="W" glyph-name="W" horiz-adv-x="920" d="M3 669Q3 693 35 712T104 731Q146 731 154 702L306 189L385 527Q389 546 411 557T460 568T509 557T535 527L614 189L766 702Q774 731 816 731Q852 731 884 712T917 669Q917 662 915 656L716 46Q707 21
679 8T613 -6T547 7T512 46L460 283L408 46Q402 21 373 8T307 -6T241 7T204 46L5 656Q3 662 3 669Z" />
<glyph unicode="X" glyph-name="X" horiz-adv-x="590" d="M8 71Q8 84 17 99L190 366L24 632Q14 648 14 663Q14 693 47 715T115 737Q148 737 162 711L295 479L428 711Q442 737 475 737Q510 737 543 715T576 663Q576 648 566 632L400 366L573 99Q582 84 582 71Q582
41 548 18T478 -6Q450 -6 441 10L295 258L149 10Q139 -6 112 -6Q77 -6 43 17T8 71Z" />
<glyph unicode="Y" glyph-name="Y" horiz-adv-x="590" d="M4 667Q4 693 39 712T110 731Q128 731 137 725T155 702L295 445L434 702Q449 731 479 731Q514 731 549 712T585 667Q585 660 583 656L377 313Q373 307 373 299V48Q373 25 350 13T295 0T240 12T217 48V299Q217
307 213 313L6 656Q4 660 4 667Z" />
<glyph unicode="Z" glyph-name="Z" horiz-adv-x="536" d="M9 41Q9 67 26 96L308 595H76Q54 595 42 615T29 663T41 711T76 731H462Q507 731 507 690Q507 666 490 635L208 136H480Q501 136 514 115T527 68T514 21T480 0H54Q9 0 9 41Z" />
<glyph unicode="[" glyph-name="bracketleft" horiz-adv-x="355" d="M50 27V720Q50 743 70 755T118 768H294Q317 768 329 748T341 701Q341 672 329 652T294 632H206V115H294Q316 115 328 95T341 46Q341 19 329 -1T294 -21H118Q90 -21 70 -9T50 27Z" />
<glyph unicode="\" glyph-name="backslash" horiz-adv-x="382" d="M18 704Q18 724 35 739T76 755Q110 755 121 725L361 67Q363 62 363 53Q363 32 346 16T307 -1Q273 -1 261 31L21 689Q18 696 18 704Z" />
<glyph unicode="]" glyph-name="bracketright" horiz-adv-x="355" d="M14 46Q14 75 26 95T61 115H149V632H61Q39 632 27 652T14 701Q14 728 26 748T61 768H237Q265 768 285 756T305 720V27Q305 4 285 -8T237 -21H61Q38 -21 26 -1T14 46Z" />
<glyph unicode="^" glyph-name="asciicircum" horiz-adv-x="292" d="M0 615Q0 645 25 659L129 715Q139 720 146 720T163 715L267 659Q292 645 292 615Q292 597 283 583T261 569Q256 569 250 572L146 628L42 572Q36 569 31 569Q18 569 9 583T0 615Z" />
<glyph unicode="_" glyph-name="underscore" horiz-adv-x="306" d="M-54 -64Q-54 -37 -41 -19T-7 0H313Q332 0 346 -19T361 -64Q361 -91 347 -109T313 -127H-7Q-28 -127 -41 -110T-54 -64Z" />
<glyph unicode="`" glyph-name="grave" horiz-adv-x="221" d="M0 662Q0 683 14 701T47 720Q54 720 61 717L201 652Q221 642 221 617Q221 596 208 578T175 559Q170 559 160 563L20 628Q0 638 0 662Z" />
<glyph unicode="a" glyph-name="a" horiz-adv-x="484" d="M18 123Q18 206 78 240T252 274H288V284Q288 314 270 336T213 358Q165 358 134 342T96 325Q72 325 58 348T44 402Q44 435 99 458T215 482Q330 482 386 426T443 286V48Q443 28 422 14T367 0Q338 0 318 14T298
48V70Q229 -10 146 -10Q91 -10 55 24T18 123ZM174 145Q174 103 213 103Q238 103 263 131T288 195V199H284Q251 199 230 196T191 181T174 145Z" />
<glyph unicode="b" glyph-name="b" horiz-adv-x="533" d="M46 48V701Q46 722 67 735T122 748Q156 748 178 735T201 701V406Q218 438 251 460T328 482Q401 482 453 420T505 272V202Q505 118 453 54T331 -10Q285 -10 246 13T191 70V48Q191 30 171 15T122 0Q90 0
68 14T46 48ZM201 189Q201 173 225 149T278 125T328 148T350 202V272Q350 301 329 324T277 347Q248 347 225 326T201 272V189Z" />
<glyph unicode="c" glyph-name="c" horiz-adv-x="442" d="M28 202V270Q28 365 84 423T253 482Q325 482 373 458T422 399Q422 374 405 349T362 323Q354 323 326 335T266 347Q183 347 183 270V202Q183 125 267 125Q297 125 324 138T362 152Q391 152 409 128T428
78Q428 43 377 17T255 -10Q141 -10 85 48T28 202Z" />
<glyph unicode="d" glyph-name="d" horiz-adv-x="533" d="M28 202V272Q28 358 80 420T205 482Q248 482 281 460T332 406V701Q332 722 354 735T411 748Q444 748 465 735T487 701V48Q487 29 465 15T411 0Q383 0 363 15T342 48V70Q326 37 287 14T202 -10Q133 -10
81 54T28 202ZM183 202Q183 172 204 149T255 125T308 149T332 189V272Q332 305 309 326T256 347Q226 347 205 324T183 272V202Z" />
<glyph unicode="e" glyph-name="e" horiz-adv-x="496" d="M27 202V275Q27 360 94 421T257 482Q346 482 409 429T472 292Q472 260 464 240T440 212T411 202T375 199H182V193Q182 156 210 134T284 111Q319 111 357 129T409 148Q434 148 450 125T466 80Q466 49 413
20T280 -10Q168 -10 98 48T27 202ZM182 286H306Q327 286 327 310Q327 338 306 354T254 370Q225 370 204 354T182 310V286Z" />
<glyph unicode="f" glyph-name="f" horiz-adv-x="354" d="M46 47V547Q46 633 97 690T222 748H294Q322 748 337 729T352 683Q352 656 337 637T294 618H256Q201 618 201 564V476H314Q332 476 342 460T352 421Q352 398 342 382T314 366H201V47Q201 27 178 14T122
0Q89 0 68 13T46 47Z" />
<glyph unicode="g" glyph-name="g" horiz-adv-x="478" d="M12 -72Q12 -6 79 32Q43 53 43 94Q43 138 94 175Q29 223 29 302V317Q29 390 85 436T234 482Q297 482 347 458Q364 499 377 513T404 528Q430 528 446 513T463 482Q463 466 447 452L427 436Q412 424 404
416Q442 375 442 317V302Q442 230 384 183T234 135Q201 135 174 141Q170 134 170 128Q170 114 200 107T274 94T361 77T435 32T466 -54Q466 -136 400 -176T240 -217T79 -178T12 -72ZM158 -56Q158 -85 181 -102T237 -119T292 -102T316 -58Q316 -41 307 -30T280 -13T244
-3T198 4Q158 -17 158 -56ZM179 303Q179 269 194 247T236 225Q262 225 277 246T292 302V317Q292 349 277 370T235 392Q209 392 194 371T179 317V303Z" />
<glyph unicode="h" glyph-name="h" horiz-adv-x="535" d="M46 48V701Q46 722 67 735T123 748Q155 748 178 735T201 701V406Q216 438 248 460T325 482Q394 482 444 420T495 272V48Q495 25 472 13T417 0Q387 0 364 13T340 48V272Q340 301 319 324T268 347Q242 347
222 327T201 272V48Q201 30 178 15T123 0Q90 0 68 14T46 48Z" />
<glyph unicode="i" glyph-name="i" horiz-adv-x="244" d="M40 611T40 640T64 690T122 711Q155 711 179 690T203 640T179 590T122 568Q88 568 64 589ZM45 48V429Q45 450 66 463T122 476Q155 476 177 463T200 429V48Q200 30 177 15T122 0Q89 0 67 14T45 48Z" />
<glyph unicode="j" glyph-name="j" horiz-adv-x="245" d="M-40 -154Q-40 -124 -24 -106T18 -87Q35 -87 40 -73T45 -28V429Q45 450 66 463T121 476Q155 476 177 463T200 429V-28Q200 -113 158 -165T41 -217Q-40 -217 -40 -154ZM40 611T40 640T64 690T122 711Q155
711 179 690T203 640T179 590T122 568Q88 568 64 589Z" />
<glyph unicode="k" glyph-name="k" horiz-adv-x="509" d="M46 48V701Q46 722 67 735T122 748Q156 748 178 735T201 701V309L367 470Q379 482 397 482Q422 482 447 458T472 408Q472 393 460 381L354 283L491 91Q499 78 499 67Q499 41 469 16T410 -10Q386 -10 373
9L252 188L201 141V48Q201 30 178 15T122 0T68 14T46 48Z" />
<glyph unicode="l" glyph-name="l" horiz-adv-x="263" d="M54 48V701Q54 722 75 735T131 748Q164 748 186 735T209 701V48Q209 30 186 15T131 0Q98 0 76 14T54 48Z" />
<glyph unicode="m" glyph-name="m" horiz-adv-x="813" d="M45 48V429Q45 450 66 463T122 476Q150 476 170 463T190 429V406Q233 482 322 482Q362 482 393 455T440 382Q465 431 505 456T590 482Q665 482 718 425T772 272V48Q772 30 749 15T694 0Q664 0 641 15T617
48V272Q617 308 597 328T550 348Q524 348 505 328T486 272V47Q486 24 463 12T408 0Q378 0 355 12T331 47V271Q331 306 311 326T263 347Q237 347 219 328T200 272V48Q200 30 177 15T122 0Q89 0 67 14T45 48Z" />
<glyph unicode="n" glyph-name="n" horiz-adv-x="534" d="M45 48V429Q45 450 66 463T122 476Q150 476 170 463T190 429V406Q206 438 241 460T324 482Q393 482 443 420T494 272V48Q494 25 471 13T416 0Q386 0 363 13T339 48V272Q339 301 318 324T267 347Q241 347
221 327T200 272V48Q200 30 177 15T122 0Q89 0 67 14T45 48Z" />
<glyph unicode="o" glyph-name="o" horiz-adv-x="509" d="M27 202V272Q27 357 94 419T254 482Q346 482 414 420T482 272V202Q482 118 414 54T254 -10T95 54T27 202ZM182 202Q182 172 203 149T254 125T305 148T327 202V272Q327 301 305 324T254 347T204 324T182 272V202Z" />
<glyph unicode="p" glyph-name="p" horiz-adv-x="533" d="M46 -169V429Q46 450 67 463T120 476T171 463T191 429V406Q210 438 246 460T326 482Q401 482 453 421T505 272V202Q505 118 453 54T331 -10Q289 -10 253 13T201 70V-169Q201 -187 178 -202T122 -217T68
-203T46 -169ZM201 189Q201 173 223 149T276 125Q305 125 327 148T350 202V272Q350 301 328 324T274 347Q245 347 223 327T201 272V189Z" />
<glyph unicode="q" glyph-name="q" horiz-adv-x="533" d="M28 202V272Q28 359 80 420T207 482Q251 482 287 460T342 406V429Q342 450 362 463T413 476T465 463T487 429V-169Q487 -188 465 -202T411 -217T356 -202T332 -169V70Q317 37 281 14T202 -10Q133 -10 81
54T28 202ZM183 202Q183 172 205 149T257 125Q287 125 309 149T332 189V272Q332 306 310 326T259 347Q228 347 206 324T183 272V202Z" />
<glyph unicode="r" glyph-name="r" horiz-adv-x="394" d="M45 48V429Q45 450 66 463T121 476Q150 476 170 463T190 429V392Q206 428 239 455T309 482H338Q360 482 376 462T393 415Q393 387 377 367T338 347H309Q266 347 233 306T200 198V48Q200 30 177 15T121
0T67 14T45 48Z" />
<glyph unicode="s" glyph-name="s" horiz-adv-x="429" d="M21 82Q21 103 36 126T72 150Q84 150 101 139T145 117T207 105Q269 105 269 138Q269 156 245 167T187 187T118 208T59 251T35 328Q35 392 80 437T223 482Q290 482 341 462T393 410Q393 390 377 364T337
337Q327 337 291 352T225 367Q197 367 183 358T168 335Q168 320 192 311T251 294T320 272T379 226T404 144Q404 72 354 31T211 -10Q133 -10 77 17T21 82Z" />
<glyph unicode="t" glyph-name="t" horiz-adv-x="364" d="M43 169V636Q43 656 67 669T120 683Q151 683 174 670T198 636V476H311Q329 476 339 460T349 421Q349 398 339 382T311 366H198V169Q198 147 207 139T239 130H282Q314 130 331 111T348 65Q348 38 331 19T282
0H239Q43 0 43 169Z" />
<glyph unicode="u" glyph-name="u" horiz-adv-x="535" d="M40 200V428Q40 446 63 461T118 476Q148 476 171 461T195 428V200Q195 171 217 148T268 125T318 148T340 200V429Q340 448 363 462T418 476Q451 476 473 462T495 429V200Q495 116 428 53T268 -10Q175 -10
108 53T40 200Z" />
<glyph unicode="v" glyph-name="v" horiz-adv-x="503" d="M1 418Q1 443 37 463T106 483T149 458L252 197L355 458Q365 483 397 483Q425 483 463 463T502 417Q502 408 498 399L322 14Q310 -13 252 -13T182 14L6 399Q1 407 1 418Z" />
<glyph unicode="w" glyph-name="w" horiz-adv-x="702" d="M2 420Q2 445 36 463T104 482Q139 482 147 458L236 204L300 419Q309 449 351 449T402 419L466 204L555 458Q563 482 597 482Q630 482 664 463T699 418Q699 407 695 399L541 14Q530 -13 481 -13Q427 -13
417 14L351 188L285 14Q275 -13 220 -13Q172 -13 161 14L7 399Q2 412 2 420Z" />
<glyph unicode="x" glyph-name="x" horiz-adv-x="493" d="M18 67Q18 80 27 93L140 243L38 379Q28 392 28 404Q28 429 65 455T133 482Q156 482 166 466L246 335L327 465Q337 482 362 482Q391 482 428 456T465 404Q465 393 455 379L352 242L466 93Q475 82 475 67Q475
43 440 17T373 -10Q349 -10 338 6L246 144L155 6Q143 -10 118 -10Q92 -10 55 16T18 67Z" />
<glyph unicode="y" glyph-name="y" horiz-adv-x="496" d="M1 -151Q1 -87 39 -87Q181 -87 181 41L6 389Q1 399 1 409Q1 437 37 460T106 483T149 458L262 187L345 458Q355 483 385 483Q416 483 454 460T492 406Q492 396 488 389L346 35Q341 21 328 -12L310 -58Q305
-73 292 -99T267 -139T235 -170T193 -196T140 -210T72 -217Q37 -217 19 -204T1 -151Z" />
<glyph unicode="z" glyph-name="z" horiz-adv-x="448" d="M18 54Q18 83 45 118L222 351H69Q51 351 38 369T25 414T37 458T69 476H368Q388 476 402 463T416 425Q416 391 391 358L213 125H390Q408 125 421 107T434 62T422 18T390 0H69Q43 0 31 16T18 54Z" />
<glyph unicode="{" glyph-name="braceleft" horiz-adv-x="380" d="M17 363T17 387T26 423T47 439T67 449T77 469Q77 478 70 526T62 593Q62 660 131 714T281 768Q328 768 348 749T368 700Q368 676 356 657T321 637Q287 637 253 622T218 572Q218 560 225 511T233
449Q233 428 220 408T197 384Q209 381 221 362T233 320Q233 307 226 240T218 164Q218 136 251 124T321 111Q346 111 357 91T368 46Q368 -20 279 -20Q196 -20 129 27T62 144Q62 163 69 227T77 301Q77 315 68 322T47 333T27 349Z" />
<glyph unicode="|" glyph-name="bar" horiz-adv-x="255" d="M50 27V721Q50 742 71 755T127 768Q160 768 182 755T205 721V27Q205 9 182 -6T127 -21Q94 -21 72 -7T50 27Z" />
<glyph unicode="}" glyph-name="braceright" horiz-adv-x="380" d="M12 46Q12 70 23 90T59 111Q95 111 128 123T162 164Q162 173 155 240T147 320Q147 342 159 361T183 384Q173 387 160 407T147 449Q147 461 154 510T162 572Q162 607 128 622T59 637Q37 637 25
656T12 700Q12 729 32 748T99 768Q180 768 249 714T318 593Q318 575 311 527T303 469Q303 456 312 449T333 439T353 424T363 387T354 350T333 333T313 323T303 301Q303 292 310 228T318 144Q318 75 251 28T101 -20Q12 -20 12 46Z" />
<glyph unicode="~" glyph-name="asciitilde" horiz-adv-x="411" d="M28 247Q28 320 113 320Q144 320 188 307T259 293Q282 293 309 303T345 314Q365 314 374 297T383 265Q383 192 298 192Q260 192 217 205T152 219Q129 219 102 209T66 198Q46 198 37 215T28 247Z" />
</font>
</defs>
</svg>
