<?xml version="1.0" standalone="no"?> <!DOCTYPE svg PUBLIC "-//W3C//DTD SVG 1.0//EN" "http://www.w3.org/TR/2001/REC-SVG-20010904/DTD/svg10.dtd" > <svg xmlns="http://www.w3.org/2000/svg" width="100%" height="100%">
<defs >
<font id="TerminalDosis-Bold" horiz-adv-x="480" ><font-face
    font-family="Terminal Dosis"
    units-per-em="1000"
    panose-1="2 1 8 3 2 2 2 6 0 3"
    ascent="1027"
    descent="-237"
    alphabetic="0" />
<missing-glyph horiz-adv-x="388" d="M37 74Q37 91 45 101L136 236L45 371Q37 382 37 398Q37 418 53 431T89 445Q112 445 127 425L194 313L262 425Q276 445 299 445Q320 445 336 432T352 398Q352 384 343 371L252 236L343 101Q352 89 352 74Q352 54 336 41T299
28Q275 28 262 47L194 159L127 47Q112 28 89 28Q69 28 53 41T37 74Z" />
<glyph unicode=" " glyph-name="space" horiz-adv-x="200" />
<glyph unicode="!" glyph-name="exclam" horiz-adv-x="220" d="M42 34T42 62T61 110T110 130Q138 130 158 110T178 62Q178 35 158 15T110 -6Q81 -6 62 14ZM47 680Q47 706 64 720T109 735T154 720T172 680Q172 614 165 460T158 240Q158 222 143 212T109 202Q60
202 60 240Q60 306 54 460T47 680Z" />
<glyph unicode="&quot;" glyph-name="quotedbl" horiz-adv-x="303" d="M28 735Q28 749 42 758T75 768T109 759T124 735L114 597Q114 584 104 574T75 564T47 573T38 597L28 735ZM179 735Q179 749 193 758T226 768T260 759T275 735L265 597Q265 584 256 574T226
564Q207 564 198 573T189 597L179 735Z" />
<glyph unicode="#" glyph-name="numbersign" horiz-adv-x="678" d="M23 246T23 267T33 302T59 317H156L178 440H100Q83 440 73 452T63 487Q63 508 73 522T99 536H197L224 686Q227 698 242 705T278 713Q303 713 320 701T337 664L314 536H424L451 686Q453 698 468
705T504 713Q529 713 546 701T564 664L540 536H618Q633 536 644 522T656 488T645 454T619 440H523L500 317H578Q593 317 605 303T617 269Q617 248 605 234T579 220H482L453 60Q451 47 436 39T402 30Q378 30 358 43T338 78L363 220H255L226 60Q224 47 208 39T176
30Q152 30 133 43T113 78L137 220H59Q43 220 33 233ZM274 317H382L405 440H296L274 317Z" />
<glyph unicode="$" glyph-name="dollar" horiz-adv-x="525" d="M26 125Q26 148 43 171T82 195Q97 195 117 179T169 143T238 120V319Q201 333 182 341T132 367T85 404T57 453T44 520Q44 609 99 656T238 715V743Q238 753 248 760T272 768Q285 768 295 761T306 743V717Q369
715 423 696T477 638Q477 616 463 593T424 569Q414 569 379 586T306 606V430Q347 415 374 401T432 363T479 301T495 216Q495 126 444 72T306 4V-27Q306 -37 296 -44T272 -52Q258 -52 248 -45T238 -27V1Q151 3 89 42T26 125ZM166 533Q166 503 186 486T246 452V603Q166
590 166 533ZM298 121Q373 136 373 203Q373 237 354 258T298 295V121Z" />
<glyph unicode="%" glyph-name="percent" horiz-adv-x="787" d="M25 457V602Q25 669 64 700T168 731T271 700T310 602V457Q310 390 272 359T168 328T64 359T25 457ZM112 457Q112 403 168 403Q225 403 225 457V602Q225 656 168 656Q112 656 112 602V457ZM171 4Q171
11 175 21L535 750Q546 771 571 771Q590 771 605 758T621 726Q621 716 617 708L257 -18Q248 -40 218 -40Q198 -40 185 -27T171 4ZM476 126V271Q476 338 515 369T619 400T722 369T761 271V126Q761 59 723 28T619 -3Q476 -3 476 126ZM563 126Q563 72 619 72Q676 72
676 126V271Q676 325 619 325Q563 325 563 271V126Z" />
<glyph unicode="&amp;" glyph-name="ampersand" horiz-adv-x="642" d="M22 210Q22 275 58 329T147 413Q77 492 77 567Q77 651 137 699T287 748Q371 748 427 710T483 631Q483 609 464 590T422 571Q407 571 393 582T369 607T337 632T288 644Q249 644 224 622T199
561Q199 549 202 537T213 510L226 487Q231 478 244 462L262 442Q267 437 284 420L302 401L463 231Q471 249 475 269T481 303T483 337T485 364Q487 385 499 394T543 404T586 390T598 344Q598 244 542 150L623 66Q631 57 631 44Q631 24 613 8T571 -9Q554 -9 539 6L477
70Q392 -10 273 -10Q161 -10 92 54T22 210ZM153 221Q153 170 189 137T288 103Q359 103 400 149L220 337Q153 288 153 221Z" />
<glyph unicode="&apos;" glyph-name="quotesingle" horiz-adv-x="152" d="M28 735Q28 749 42 758T75 768T109 759T124 735L114 597Q114 584 104 574T75 564T47 573T38 597L28 735Z" />
<glyph unicode="(" glyph-name="parenleft" horiz-adv-x="341" d="M48 166V568Q48 654 114 711T261 768Q325 768 325 712Q325 687 314 671T284 655Q236 655 207 629T177 568V166Q177 93 284 93Q325 93 325 36Q325 8 311 -6T258 -20Q174 -20 111 27T48 166Z" />
<glyph unicode=")" glyph-name="parenright" horiz-adv-x="341" d="M16 36Q16 93 57 93Q163 93 163 166V568Q163 602 134 628T57 655Q39 655 28 671T16 712Q16 768 80 768Q161 768 227 711T293 568V166Q293 75 230 28T83 -20Q44 -20 30 -6T16 36Z" />
<glyph unicode="*" glyph-name="asterisk" horiz-adv-x="470" d="M23 571Q23 589 36 604T70 619Q77 619 83 616L194 579L189 690Q190 710 203 720T235 731T267 721T281 690L276 578L388 616Q396 619 401 619Q420 619 433 603T446 566Q446 534 416 528L308 501L381
397Q388 388 388 373Q388 353 372 340T336 326Q314 326 303 343L235 446L166 342Q156 326 136 326Q119 326 101 339T82 371Q82 385 93 398L163 496L52 528Q23 534 23 571Z" />
<glyph unicode="+" glyph-name="plus" horiz-adv-x="444" d="M21 240Q21 263 32 278T61 294H168V400Q168 416 184 428T222 441Q245 441 260 429T275 400V294H381Q397 294 410 278T423 240Q423 217 411 202T381 187H275V80Q275 62 261 51T222 40Q199 40 184 51T168
80V187H61Q43 187 32 201T21 240Z" />
<glyph unicode="," glyph-name="comma" horiz-adv-x="193" d="M29 62Q29 90 48 110T96 130T144 111T164 63Q164 46 109 -83Q101 -100 82 -100Q67 -100 53 -91T39 -66Q39 -59 43 -52L66 1Q29 21 29 62Z" />
<glyph unicode="-" glyph-name="hyphen" horiz-adv-x="413" d="M36 240Q36 263 47 278T76 294H336Q352 294 365 278T378 240Q378 217 366 202T336 187H76Q58 187 47 201T36 240Z" />
<glyph unicode="." glyph-name="period" horiz-adv-x="191" d="M28 34T28 62T47 110T96 130Q123 130 143 110T163 62Q163 35 143 15T96 -6Q67 -6 48 14Z" />
<glyph unicode="/" glyph-name="slash" horiz-adv-x="484" d="M17 4Q17 13 22 21L381 750Q392 771 417 771Q436 771 451 758T467 726Q467 716 463 708L104 -18Q93 -40 65 -40Q44 -40 31 -27T17 4Z" />
<glyph unicode="0" glyph-name="zero" horiz-adv-x="561" d="M46 223V502Q46 621 109 676T280 731T451 676T515 502V223Q515 104 451 49T280 -6T110 49T46 223ZM176 223Q176 108 280 108Q385 108 385 223V502Q385 617 280 617Q176 617 176 502V223ZM234 341T234
362T246 395T281 408Q302 408 314 396T327 362T315 328T281 315T247 328Z" />
<glyph unicode="1" glyph-name="one" horiz-adv-x="288" d="M3 586Q3 617 28 633L146 723Q158 733 173 733Q195 733 213 721T231 691V41Q231 22 212 11T166 0Q139 0 120 11T101 41V575L69 543Q59 534 45 534Q27 534 15 550T3 586Z" />
<glyph unicode="2" glyph-name="two" horiz-adv-x="507" d="M27 41V138Q27 182 60 225T140 303L236 372Q283 407 316 446T349 524Q349 559 326 586T256 613Q217 613 192 591T167 525Q167 506 149 492T99 477Q40 477 40 547Q40 629 104 680T255 731Q346 731 412
676T479 528Q479 468 447 416T367 327T274 259T195 197T162 138V114H440Q456 114 468 98T481 58T469 18T440 0H84Q65 0 46 12T27 41Z" />
<glyph unicode="3" glyph-name="three" horiz-adv-x="521" d="M20 176Q20 205 34 216T82 227Q121 227 135 217T149 181Q149 147 177 128T253 108Q309 108 334 133T360 216V235Q360 330 250 330Q211 330 211 381T250 432Q294 432 318 451T342 530Q342 618 254 618Q165
618 165 551Q165 501 103 501Q61 501 49 512T36 557Q36 586 47 614T81 670T150 714T255 731Q466 731 466 552Q466 492 446 448T388 386Q490 346 490 235V216Q490 102 424 48T250 -6Q137 -6 79 50T20 176Z" />
<glyph unicode="4" glyph-name="four" horiz-adv-x="502" d="M-1 205Q-1 218 6 231L243 697Q259 731 298 731Q318 731 340 717T363 681Q363 674 358 664L166 280H283V385Q283 405 302 415T348 426T394 416T413 385V280H460Q479 280 490 262T501 219Q501 196 489
178T460 159H413V41Q413 22 394 11T348 0Q322 0 303 11T283 41V159H43Q24 159 12 171T-1 205Z" />
<glyph unicode="5" glyph-name="five" horiz-adv-x="509" d="M18 175Q18 208 34 221T83 234Q121 234 134 221T148 184Q148 148 177 128T251 108Q357 108 357 219V238Q357 294 330 322T252 350H104Q75 350 64 363T52 401Q52 405 52 413T53 427L79 690Q82 731 104
731H412Q430 731 440 714T451 674T441 634T412 617H187L175 452H252Q359 452 423 401T487 238V219Q487 103 423 49T254 -6Q145 -6 82 47T18 175Z" />
<glyph unicode="6" glyph-name="six" horiz-adv-x="549" d="M46 223V502Q46 621 111 676T287 731Q398 731 456 676T515 548Q515 518 501 506T454 494Q386 494 386 543Q386 577 357 597T284 617Q175 617 175 502V393Q218 444 308 444Q402 444 458 396T515 237V223Q515
104 452 49T281 -6T110 49T46 223ZM175 215Q175 100 281 100Q385 100 385 215V228Q385 342 280 342T175 237V215Z" />
<glyph unicode="7" glyph-name="seven" horiz-adv-x="498" d="M17 536V690Q17 705 34 718T74 731H429Q448 731 467 718T486 690V576Q486 550 461 500L208 14Q198 -5 171 -5Q139 -5 114 14T89 60Q89 73 95 83L356 551V617H147V536Q147 518 127 506T81 494Q54 494
36 506T17 536Z" />
<glyph unicode="8" glyph-name="eight" horiz-adv-x="533" d="M32 200V212Q32 356 151 400Q55 434 55 554Q55 645 112 688T267 731Q364 731 421 688T478 554Q478 434 382 400Q501 357 501 212V200Q501 94 437 44T267 -6T97 44T32 200ZM162 215Q162 100 267 100Q371
100 371 215V235Q371 345 267 345Q162 345 162 235V215ZM181 625T181 538T267 451T353 538T267 625Z" />
<glyph unicode="9" glyph-name="nine" horiz-adv-x="550" d="M34 177Q34 207 48 219T95 231Q163 231 163 182Q163 148 192 128T266 108Q374 108 374 223V332Q331 281 241 281Q147 281 91 329T34 488V502Q34 621 98 676T268 731Q375 731 439 676T504 502V223Q504
104 438 49T262 -6T93 50T34 177ZM164 497Q164 383 269 383T374 488V510Q374 625 268 625Q164 625 164 510V497Z" />
<glyph unicode=":" glyph-name="colon" horiz-adv-x="223" d="M44 34T44 62T63 110T112 130Q139 130 159 110T179 62Q179 35 159 15T112 -6Q83 -6 64 14ZM44 326T44 354T63 402T112 422Q139 422 159 402T179 354Q179 327 159 307T112 286Q83 286 64 306Z" />
<glyph unicode=";" glyph-name="semicolon" horiz-adv-x="224" d="M42 62Q42 90 61 110T109 130T157 111T177 63Q177 46 122 -83Q114 -100 95 -100Q80 -100 66 -91T52 -66Q52 -59 56 -52L79 1Q42 21 42 62ZM47 326T47 354T66 402T115 422Q142 422 162 402T182
354Q182 327 162 307T115 286Q86 286 67 306Z" />
<glyph unicode="&lt;" glyph-name="less" horiz-adv-x="418" d="M19 277Q19 308 46 325L304 494Q311 498 321 498Q342 498 360 480T378 437Q378 414 362 404L169 277L362 151Q378 141 378 117Q378 92 360 74T321 56Q310 56 304 61L46 229Q19 247 19 277Z" />
<glyph unicode="=" glyph-name="equal" horiz-adv-x="445" d="M53 144Q53 167 64 182T93 198H351Q367 198 380 182T393 144Q393 121 381 106T351 91H93Q75 91 64 105T53 144ZM53 347Q53 370 64 385T93 401H351Q367 401 380 385T393 347Q393 324 381 309T351 294H93Q75
294 64 308T53 347Z" />
<glyph unicode="&gt;" glyph-name="greater" horiz-adv-x="417" d="M39 117Q39 140 55 151L249 277L55 404Q39 415 39 437Q39 462 57 480T97 498Q108 498 113 494L372 325Q398 309 398 277Q398 247 372 229L113 61Q108 56 97 56Q76 56 58 74T39 117Z" />
<glyph unicode="?" glyph-name="question" horiz-adv-x="435" d="M21 617Q21 659 71 697T205 735Q299 735 355 687T411 566Q411 541 404 517T388 477T363 440T338 411L312 386L293 370Q259 343 251 316T243 238Q243 202 193 202Q168 202 158 214T147 258Q147 362
207 416L236 440Q259 460 270 471T293 505T305 552Q305 593 277 615T202 638Q169 638 147 627T117 604T98 580T71 569Q52 569 37 581T21 617ZM127 62Q127 90 146 110T194 130T242 110T262 62Q262 35 242 15T194 -6T147 14T127 62Z" />
<glyph unicode="@" glyph-name="at" horiz-adv-x="737" d="M38 209Q38 313 74 392T188 521T380 570Q537 570 624 482T712 239Q712 140 675 76T564 12Q522 12 494 32T459 85Q406 17 334 17Q283 17 246 46T209 132Q209 255 410 255H442V270Q442 340 361 340Q325
340 296 327T263 313Q251 313 242 330T232 361Q232 389 276 408T375 428Q443 428 489 393T536 294V125Q543 77 572 77Q630 77 630 219Q630 496 380 496Q308 496 256 474T176 410T135 319T122 210Q122 154 133 108T170 24T240 -36T350 -58Q398 -58 438 -45T483 -32Q497
-32 506 -45T515 -70Q515 -99 455 -115T335 -132Q211 -132 125 -44T38 209ZM312 134Q312 111 324 99T358 86Q392 86 419 111T447 168V199H422Q312 199 312 134Z" />
<glyph unicode="A" glyph-name="A" horiz-adv-x="575" d="M9 54Q9 56 11 64L204 693Q210 714 233 725T287 737T341 726T371 693L564 64Q566 56 566 54Q566 32 539 16T484 0Q447 0 440 26L402 159H173L135 26Q128 0 91 0Q62 0 36 15T9 54ZM200 261H374L287 568L200 261Z" />
<glyph unicode="B" glyph-name="B" horiz-adv-x="562" d="M60 40V690Q60 709 77 720T117 731H310Q511 731 511 555Q511 433 426 396Q477 376 503 340T529 233V212Q529 101 475 51T329 0H117Q92 0 76 12T60 40ZM189 114H302Q399 114 399 223V239Q399 295 375 320T302
345H189V114ZM189 447H301Q340 447 360 470T381 533Q381 572 360 594T300 617H189V447Z" />
<glyph unicode="C" glyph-name="C" horiz-adv-x="550" d="M53 223V502Q53 620 117 675T284 731Q389 731 455 679T522 541Q522 504 507 491T457 477Q393 477 392 518Q391 531 390 540T382 565T365 591T335 609T288 617Q183 617 183 502V223Q183 108 290 108Q322
108 343 118T374 146T387 179T392 215Q395 256 456 256Q491 256 506 243T522 192Q522 102 456 48T283 -6Q180 -6 117 49T53 223Z" />
<glyph unicode="D" glyph-name="D" horiz-adv-x="580" d="M60 40V691Q60 707 76 719T117 731H294Q401 731 465 676T529 502V229Q529 110 465 55T294 0H117Q92 0 76 12T60 40ZM190 114H294Q399 114 399 229V502Q399 617 294 617H190V114Z" />
<glyph unicode="E" glyph-name="E" horiz-adv-x="530" d="M60 41V690Q60 709 77 720T117 731H473Q493 731 503 714T514 675Q514 651 503 634T473 617H190V417H342Q361 417 372 402T383 365Q383 346 373 331T342 315H190V114H473Q492 114 503 97T514 56Q514 34
504 17T473 0H117Q94 0 77 11T60 41Z" />
<glyph unicode="F" glyph-name="F" horiz-adv-x="508" d="M60 41V690Q60 709 77 720T117 731H466Q486 731 496 715T506 675Q506 651 496 634T466 617H190V417H343Q362 417 372 402T383 365Q383 345 373 330T343 315H190V41Q190 22 171 11T125 0Q98 0 79 11T60 41Z" />
<glyph unicode="G" glyph-name="G" horiz-adv-x="564" d="M52 223V502Q52 620 115 675T282 731Q388 731 454 679T521 539Q521 503 506 490T456 477Q392 477 391 518Q388 562 366 589T287 617Q182 617 182 502V223Q182 108 286 108Q336 108 363 137T391 223V282H310Q291
282 281 297T270 333Q270 353 281 368T310 384H480Q499 384 510 372T521 342V223Q521 104 457 49T286 -6T116 49T52 223Z" />
<glyph unicode="H" glyph-name="H" horiz-adv-x="605" d="M60 41V691Q60 711 79 721T125 731T171 721T190 691V430H415V691Q415 711 434 721T480 731T526 721T545 691V41Q545 22 526 11T480 0Q453 0 434 11T415 41V328H190V41Q190 22 171 11T125 0Q98 0 79 11T60 41Z" />
<glyph unicode="I" glyph-name="I" horiz-adv-x="250" d="M60 41V691Q60 711 79 721T125 731T171 721T190 691V41Q190 22 171 11T125 0Q98 0 79 11T60 41Z" />
<glyph unicode="J" glyph-name="J" horiz-adv-x="539" d="M13 193Q13 229 28 242T78 256Q139 256 143 215Q147 108 246 108Q352 108 352 223V617H250Q231 617 220 634T209 675Q209 698 219 714T250 731H425Q448 731 465 720T482 690V223Q482 105 419 50T252 -6Q146
-6 80 47T13 193Z" />
<glyph unicode="K" glyph-name="K" horiz-adv-x="552" d="M60 41V691Q60 711 79 721T125 731T171 721T190 691V418L406 712Q420 731 442 731Q467 731 492 710T517 664Q517 649 509 639L330 415L548 83Q555 73 555 60Q555 36 531 16T477 -5Q447 -5 432 20L244 305L190
237V41Q190 22 171 11T125 0Q98 0 79 11T60 41Z" />
<glyph unicode="L" glyph-name="L" horiz-adv-x="484" d="M60 41V691Q60 711 79 721T125 731T171 721T190 691V114H434Q452 114 462 97T473 57T463 17T434 0H117Q94 0 77 11T60 41Z" />
<glyph unicode="M" glyph-name="M" horiz-adv-x="699" d="M60 41V666Q60 699 78 715T125 731Q162 731 182 718T226 662L349 438L472 662Q496 705 516 718T574 731Q602 731 620 715T639 666V41Q639 22 620 11T574 0Q547 0 528 11T509 41V471L392 263Q378 237 348
237Q319 237 305 263L190 479V41Q190 22 171 11T125 0Q98 0 79 11T60 41Z" />
<glyph unicode="N" glyph-name="N" horiz-adv-x="605" d="M60 41V690Q60 710 79 720T125 731Q161 731 180 718T222 662L415 289V691Q415 711 434 721T480 731T526 721T545 691V41Q545 22 526 11T480 0Q427 0 405 41L190 443V41Q190 22 171 11T125 0Q98 0 79 11T60 41Z" />
<glyph unicode="O" glyph-name="O" horiz-adv-x="572" d="M52 223V502Q52 621 115 676T286 731T457 676T521 502V223Q521 104 457 49T286 -6T116 49T52 223ZM182 223Q182 108 286 108Q391 108 391 223V502Q391 617 286 617Q182 617 182 502V223Z" />
<glyph unicode="P" glyph-name="P" horiz-adv-x="557" d="M60 41V691Q60 707 73 719T109 731H310Q413 731 475 677T537 506V500Q537 383 473 328T302 273H190V41Q190 22 171 11T125 0Q98 0 79 11T60 41ZM190 375H302Q352 375 379 404T407 490V502Q407 559 380
588T302 617H190V375Z" />
<glyph unicode="Q" glyph-name="Q" horiz-adv-x="572" d="M52 223V502Q52 621 115 676T286 731T457 676T521 502V223Q521 117 469 62T327 -3V-68Q327 -87 315 -98T286 -109T257 -98T244 -68V-3Q52 18 52 223ZM182 223Q182 136 244 116V169Q244 189 256 199T286
209T315 199T327 169V116Q391 137 391 223V502Q391 559 364 588T286 617Q182 617 182 502V223Z" />
<glyph unicode="R" glyph-name="R" horiz-adv-x="570" d="M60 41V691Q60 707 72 719T102 731H300Q537 731 537 522Q537 440 502 390T406 322L537 79Q542 73 542 63Q542 38 516 17T461 -5T416 26L274 302H190V41Q190 22 171 11T125 0Q99 0 80 11T60 41ZM190 404H300Q407
404 407 510Q407 617 300 617H190V404Z" />
<glyph unicode="S" glyph-name="S" horiz-adv-x="522" d="M24 115Q24 138 41 161T81 185Q94 185 110 173T142 147T187 120T251 108Q299 108 331 130T363 195Q363 225 346 248T300 287T237 317T169 350T106 390T60 450T42 536Q42 589 63 629T121 692T198 725T285
736Q311 736 340 733T401 721T454 696T475 656Q475 634 461 611T423 587Q414 587 374 606T285 625Q231 625 202 605T172 548Q172 519 196 498T255 463T332 429T409 384T469 315T493 208Q493 104 428 48T255 -9Q160 -9 92 30T24 115Z" />
<glyph unicode="T" glyph-name="T" horiz-adv-x="528" d="M12 673Q12 696 22 713T53 731H476Q496 731 506 714T517 673Q517 649 506 632T476 614H330V41Q330 22 311 11T265 0Q238 0 219 11T200 41V614H53Q34 614 23 631T12 673Z" />
<glyph unicode="U" glyph-name="U" horiz-adv-x="594" d="M57 223V691Q57 711 76 721T122 731T168 721T187 691V223Q187 108 297 108T407 223V691Q407 711 426 721T472 731T518 721T537 691V223Q537 105 472 50T297 -6T123 49T57 223Z" />
<glyph unicode="V" glyph-name="V" horiz-adv-x="575" d="M9 677Q9 700 35 715T91 731Q128 731 135 705L288 163L440 705Q447 731 484 731Q512 731 539 715T566 677Q566 675 564 667L372 38Q366 17 342 6T288 -6Q219 -6 204 38L11 667Q9 675 9 677Z" />
<glyph unicode="W" glyph-name="W" horiz-adv-x="883" d="M9 679Q9 700 36 715T92 731Q128 731 135 705L293 163L378 511Q387 547 442 547Q496 547 505 511L590 163L748 705Q755 731 791 731Q820 731 847 716T874 679Q874 673 872 667L674 38Q659 -6 589 -6Q559
-6 535 5T506 38L442 308L377 38Q372 17 348 6T294 -6Q263 -6 239 5T209 38L11 667Q9 673 9 679Z" />
<glyph unicode="X" glyph-name="X" horiz-adv-x="561" d="M13 60Q13 70 21 84L194 366L27 647Q18 662 18 675Q18 700 44 718T101 736Q129 736 144 708L280 463L416 708Q432 736 460 736Q490 736 516 718T543 675Q543 662 534 647L367 366L540 84Q547 71 547 60Q547
34 519 15T462 -5Q438 -5 427 16L280 273L134 16Q122 -5 98 -5Q70 -5 42 14T13 60Z" />
<glyph unicode="Y" glyph-name="Y" horiz-adv-x="574" d="M9 677Q9 699 37 715T95 731Q122 731 135 705L287 416L440 705Q454 731 479 731Q508 731 536 715T565 677Q565 669 562 664L356 306Q352 300 352 293V41Q352 22 333 11T287 0Q261 0 242 11T222 41V293Q222
302 219 306L12 664Q9 672 9 677Z" />
<glyph unicode="Z" glyph-name="Z" horiz-adv-x="522" d="M14 36Q14 58 28 81L325 617H72Q53 617 43 633T32 674Q32 697 42 714T72 731H452Q491 731 491 696Q491 674 476 649L180 114H468Q486 114 497 97T509 57T498 18T468 0H53Q14 0 14 36Z" />
<glyph unicode="[" glyph-name="bracketleft" horiz-adv-x="341" d="M56 20V727Q56 746 73 757T113 768H285Q305 768 315 752T325 712Q325 688 314 671T285 654H186V93H285Q303 93 314 76T325 35Q325 12 315 -4T285 -21H113Q90 -21 73 -10T56 20Z" />
<glyph unicode="\" glyph-name="backslash" horiz-adv-x="370" d="M19 711Q19 728 33 741T68 755Q97 755 106 729L349 57Q351 53 351 45Q351 27 337 13T303 -1Q274 -1 264 27L21 697Q19 707 19 711Z" />
<glyph unicode="]" glyph-name="bracketright" horiz-adv-x="342" d="M16 35Q16 59 27 76T57 93H156V654H57Q38 654 27 671T16 712Q16 734 26 751T57 768H228Q251 768 268 757T286 727V20Q286 1 269 -10T228 -21H57Q37 -21 27 -4T16 35Z" />
<glyph unicode="^" glyph-name="asciicircum" horiz-adv-x="285" d="M0 616Q0 642 22 653L126 709Q134 714 143 714Q150 714 160 709L264 654Q285 641 285 615Q285 600 277 588T257 576Q252 576 247 579L143 635L39 579Q33 576 28 576Q16 576 8 588T0 616Z" />
<glyph unicode="_" glyph-name="underscore" horiz-adv-x="316" d="M-42 -54Q-42 -31 -31 -16T-2 0H318Q334 0 347 -16T360 -54Q360 -77 348 -92T318 -107H-2Q-20 -107 -31 -93T-42 -54Z" />
<glyph unicode="`" glyph-name="grave" horiz-adv-x="202" d="M0 665Q0 683 12 698T40 714Q43 714 53 712L185 648Q202 640 202 617Q202 600 190 584T162 568Q158 568 148 572L18 635Q0 643 0 665Z" />
<glyph unicode="a" glyph-name="a" horiz-adv-x="471" d="M22 124Q22 205 82 238T255 271H296V284Q296 321 275 348T208 376T131 361T94 345Q74 345 62 365T50 409Q50 438 101 459T210 481Q319 481 372 426T425 286V41Q425 24 407 12T362 0Q337 0 321 12T304 41V70Q235
-9 152 -9Q95 -9 59 25T22 124ZM151 141Q151 114 165 101T204 87Q236 87 266 117T296 183V204H281Q220 204 186 192T151 141Z" />
<glyph unicode="b" glyph-name="b" horiz-adv-x="519" d="M51 41V712Q51 730 68 741T114 752T161 741T180 712V405Q197 437 230 459T308 481Q381 481 433 421T486 278V196Q486 115 433 53T311 -9Q266 -9 227 14T172 70V41Q172 26 155 13T114 0Q87 0 69 12T51 41ZM180
178Q180 159 207 132T270 104T331 132T357 196V278Q357 313 331 340T269 368Q235 368 208 343T180 278V178Z" />
<glyph unicode="c" glyph-name="c" horiz-adv-x="434" d="M34 196V276Q34 368 88 424T250 481Q318 481 364 457T410 403Q410 382 395 361T359 340Q353 340 324 354T260 368Q163 368 163 276V196Q163 104 261 104Q295 104 324 119T361 134Q385 134 400 114T416
73Q416 42 368 17T251 -9Q142 -9 88 47T34 196Z" />
<glyph unicode="d" glyph-name="d" horiz-adv-x="520" d="M33 196V278Q33 361 85 421T211 481Q255 481 288 459T340 405V712Q340 730 358 741T405 752T451 741T469 712V41Q469 25 451 13T405 0Q382 0 365 13T347 41V70Q331 38 293 15T208 -9Q139 -9 86 53T33 196ZM162
196Q162 161 188 133T249 104T312 131T340 178V278Q340 318 313 343T250 368Q214 368 188 341T162 278V196Z" />
<glyph unicode="e" glyph-name="e" horiz-adv-x="484" d="M32 196V281Q32 363 96 422T251 481Q336 481 396 428T457 293Q457 263 450 244T427 216T398 206T364 204H161V189Q161 146 193 120T278 93Q316 93 353 112T401 131Q422 131 436 112T450 74Q450 46 400
19T274 -9Q167 -9 100 47T32 196ZM161 280H307Q323 280 329 285T336 307Q336 342 311 364T248 386Q213 386 187 365T161 308V280Z" />
<glyph unicode="f" glyph-name="f" horiz-adv-x="340" d="M51 40V556Q51 639 102 695T227 752H286Q309 752 322 736T335 698Q335 675 322 659T286 643H254Q221 643 201 623T180 570V475H302Q317 475 326 461T335 428T326 395T302 381H180V40Q180 22 161 11T114
0T69 11T51 40Z" />
<glyph unicode="g" glyph-name="g" horiz-adv-x="470" d="M15 -80Q15 -11 88 26Q46 46 46 90T97 168Q35 216 35 295V316Q35 389 89 435T230 481Q296 481 344 452Q374 520 405 520Q428 520 442 507T456 480Q456 464 440 452Q403 426 393 414Q428 373 428 316V295Q428
223 373 176T230 128Q194 128 165 137Q153 127 153 117Q153 100 184 92T259 79T348 63T423 20T454 -64Q454 -142 391 -181T236 -221Q143 -221 79 -183T15 -80ZM137 -67Q137 -100 165 -119T234 -138T302 -119T329 -68Q329 -54 324 -44T307 -26T285 -15T254 -7T224
-2T191 2Q137 -23 137 -67ZM160 296Q160 257 179 232T232 206Q265 206 284 230T303 295V316Q303 353 284 378T231 403T179 379T160 316V296Z" />
<glyph unicode="h" glyph-name="h" horiz-adv-x="524" d="M51 41V712Q51 730 68 741T115 752Q142 752 161 741T180 712V405Q195 437 228 459T306 481Q375 481 426 421T478 278V41Q478 22 459 11T413 0Q388 0 369 11T349 41V278Q349 312 323 340T262 368Q229 368
205 343T180 278V41Q180 26 161 13T115 0Q88 0 70 12T51 41Z" />
<glyph unicode="i" glyph-name="i" horiz-adv-x="229" d="M43 644Q43 670 63 688T114 707Q143 707 163 689T184 644Q184 619 164 600T114 581Q84 581 64 600T43 644ZM50 41V435Q50 453 68 464T114 475T160 464T179 435V41Q179 26 160 13T114 0Q87 0 69 12T50 41Z" />
<glyph unicode="j" glyph-name="j" horiz-adv-x="231" d="M-38 -168Q-38 -143 -24 -128T11 -112Q36 -112 43 -92T51 -32V435Q51 453 69 464T114 475Q142 475 161 464T180 435V-32Q180 -118 141 -169T29 -221Q-38 -221 -38 -168ZM44 644Q44 670 64 688T115 707Q144
707 164 689T185 644Q185 619 165 600T115 581Q85 581 65 600T44 644Z" />
<glyph unicode="k" glyph-name="k" horiz-adv-x="492" d="M51 41V712Q51 730 68 741T114 752T161 741T180 712V293L368 470Q380 480 394 480Q415 480 436 460T457 418Q457 405 446 394L328 287L475 77Q482 67 482 56Q482 34 458 13T409 -8Q389 -8 377 9L242 208L180
151V41Q180 26 160 13T114 0Q87 0 69 12T51 41Z" />
<glyph unicode="l" glyph-name="l" horiz-adv-x="247" d="M59 41V712Q59 730 76 741T123 752Q150 752 169 741T188 712V41Q188 26 169 13T123 0Q96 0 78 12T59 41Z" />
<glyph unicode="m" glyph-name="m" horiz-adv-x="803" d="M50 41V435Q50 453 67 464T114 475Q138 475 154 464T171 435V405Q214 481 303 481Q345 481 378 454T428 381Q453 430 493 455T579 481Q651 481 704 426T757 278V41Q757 26 738 13T692 0Q667 0 648 13T628
41V278Q628 320 604 344T547 369Q515 369 492 345T468 279V40Q468 20 449 10T403 0Q378 0 359 10T339 40V278Q339 318 315 343T257 368Q225 368 202 344T179 278V41Q179 26 160 13T114 0Q87 0 69 12T50 41Z" />
<glyph unicode="n" glyph-name="n" horiz-adv-x="523" d="M50 41V435Q50 453 67 464T114 475Q138 475 154 464T171 435V405Q187 437 222 459T305 481Q374 481 425 421T477 278V41Q477 22 458 11T412 0Q387 0 368 11T348 41V278Q348 313 322 340T261 368Q228 368
204 343T179 278V41Q179 26 160 13T114 0Q87 0 69 12T50 41Z" />
<glyph unicode="o" glyph-name="o" horiz-adv-x="498" d="M32 196V278Q32 360 96 420T249 481Q336 481 401 421T466 278V196Q466 115 401 53T249 -9T97 53T32 196ZM161 196Q161 160 187 132T249 104Q284 104 310 132T337 196V278Q337 312 311 340T249 368Q213
368 187 341T161 278V196Z" />
<glyph unicode="p" glyph-name="p" horiz-adv-x="519" d="M51 -180V435Q51 453 68 464T112 475T155 464T172 435V405Q191 437 226 459T307 481Q382 481 434 422T486 278V196Q486 115 433 53T311 -9Q268 -9 232 14T180 70V-180Q180 -196 161 -208T114 -221T69 -209T51
-180ZM180 178Q180 158 207 131T268 104Q303 104 330 132T357 196V278Q357 313 330 340T266 368Q232 368 206 343T180 278V178Z" />
<glyph unicode="q" glyph-name="q" horiz-adv-x="520" d="M33 196V278Q33 362 85 421T213 481Q258 481 293 459T347 405V435Q347 453 364 464T407 475T451 464T469 435V-180Q469 -196 451 -208T405 -221T359 -209T340 -180V70Q324 37 288 14T208 -9Q139 -9 86
53T33 196ZM162 196Q162 161 189 133T251 104T313 131T340 178V278Q340 318 314 343T253 368Q216 368 189 341T162 278V196Z" />
<glyph unicode="r" glyph-name="r" horiz-adv-x="377" d="M50 41V435Q50 453 67 464T113 475Q138 475 154 464T171 435V394Q187 429 221 455T294 481H325Q343 481 357 464T372 425Q372 402 358 385T325 368H294Q248 368 214 327T179 220V41Q179 26 159 13T113
0Q86 0 68 12T50 41Z" />
<glyph unicode="s" glyph-name="s" horiz-adv-x="414" d="M23 77Q23 95 36 114T66 134Q77 134 93 123T137 101T201 89Q274 89 274 132Q274 156 250 170T191 193T121 214T62 256T37 332Q37 393 80 437T216 481Q278 481 326 462T375 416Q375 399 362 377T328 354Q320
354 285 368T218 383Q184 383 166 369T148 338T166 310T210 293T268 277T325 252T370 209T388 137Q388 69 340 30T204 -9Q129 -9 76 17T23 77Z" />
<glyph unicode="t" glyph-name="t" horiz-adv-x="347" d="M49 162V647Q49 664 69 675T113 687Q139 687 158 676T178 647V475H296Q311 475 320 461T329 428T320 395T296 381H178V162Q178 133 190 121T234 109H273Q299 109 313 93T328 55Q328 32 314 16T273 0H234Q49
0 49 162Z" />
<glyph unicode="u" glyph-name="u" horiz-adv-x="524" d="M45 194V434Q45 449 64 462T110 475Q135 475 154 462T174 434V194Q174 159 200 132T262 104T323 131T349 194V435Q349 451 368 463T414 475Q442 475 460 463T478 435V194Q478 113 414 52T262 -9T110 52T45 194Z" />
<glyph unicode="v" glyph-name="v" horiz-adv-x="481" d="M6 426Q6 447 35 464T92 481Q121 481 130 459L241 169L352 457Q361 481 389 481Q413 481 444 464T475 425Q475 416 471 408L300 12Q289 -11 241 -11T183 12L11 408Q6 415 6 426Z" />
<glyph unicode="w" glyph-name="w" horiz-adv-x="693" d="M7 427Q7 449 35 464T91 480Q120 480 128 459L228 175L303 422Q311 448 347 448T391 422L465 174L566 459Q574 480 603 480Q630 480 658 464T686 426Q686 415 682 408L528 12Q519 -11 477 -11Q433 -11
424 12L347 230L271 13Q262 -11 216 -11Q175 -11 166 13L12 408Q7 418 7 427Z" />
<glyph unicode="x" glyph-name="x" horiz-adv-x="470" d="M21 55Q21 67 29 77L147 242L37 395Q29 406 29 416Q29 438 59 459T115 481Q135 481 144 467L235 321L327 466Q337 481 357 481Q382 481 412 460T442 416Q442 408 434 395L323 241L442 77Q450 69 450 55Q450
34 421 13T366 -9Q346 -9 336 5L235 157L135 5Q125 -9 103 -9T51 12T21 55Z" />
<glyph unicode="y" glyph-name="y" horiz-adv-x="476" d="M6 -166Q6 -112 39 -112Q86 -112 131 -78T182 35L10 403Q6 413 6 420Q6 444 35 463T92 482Q122 482 129 460L249 161L346 460Q353 482 380 482Q406 482 437 463T468 418Q468 410 465 403L319 30L302 -14Q290
-48 285 -61T266 -101T242 -141T212 -172T174 -199T126 -214T65 -221Q36 -221 21 -210T6 -166Z" />
<glyph unicode="z" glyph-name="z" horiz-adv-x="437" d="M21 46Q21 72 43 98L240 370H67Q51 370 40 385T29 423T39 460T67 475H361Q379 475 391 464T403 431Q403 403 383 377L185 105H381Q397 105 408 90T419 52T409 15T381 0H65Q43 0 32 13T21 46Z" />
<glyph unicode="{" glyph-name="braceleft" horiz-adv-x="361" d="M21 365T21 386T30 418T51 431T71 439T81 459Q81 468 73 523T65 596Q65 663 130 715T275 768Q346 768 346 711Q346 690 336 674T306 658Q268 658 232 638T195 579Q195 566 203 510T211 443Q211
424 199 406T175 384Q187 381 199 364T211 326Q211 313 203 241T195 156Q195 121 231 106T306 90Q327 90 336 73T346 36Q346 -20 273 -20Q192 -20 129 26T65 141Q65 160 73 231T81 311Q81 324 72 331T51 340T31 354Z" />
<glyph unicode="|" glyph-name="bar" horiz-adv-x="241" d="M56 20V728Q56 745 74 756T120 768Q147 768 166 757T185 728V20Q185 5 166 -8T120 -21Q93 -21 75 -9T56 20Z" />
<glyph unicode="}" glyph-name="braceright" horiz-adv-x="361" d="M15 36Q15 56 24 73T56 90Q94 90 130 105T166 156Q166 168 158 240T150 326Q150 346 162 363T186 384Q175 388 163 406T150 443Q150 454 158 510T166 579Q166 617 130 637T56 658Q37 658 26 674T15
711Q15 735 32 751T87 768Q166 768 231 716T296 596Q296 578 288 523T280 459Q280 446 289 440T310 431T330 418T340 386T331 354T310 341T290 331T280 311Q280 302 288 231T296 141Q296 72 233 26T88 -20Q15 -20 15 36Z" />
<glyph unicode="~" glyph-name="asciitilde" horiz-adv-x="411" d="M35 246Q35 274 53 290T87 310T121 314Q150 314 193 300T263 285Q287 285 311 297T344 309Q361 309 369 294T377 267Q377 245 368 231T343 210T315 201T292 199Q257 199 215 213T150 228Q126
228 101 216T68 204Q51 204 43 219T35 246Z" />
</font>
</defs>
</svg>
