<?xml version="1.0" standalone="no"?>
<!DOCTYPE svg PUBLIC "-//W3C//DTD SVG 1.1//EN" "http://www.w3.org/Graphics/SVG/1.1/DTD/svg11.dtd" >
<svg xmlns="http://www.w3.org/2000/svg">
<metadata></metadata>
<defs>
<font id="helveticaneuelt_std_med_cnRg" horiz-adv-x="948" >
<font-face units-per-em="2048" ascent="1462" descent="-586" />
<missing-glyph horiz-adv-x="491" />
<glyph unicode="&#xfb01;" horiz-adv-x="1024" d="M20 938v164h154v102q0 151 69.5 213t211.5 62q71 0 120 -6v-170h-61q-62 0 -90.5 -25t-28.5 -80v-96h180v-164h-180v-938h-221v938h-154zM686 0v1102h221v-1102h-221zM686 1257v222h221v-222h-221z" />
<glyph unicode="&#xfb02;" horiz-adv-x="1024" d="M20 938v164h154v102q0 151 69.5 213t211.5 62q71 0 120 -6v-170h-61q-62 0 -90.5 -25t-28.5 -80v-96h180v-164h-180v-938h-221v938h-154zM686 0v1462h221v-1462h-221z" />
<glyph horiz-adv-x="2048" />
<glyph horiz-adv-x="2048" />
<glyph unicode="&#xd;" horiz-adv-x="2048" />
<glyph unicode=" "  horiz-adv-x="491" />
<glyph unicode="&#x09;" horiz-adv-x="491" />
<glyph unicode="&#xa0;" horiz-adv-x="491" />
<glyph unicode="!" horiz-adv-x="569" d="M168 0v233h233v-233h-233zM168 999v463h233v-463l-34 -606h-164z" />
<glyph unicode="&#x22;" horiz-adv-x="872" d="M156 877v585h176v-585h-176zM541 877v585h176v-585h-176z" />
<glyph unicode="#" horiz-adv-x="983" d="M-6 410v151h199l40 299h-180v152h201l57 409h170l-57 -409h217l57 409h170l-57 -409h178v-152h-198l-41 -299h180v-151h-201l-57 -410h-170l57 410h-217l-57 -410h-170l57 410h-178zM362 561h218l41 299h-218z" />
<glyph unicode="$" horiz-adv-x="983" d="M33 406v32h233v-32q0 -117 40.5 -179.5t135.5 -79.5v476l-84 30q-162 59 -233.5 150.5t-71.5 245.5q0 175 111.5 288t277.5 113v143h90v-143q89 0 159.5 -25.5t112.5 -65t69.5 -91.5t38 -100t10.5 -95v-29h-234v29q0 185 -156 201v-453l130 -45q151 -54 219.5 -143 t68.5 -234q0 -206 -110 -311.5t-308 -116.5v-176h-90v176q-100 5 -175.5 34t-119 70.5t-70.5 100t-35.5 112.5t-8.5 118zM287 1069q0 -73 36.5 -125t118.5 -88v418q-68 -6 -111.5 -59t-43.5 -146zM532 147q88 13 136.5 72t48.5 133q0 99 -44.5 153t-140.5 83v-441z" />
<glyph unicode="%" horiz-adv-x="1554" d="M74 1057q0 111 20.5 189.5t59.5 122t87.5 62.5t112.5 19t113 -19t88 -62.5t59.5 -122t20.5 -189.5t-20.5 -189.5t-59.5 -122t-88 -62.5t-113 -19t-112.5 19t-87.5 62.5t-59.5 122t-20.5 189.5zM250 1057q0 -148 21.5 -207t82.5 -59t83 59.5t22 206.5t-22 206.5t-83 59.5 t-82.5 -59t-21.5 -207zM369 -29l649 1479h158l-654 -1479h-153zM920 365q0 111 20.5 189.5t59.5 122t87.5 62.5t112.5 19t113 -19t88 -62.5t59.5 -122t20.5 -189.5t-20.5 -189.5t-59.5 -122.5t-88 -63t-113 -19t-112.5 19t-87.5 63t-59.5 122.5t-20.5 189.5zM1096 365 q0 -148 21.5 -207.5t82.5 -59.5t83 60t22 207t-22 206.5t-83 59.5t-82.5 -59t-21.5 -207z" />
<glyph unicode="&#x26;" horiz-adv-x="1175" d="M43 375q0 229 205 383l92 69l-55 82q-95 149 -95 240q0 151 98 232t251 81q37 0 75.5 -7t84 -27.5t80 -52t58 -86t23.5 -124.5q0 -95 -46.5 -169t-131.5 -138l-76 -55l256 -361q26 43 42 104t16 120v28h184v-18q0 -79 -29 -191t-96 -206l199 -279h-248l-88 125 q-80 -73 -167 -113.5t-202 -40.5q-97 0 -174 27.5t-124 70t-77.5 98t-42.5 107t-12 101.5zM264 391q0 -98 73 -165.5t175 -67.5q123 0 227 112l-297 418l-43 -37q-135 -109 -135 -260zM387 1184q0 -88 86 -203l33 -43l51 47q32 30 52 53.5t37.5 61t17.5 74.5 q0 64 -37.5 100.5t-102.5 36.5q-53 0 -95 -31t-42 -96z" />
<glyph unicode="'" horiz-adv-x="491" d="M158 877v585h176v-585h-176z" />
<glyph unicode="(" horiz-adv-x="530" d="M76 543q0 265 84.5 505t216.5 414h153q-233 -389 -233 -919q0 -247 58 -492.5t175 -427.5h-157q-131 172 -214 413t-83 507z" />
<glyph unicode=")" horiz-adv-x="530" d="M0 -377q233 389 233 920q0 246 -58 491t-175 428h158q131 -172 214 -412.5t83 -506.5q0 -265 -84.5 -506t-216.5 -414h-154z" />
<glyph unicode="*" horiz-adv-x="757" d="M33 1161l47 135l231 -90v256h140v-254l227 88l47 -135l-233 -67l159 -211l-114 -88l-156 215l-152 -215l-114 88l155 211z" />
<glyph unicode="+" horiz-adv-x="1228" d="M96 430v176h430v430h176v-430h431v-176h-431v-430h-176v430h-430z" />
<glyph unicode="," horiz-adv-x="491" d="M129 0v270h233v-270q0 -131 -52.5 -210.5t-180.5 -104.5v118q48 12 75 55.5t27 110.5v31h-102z" />
<glyph unicode="-" horiz-adv-x="720" d="M92 487v209h537v-209h-537z" />
<glyph unicode="." horiz-adv-x="491" d="M129 0v270h233v-270h-233z" />
<glyph unicode="/" horiz-adv-x="606" d="M-20 -29l464 1520h183l-465 -1520h-182z" />
<glyph unicode="0" horiz-adv-x="983" d="M57 711q0 167 19 293t53.5 210.5t89 137.5t121 75.5t152.5 22.5t152.5 -22.5t120.5 -75.5t89 -137.5t53.5 -210.5t18.5 -293t-18.5 -293t-53.5 -211t-89 -137.5t-120.5 -75.5t-152.5 -23t-152.5 23t-121 75.5t-89 137.5t-53.5 211t-19 293zM291 711q0 -324 42 -450 t159 -126t158.5 125.5t41.5 450.5q0 324 -41.5 449.5t-158.5 125.5q-118 0 -159.5 -125.5t-41.5 -449.5z" />
<glyph unicode="1" horiz-adv-x="983" d="M123 1053v151h22q294 0 342 217v29h170v-1450h-233v1053h-301z" />
<glyph unicode="2" horiz-adv-x="983" d="M68 0q0 128 33.5 233t87 176.5t118.5 132.5t130 115.5t118.5 110.5t87 132t33.5 167q0 97 -44.5 158t-135.5 61q-50 0 -87.5 -18t-59 -46t-35 -69.5t-17.5 -81t-4 -88.5h-221q0 226 102 346.5t326 120.5q108 0 188.5 -30.5t128 -84.5t70 -122t22.5 -150q0 -98 -26 -180 t-70 -141t-97.5 -110t-112.5 -98t-111 -94t-97 -109.5t-67 -133.5h587v-197h-847z" />
<glyph unicode="3" horiz-adv-x="983" d="M63 403h222q0 -52 9 -96t30 -84.5t61.5 -64t97.5 -23.5q103 0 153 72t50 188q0 138 -53.5 204.5t-181.5 66.5h-91v163h84q209 0 209 248q0 87 -41.5 148t-126.5 61q-52 0 -89 -20.5t-57 -57.5t-29 -80.5t-9 -95.5h-221q0 204 106 311t312 107q56 0 107.5 -10.5t104 -37 t91 -67t62.5 -106.5t24 -150q0 -117 -64 -208.5t-168 -108.5v-6q116 -9 190.5 -98.5t74.5 -237.5q0 -218 -111 -333.5t-332 -115.5q-414 0 -414 432z" />
<glyph unicode="4" horiz-adv-x="983" d="M43 326v200l502 924h237v-938h158v-186h-158v-326h-221v326h-518zM231 512h330v598h-4z" />
<glyph unicode="5" horiz-adv-x="983" d="M66 360v31h221v-39q0 -88 48.5 -146.5t141.5 -58.5q58 0 100 27t64.5 75t32.5 104t10 124q0 309 -195 309q-73 0 -124 -36t-66 -97l-207 9l72 759h698v-186h-524l-47 -381l4 -4q46 53 110 83t134 30q88 0 155.5 -29t109 -75.5t68 -111t36.5 -128.5t10 -136 q0 -112 -26.5 -203.5t-79.5 -161.5t-140 -108.5t-201 -38.5q-195 0 -300 99.5t-105 289.5z" />
<glyph unicode="6" horiz-adv-x="983" d="M51 666q0 140 11 249.5t42 213t81.5 171.5t133.5 109t195 41q391 0 391 -352h-233q0 74 -38 131t-118 57q-45 0 -81.5 -17.5t-60 -44t-41 -69.5t-26.5 -83t-14.5 -95.5t-6.5 -96t-1 -94.5l6 -4q84 154 282 154q157 0 258 -112t101 -320q0 -257 -110 -395t-335 -138 q-90 0 -159.5 22t-117 66.5t-79 102.5t-49 140t-24.5 167.5t-7 196.5zM305 436q0 -133 51.5 -217t149.5 -84q52 0 90 24t60 68t32 98t10 121q0 314 -192 314q-61 0 -102.5 -25t-62 -73t-28.5 -101t-8 -125z" />
<glyph unicode="7" horiz-adv-x="983" d="M61 1212v209h861v-184q-174 -228 -303.5 -572t-153.5 -665h-246q24 312 159.5 645t317.5 567h-635z" />
<glyph unicode="8" horiz-adv-x="983" d="M53 406q0 155 67.5 247t180.5 115v4q-201 69 -201 313q0 169 105.5 267t286.5 98t286 -98t105 -267q0 -244 -201 -313v-4q113 -23 180.5 -115t67.5 -247q0 -435 -438 -435q-439 0 -439 435zM287 410q0 -61 9.5 -108t31.5 -86t63.5 -60t100.5 -21t100.5 21t63.5 60.5 t31 86t9 107.5q0 129 -45 201.5t-159 72.5q-60 0 -101 -20.5t-63 -59.5t-31.5 -85.5t-9.5 -108.5zM309 1069q0 -221 183 -221q182 0 182 221q0 217 -182 217q-183 0 -183 -217z" />
<glyph unicode="9" horiz-adv-x="983" d="M51 918q0 257 110 394.5t335 137.5q78 0 140 -17t107 -47.5t78.5 -78t54.5 -103t33.5 -129.5t17.5 -149.5t5 -169.5q0 -140 -11 -249.5t-42 -213.5t-81.5 -172t-133.5 -109t-195 -41q-391 0 -391 353h233q0 -46 13.5 -86.5t50.5 -71.5t92 -31q45 0 81.5 17.5t60 44 t41 69.5t26.5 83t14.5 95.5t6.5 96t1 94.5l-6 4q-84 -154 -282 -154q-157 0 -258 112.5t-101 320.5zM285 975q0 -313 192 -313q61 0 102.5 25t62 72.5t28.5 100.5t8 125q0 133 -51.5 217t-149.5 84q-52 0 -90 -24t-60 -68t-32 -98t-10 -121z" />
<glyph unicode=":" horiz-adv-x="491" d="M129 0v270h233v-270h-233zM129 778v271h233v-271h-233z" />
<glyph unicode=";" horiz-adv-x="491" d="M129 0v270h233v-270q0 -131 -52.5 -210.5t-180.5 -104.5v118q48 12 75 55.5t27 110.5v31h-102zM129 778v271h233v-271h-233z" />
<glyph unicode="&#x3c;" horiz-adv-x="1228" d="M96 442v152l1037 463v-176l-828 -363l828 -362v-176z" />
<glyph unicode="=" horiz-adv-x="1228" d="M96 217v176h1037v-176h-1037zM96 643v176h1037v-176h-1037z" />
<glyph unicode="&#x3e;" horiz-adv-x="1228" d="M96 -20v176l828 362l-828 363v176l1037 -463v-152z" />
<glyph unicode="?" d="M72 1026q0 100 22 182t68.5 146.5t126 100.5t186.5 36q191 0 296.5 -102.5t105.5 -290.5q0 -71 -18 -132.5t-46 -106t-62.5 -84t-69 -73.5t-62.5 -67.5t-46 -73t-18 -82.5v-86h-209v123q0 60 16.5 109.5t42.5 84t57.5 66t63.5 63t58 66t42.5 84t16.5 109.5q0 46 -8.5 83 t-26.5 68t-51.5 48.5t-79.5 17.5q-99 0 -141.5 -75.5t-42.5 -213.5h-221zM332 0v233h233v-233h-233z" />
<glyph unicode="@" horiz-adv-x="1638" d="M59 733q0 159 57.5 298t160 241t251.5 160.5t324 58.5q154 0 288 -46t231 -127t152.5 -198t55.5 -254q0 -118 -35 -218t-90.5 -166t-125.5 -112.5t-138.5 -67.5t-130.5 -21q-74 0 -110 32.5t-34 87.5h-4q-109 -120 -254 -120q-121 0 -202.5 91t-81.5 240q0 142 64 269.5 t169.5 203.5t222.5 76q160 0 236 -157l39 120h145l-153 -553q-2 -10 -9 -32t-10.5 -38.5t-3.5 -29.5q0 -23 15 -34t53 -11q90 0 171 125t81 289q0 141 -76 254t-199 173t-266 60q-130 0 -244.5 -49.5t-193 -132t-123.5 -192t-45 -228.5q0 -131 48 -243t129.5 -187 t188.5 -117.5t224 -42.5q159 0 288.5 47.5t216.5 132.5h172q-86 -156 -261 -250t-416 -94q-163 0 -304.5 52.5t-246.5 148.5t-165.5 240.5t-60.5 320.5zM549 639q0 -97 47.5 -152t142.5 -55q67 0 130 64.5t99 152.5t36 164q0 197 -166 197q-81 0 -149 -59t-104 -143.5 t-36 -168.5z" />
<glyph unicode="A" horiz-adv-x="1062" d="M-18 0l415 1462h299l385 -1462h-243l-90 358h-429l-94 -358h-243zM362 545h347l-168 721h-4z" />
<glyph unicode="B" horiz-adv-x="1099" d="M121 0v1462h473q84 0 153.5 -19.5t124 -60t85 -110.5t30.5 -164q0 -265 -215 -332v-4q128 -23 195 -109.5t67 -263.5q0 -183 -122 -291t-328 -108h-463zM354 176h232q104 0 159.5 66t55.5 192q0 116 -63.5 182t-166.5 66h-217v-506zM354 846h185q103 0 159 63t56 168 q0 63 -17.5 105.5t-52 64.5t-73.5 30.5t-93 8.5h-164v-440z" />
<glyph unicode="C" horiz-adv-x="1062" d="M86 731q0 202 23.5 340t79.5 234.5t149.5 141t232.5 44.5q86 0 155 -18t114.5 -46t78.5 -69.5t50.5 -80.5t27.5 -88t12.5 -83t2.5 -74v-26h-234v24q0 56 -9.5 103.5t-31.5 91t-65 67.5q-40 23 -94 23h-9q-54 0 -92.5 -15t-69.5 -52.5t-49.5 -103.5t-28.5 -166t-10 -241 q0 -233 27.5 -363t80 -178.5t142.5 -48.5q217 0 217 353v24h234v-30q0 -83 -13.5 -156t-46.5 -141.5t-83.5 -117.5t-129 -78.5t-178.5 -29.5q-138 0 -231 44.5t-149 141t-79.5 234.5t-23.5 340z" />
<glyph unicode="D" horiz-adv-x="1138" d="M121 0v1462h416q76 0 138.5 -11t111.5 -31t87.5 -52t66.5 -68.5t48 -86.5t32.5 -100t19.5 -115.5t9.5 -127t2.5 -139.5t-2.5 -139.5t-9.5 -127t-19.5 -115.5t-32.5 -100t-48 -86.5t-66.5 -68.5t-87.5 -52t-111.5 -31t-138.5 -11h-416zM354 176h193q100 0 157.5 49.5 t86 170.5t28.5 335q0 209 -26 328.5t-84.5 173t-161.5 53.5h-193v-1110z" />
<glyph unicode="E" horiz-adv-x="985" d="M121 0v1462h790v-196h-557v-406h525v-196h-525v-467h574v-197h-807z" />
<glyph unicode="F" d="M121 0v1462h780v-196h-547v-406h514v-196h-514v-664h-233z" />
<glyph unicode="G" horiz-adv-x="1099" d="M86 731q0 393 116 576.5t369 183.5q104 0 184.5 -32t125 -78t73 -107t37 -109.5t8.5 -95.5v-27h-221v35q0 44 -10 83.5t-32 75.5t-64 57.5t-99 21.5q-66 0 -110.5 -25t-78 -88.5t-49.5 -177.5t-16 -287q0 -231 27 -362t76.5 -179.5t132.5 -48.5h3q131 0 186 103t55 344 h-246v176h467v-770h-176v170h-4q-49 -104 -121.5 -151.5t-198.5 -47.5q-235 0 -334.5 180.5t-99.5 579.5z" />
<glyph unicode="H" horiz-adv-x="1138" d="M121 0v1462h233v-585h430v585h234v-1462h-234v680h-430v-680h-233z" />
<glyph unicode="I" horiz-adv-x="454" d="M111 0v1462h233v-1462h-233z" />
<glyph unicode="J" horiz-adv-x="909" d="M33 346v94h221v-71q0 -104 33 -162.5t123 -59.5q25 0 46 5.5t36.5 13.5t27 24.5t19 29t13 37t8 40t4 46t1.5 46v49.5v1024h234v-1059q0 -230 -103 -332q-102 -100 -283 -100h-7q-87 1 -153 22t-106.5 55t-66.5 83.5t-36 101t-11 113.5z" />
<glyph unicode="K" horiz-adv-x="1062" d="M121 0v1462h233v-637h4l443 637h256l-422 -616l467 -846h-264l-355 657l-129 -184v-473h-233z" />
<glyph unicode="L" horiz-adv-x="909" d="M94 0v1462h234v-1265h565v-197h-799z" />
<glyph unicode="M" horiz-adv-x="1478" d="M121 0v1462h364l258 -1083h5l253 1083h357v-1462h-221v1217h-4l-295 -1217h-197l-295 1217h-4v-1217h-221z" />
<glyph unicode="N" horiz-adv-x="1175" d="M121 0v1462h285l423 -1089h5v1089h221v-1462h-285l-424 1118h-4v-1118h-221z" />
<glyph unicode="O" horiz-adv-x="1138" d="M86 731q0 393 116 576.5t367 183.5t367.5 -183.5t116.5 -576.5t-116.5 -576.5t-367.5 -183.5t-367 183.5t-116 576.5zM319 737q0 -147 13 -254.5t34.5 -171t55 -101.5t68 -50.5t79.5 -12.5t79.5 12.5t68 50.5t55 101.5t34.5 171t13 254.5q0 144 -13 249t-34.5 167.5 t-55 99.5t-68 49.5t-79.5 12.5t-79.5 -12.5t-68 -49.5t-55 -99.5t-34.5 -167.5t-13 -249z" />
<glyph unicode="P" horiz-adv-x="1024" d="M121 0v1462h463q203 0 303 -114.5t100 -311.5q0 -199 -112.5 -315.5t-315.5 -116.5h-205v-604h-233zM354 780h166q103 0 168.5 61t65.5 191q0 125 -58 189.5t-192 64.5h-150v-506z" />
<glyph unicode="Q" horiz-adv-x="1138" d="M86 731q0 393 116 576.5t367 183.5t367.5 -183.5t116.5 -576.5q0 -195 -31.5 -345.5t-83.5 -233.5l149 -158l-139 -125l-149 151q-83 -49 -230 -49q-251 0 -367 183.5t-116 576.5zM319 737q0 -147 13 -254.5t34.5 -171t55 -101.5t68 -50.5t79.5 -12.5q43 0 84 15 l-110 108l133 133l96 -96q47 125 47 430q0 144 -13 249t-34.5 167.5t-55 99.5t-68 49.5t-79.5 12.5t-79.5 -12.5t-68 -49.5t-55 -99.5t-34.5 -167.5t-13 -249z" />
<glyph unicode="R" horiz-adv-x="1099" d="M121 0v1462h516q166 0 268.5 -91.5t102.5 -285.5q0 -145 -63.5 -242.5t-180.5 -115.5v-4q112 -11 167.5 -80t61.5 -219q5 -227 8 -297q5 -85 70 -127h-264q-29 34 -39 129q-4 39 -5.5 82.5t-2.5 100t-2 94.5q-3 123 -49.5 176t-163.5 53h-191v-635h-233zM354 811h187 q111 0 172 63.5t61 174.5q0 119 -53.5 178t-167.5 59h-199v-475z" />
<glyph unicode="S" horiz-adv-x="1062" d="M68 418v35h233v-37q0 -269 240 -269q105 0 163 62.5t58 150.5q0 110 -52 170t-157 91l-160 55q-162 62 -233.5 154t-71.5 247q0 197 123 305.5t332 108.5q107 0 186.5 -26.5t121.5 -64.5t67 -94t31.5 -101t6.5 -99v-33h-233v31q0 211 -205 211q-84 0 -140 -51t-56 -160 q0 -92 50 -147.5t169 -100.5l157 -57q156 -56 226.5 -146.5t70.5 -240.5q0 -226 -126.5 -333.5t-356.5 -107.5q-104 0 -184.5 27.5t-128.5 70.5t-78.5 103.5t-41.5 119.5t-11 126z" />
<glyph unicode="T" d="M12 1266v196h924v-196h-342v-1266h-234v1266h-348z" />
<glyph unicode="U" horiz-adv-x="1099" d="M102 432v1030h234v-1048q0 -267 215 -267q213 0 213 267v1048h233v-1030q0 -244 -113.5 -352.5t-332.5 -108.5q-220 0 -334.5 108.5t-114.5 352.5z" />
<glyph unicode="V" horiz-adv-x="985" d="M-12 1462h248l247 -1167h4l263 1167h247l-368 -1462h-297z" />
<glyph unicode="W" horiz-adv-x="1517" d="M12 1462h236l192 -1136h4l193 1136h246l196 -1143h4l191 1143h231l-291 -1462h-270l-188 1102h-4l-187 -1102h-270z" />
<glyph unicode="X" horiz-adv-x="1024" d="M0 0l385 743l-352 719h258l233 -485l230 485h252l-355 -719l373 -743h-258l-254 528l-260 -528h-252z" />
<glyph unicode="Y" horiz-adv-x="985" d="M-8 1462h260l246 -631l252 631h243l-391 -891v-571h-233v571z" />
<glyph unicode="Z" d="M37 0v184l612 1082h-575v196h831v-196l-612 -1069h618v-197h-874z" />
<glyph unicode="[" horiz-adv-x="569" d="M158 -377v1839h415v-164h-206v-1511h206v-164h-415z" />
<glyph unicode="\" horiz-adv-x="606" d="M-20 1491h182l465 -1520h-183z" />
<glyph unicode="]" horiz-adv-x="569" d="M-4 -213h207v1511h-207v164h416v-1839h-416v164z" />
<glyph unicode="^" horiz-adv-x="1228" d="M117 573l418 848h155l422 -848h-176l-322 672l-321 -672h-176z" />
<glyph unicode="_" horiz-adv-x="1024" d="M0 -154h1024v-102h-1024v102z" />
<glyph unicode="`" horiz-adv-x="454" d="M-29 1540h246l123 -295h-152z" />
<glyph unicode="a" d="M63 281q0 72 13 126t33 88t56 60t68.5 40.5t85.5 31.5l173 47q69 20 99 47.5t30 93.5q0 80 -34.5 122t-117.5 42q-43 0 -74 -12t-49 -31t-28.5 -48t-13.5 -56.5t-3 -63.5h-209q0 183 88 272.5t299 89.5q102 0 178 -26t124 -88t48 -156v-631q0 -31 17 -54t41 -23 q25 0 37 6v-144q-58 -26 -109 -26q-80 0 -131 35t-55 110h-4q-88 -162 -275 -162q-136 0 -211.5 78t-75.5 232zM285 301q0 -73 35.5 -119.5t101.5 -46.5q98 0 148.5 69t50.5 193v185q-33 -26 -132 -61t-114 -42q-90 -44 -90 -178z" />
<glyph unicode="b" horiz-adv-x="985" d="M106 0v1462h222v-489h4q31 74 96 115.5t154 41.5q56 0 100.5 -11.5t91 -47t77.5 -95.5t51 -164.5t20 -246.5q0 -293 -86.5 -443.5t-274.5 -150.5q-56 0 -99.5 14.5t-71 41t-43 51.5t-28.5 57h-4v-135h-209zM315 539q0 -75 5 -132t17.5 -107.5t33 -83t53.5 -51t78 -18.5 q56 0 93.5 27.5t57.5 84t27.5 126t7.5 170.5q0 222 -38.5 310.5t-133.5 88.5q-62 0 -102.5 -26.5t-62 -83.5t-29 -127.5t-7.5 -177.5z" />
<glyph unicode="c" horiz-adv-x="909" d="M63 551q0 107 12 192t41 159t75 123t117 77t165 28h9q64 0 116 -14q56 -14 94.5 -38t68 -58.5t46.5 -70t27.5 -76t14 -73t3.5 -65.5h-221q0 43 -7 80.5t-24 74.5q-16 38 -48 58q-31 20 -75 19h-4q-47 0 -81 -20.5t-54.5 -55t-32.5 -89.5t-16 -113.5t-4 -137.5t4 -137.5 t16 -113.5t32.5 -89.5t54.5 -55t81 -20.5h4q164 0 164 266h209q-11 -211 -97 -320.5t-280 -109.5q-94 0 -165 28t-117 77t-75 123.5t-41 159.5t-12 192z" />
<glyph unicode="d" horiz-adv-x="985" d="M63 565q0 142 20 246.5t51 164.5t77.5 95.5t91 47t100.5 11.5q89 0 154 -41.5t96 -115.5h4v489h222v-1462h-209v135h-4q-13 -32 -28.5 -57t-43 -51.5t-71 -41t-99.5 -14.5q-188 0 -274.5 150.5t-86.5 443.5zM297 555q0 -101 7.5 -170.5t27.5 -126t57.5 -84t93.5 -27.5 q45 0 78 18.5t53.5 51t33 83t17.5 107.5t5 132q0 107 -7.5 177.5t-29 127.5t-62 83.5t-102.5 26.5q-95 0 -133.5 -88.5t-38.5 -310.5z" />
<glyph unicode="e" d="M76 535q0 67 4.5 124.5t16 119.5t30.5 112t50.5 95.5t73.5 76.5t101 49t131 18q113 0 190 -32.5t120 -99t61 -152.5t18 -207v-117h-575v-63q0 -52 3 -92.5t14 -88.5t30 -80t54 -53.5t83 -21.5q45 0 79 20t51.5 47.5t28.5 64t14 63t3 51.5h209q0 -184 -103.5 -291 t-283.5 -107q-44 0 -79.5 4.5t-78.5 18.5t-76.5 38t-66 67t-54 101t-35 143.5t-13.5 191.5zM297 674h354v59q0 113 -40.5 179.5t-129.5 66.5q-67 0 -110 -42.5t-58.5 -102.5t-15.5 -138v-22z" />
<glyph unicode="f" horiz-adv-x="569" d="M20 938v164h154v102q0 151 69.5 213t211.5 62q71 0 120 -6v-170h-61q-62 0 -90.5 -25t-28.5 -80v-96h180v-164h-180v-938h-221v938h-154z" />
<glyph unicode="g" horiz-adv-x="985" d="M90 563q0 58 3 108t12 110t24 107.5t42 94t62.5 78t88.5 50.5t118 19q92 0 159 -49t83 -114h4v135h209v-1049q0 -209 -98.5 -319.5t-313.5 -110.5q-93 0 -163 21.5t-107 51.5t-59.5 72t-28.5 73.5t-6 64.5h209q0 -53 44 -92t115 -39q86 0 136.5 56t50.5 151v178h-4 q-30 -70 -99.5 -111t-150.5 -41q-330 0 -330 555zM311 586q0 -57 1.5 -96t6.5 -91t16.5 -85.5t30 -66t48 -48t69.5 -15.5q42 0 74 16.5t52 47t33.5 66t20 83.5t9 88t2.5 90t-2.5 91t-9 86.5t-19 80t-31.5 63t-48 43.5t-66 15q-58 0 -96.5 -27.5t-57.5 -81t-26 -114 t-7 -145.5z" />
<glyph unicode="h" horiz-adv-x="985" d="M106 0v1462h222v-479l6 -4q46 71 116 111t154 40q133 0 204 -69.5t71 -229.5v-831h-222v756q0 107 -35 152.5t-118 45.5q-73 0 -124.5 -56.5t-51.5 -158.5v-739h-222z" />
<glyph unicode="i" horiz-adv-x="454" d="M117 0v1102h221v-1102h-221zM117 1257v222h221v-222h-221z" />
<glyph unicode="j" horiz-adv-x="454" d="M-49 -201h51q64 0 89.5 32t25.5 118v1153h221v-1174q0 -167 -70 -236t-221 -69q-47 0 -96 6v170zM117 1257v222h221v-222h-221z" />
<glyph unicode="k" d="M106 0v1462h222v-821h4l334 461l256 2l-332 -426l375 -678h-242l-270 502l-125 -152v-350h-222z" />
<glyph unicode="l" horiz-adv-x="454" d="M117 0v1462h221v-1462h-221z" />
<glyph unicode="m" horiz-adv-x="1515" d="M117 0v1102h209v-129h6q41 73 113 115t151 42q110 0 169 -44.5t87 -122.5q49 83 115.5 125t162.5 42q125 0 197 -70t72 -222v-838h-221v756q0 105 -32.5 151.5t-101.5 46.5q-73 0 -124.5 -56.5t-51.5 -158.5v-739h-221v756q0 106 -32.5 152t-102.5 46q-71 0 -122.5 -56.5 t-51.5 -158.5v-739h-221z" />
<glyph unicode="n" horiz-adv-x="985" d="M106 0v1102h209v-129h7q41 74 115.5 115.5t166.5 41.5q133 0 204 -69.5t71 -229.5v-831h-222v756q0 107 -35 152.5t-118 45.5q-73 0 -124.5 -56.5t-51.5 -158.5v-739h-222z" />
<glyph unicode="o" d="M63 551q0 107 12 192t41 159t75 123t117 77t165 28q95 0 166.5 -28t118 -77t75 -123t40.5 -159t12 -192q0 -580 -412 -580q-410 0 -410 580zM285 551q0 -90 4 -152t16 -115.5t33 -84t54 -47.5t81 -17t82 17t55.5 47.5t33 84t16 115.5t4.5 152q0 100 -7.5 169.5t-27 128.5 t-58.5 88.5t-98 29.5q-47 0 -81 -20.5t-54.5 -55t-32.5 -89.5t-16 -113.5t-4 -137.5z" />
<glyph unicode="p" horiz-adv-x="985" d="M106 -360v1462h209v-135h4q75 163 248 163q184 0 269.5 -150.5t85.5 -442.5q0 -133 -21 -236t-54.5 -164t-79.5 -99.5t-90.5 -52.5t-94.5 -14q-88 0 -153.5 42t-96.5 116h-4v-489h-222zM315 563q0 -215 39.5 -315.5t149.5 -100.5q98 0 141 88.5t43 311.5 q0 101 -7.5 170.5t-27.5 125.5t-57.5 83.5t-93.5 27.5t-93.5 -27t-57.5 -81t-28 -121.5t-8 -161.5z" />
<glyph unicode="q" horiz-adv-x="985" d="M63 537q0 293 86.5 443t274.5 150q56 0 99.5 -14.5t71 -41t43 -51t28.5 -56.5h4v135h209v-1462h-222v489h-4q-31 -74 -96.5 -116t-155.5 -42q-55 0 -101.5 15.5t-91.5 55.5t-76 102.5t-50 162.5t-19 230zM297 547q0 -216 42 -308t130 -92q62 0 102.5 26.5t62 84t29 128 t7.5 177.5q0 94 -8 161.5t-28 121.5t-57.5 81t-93.5 27t-93.5 -27.5t-57.5 -83.5t-27.5 -125.5t-7.5 -170.5z" />
<glyph unicode="r" horiz-adv-x="645" d="M106 0v1102h222v-172h4q80 200 256 200q25 0 53 -8v-225q-48 12 -92 12q-42 0 -77.5 -11t-69.5 -36.5t-54 -77.5t-20 -125v-659h-222z" />
<glyph unicode="s" horiz-adv-x="872" d="M57 313v41h197v-35q0 -99 40 -147.5t132 -48.5q89 0 134.5 42.5t45.5 119.5q0 119 -121 161l-180 64q-126 43 -180.5 115t-54.5 202q0 151 100 227t276 76q81 0 143.5 -18.5t99.5 -47.5t61 -70t32.5 -80.5t8.5 -84.5v-49h-209v29q0 170 -146 170q-71 0 -114 -35t-43 -108 q0 -64 33 -97.5t122 -64.5l141 -49q125 -42 182.5 -116t57.5 -202q0 -86 -30 -151.5t-84 -105.5t-124.5 -59.5t-156.5 -19.5q-200 0 -281.5 86t-81.5 256z" />
<glyph unicode="t" horiz-adv-x="569" d="M8 938v164h152v313h221v-313h180v-164h-180v-657q0 -65 21.5 -91t78.5 -26q50 0 80 6v-164q-71 -18 -178 -18q-60 0 -98.5 10t-68.5 38.5t-43 81.5t-13 136v684h-152z" />
<glyph unicode="u" horiz-adv-x="985" d="M106 332v770h222v-791q0 -89 37.5 -126.5t111.5 -37.5q75 0 127.5 48.5t52.5 136.5v770h222v-1102h-209v129h-6q-41 -74 -116 -116t-167 -42q-65 0 -113 17t-85.5 56.5t-57 111.5t-19.5 176z" />
<glyph unicode="v" horiz-adv-x="872" d="M14 1102h238l192 -869h5l174 869h235l-291 -1102h-258z" />
<glyph unicode="w" horiz-adv-x="1402" d="M31 1102h229l154 -869h4l164 869h249l164 -869h4l152 869h221l-252 -1102h-248l-172 856h-4l-157 -856h-258z" />
<glyph unicode="x" horiz-adv-x="872" d="M6 0l301 571l-284 531h241l172 -365l180 365h238l-287 -531l299 -571h-239l-193 408l-192 -408h-236z" />
<glyph unicode="y" horiz-adv-x="872" d="M16 1102h238l190 -828h5l176 828h231l-303 -1143q-22 -77 -42 -130t-45.5 -92t-51.5 -61t-65 -34.5t-79 -15.5q-32 -3 -76 -3h-26q-30 0 -88 8v176q50 -8 72 -8q61 0 96 18t53 68l29 90z" />
<glyph unicode="z" horiz-adv-x="833" d="M51 0v172l481 743h-452v187h702v-182l-463 -734h463v-186h-731z" />
<glyph unicode="{" horiz-adv-x="569" d="M14 475v135q67 3 116.5 64.5t49.5 144.5v375q0 124 67.5 196t160.5 72h147v-127h-68q-56 0 -77 -35.5t-21 -105.5v-375q0 -55 -15 -101.5t-36.5 -75.5t-48.5 -51t-48.5 -32t-39.5 -14v-4q24 -6 52 -22t60.5 -46.5t54 -84.5t21.5 -122v-375q0 -70 21 -105.5t77 -35.5h68 v-127h-147q-93 0 -160.5 72t-67.5 196v375q0 83 -49.5 144.5t-116.5 64.5z" />
<glyph unicode="|" horiz-adv-x="454" d="M139 -29v1520h176v-1520h-176z" />
<glyph unicode="}" horiz-adv-x="569" d="M14 -250h68q56 0 77 35.5t21 105.5v375q0 55 15 101.5t36.5 75.5t49 51t49 32.5t39.5 14.5v4q-18 4 -39.5 14t-49 32t-49 51t-36.5 75.5t-15 101.5v375q0 70 -21 105.5t-77 35.5h-68v127h148q93 0 160 -72t67 -196v-375q0 -83 49.5 -144.5t116.5 -64.5v-135 q-67 -3 -116.5 -64.5t-49.5 -144.5v-375q0 -124 -67 -196t-160 -72h-148v127z" />
<glyph unicode="~" horiz-adv-x="1228" d="M141 502q43 86 111.5 132t144.5 46q82 0 238 -76q54 -26 78.5 -37t61 -23t59.5 -12q92 0 180 158l73 -155q-48 -83 -115.5 -131t-140.5 -48q-81 0 -237 76q-54 26 -78.5 37t-61 23t-59.5 12q-92 0 -180 -158z" />
<glyph unicode="&#xa1;" horiz-adv-x="569" d="M168 102l35 607h164l34 -607v-462h-233v462zM168 868v234h233v-234h-233z" />
<glyph unicode="&#xa2;" horiz-adv-x="983" d="M98 551q0 128 17.5 225t57.5 176t111.5 124.5t174.5 53.5v154h90v-154q84 -5 147 -36t98 -72.5t56.5 -96.5t28 -99.5t6.5 -90.5h-221q0 38 -5 72.5t-17 69t-36 59t-57 31.5v-832q127 36 127 266h209q-5 -97 -24.5 -170t-57.5 -131t-101.5 -90.5t-152.5 -38.5v-180h-90 v180q-83 7 -145.5 38.5t-103 81.5t-66 122.5t-36 154.5t-10.5 183zM319 551q0 -181 29 -284t111 -132v832q-81 -24 -110.5 -129t-29.5 -287z" />
<glyph unicode="&#xa3;" horiz-adv-x="983" d="M25 145l36 27q38 27 71.5 58.5t67.5 74.5t54 96.5t20 108.5q0 57 -36 135h-201v139h141l-35 72q-67 125 -67 227q0 55 16 107.5t50.5 99.5t83.5 82.5t120 56.5t154 21q116 0 203 -33t135.5 -90t72 -125.5t23.5 -148.5v-25h-221v23q0 29 -4.5 58t-18.5 62t-35.5 57.5 t-59 41t-85.5 16.5q-92 0 -146.5 -48.5t-54.5 -127.5q0 -105 66 -231l47 -95h340v-139h-287q21 -61 21 -121q0 -57 -19 -108t-56.5 -96t-74 -77t-90.5 -73l4 -8q76 47 150 47q42 0 131 -31t125 -31q60 0 153 54l62 32l77 -161l-40 -25q-131 -79 -261 -76q-70 1 -184.5 40.5 t-171.5 39.5q-79 0 -195 -63z" />
<glyph unicode="&#xa4;" horiz-adv-x="983" d="M12 322l105 104q-97 132 -97 285q0 159 97 284l-105 105l92 92l105 -105q130 95 283 95q152 0 282 -95l105 105l92 -92l-105 -107q97 -128 97 -282q0 -155 -97 -283l105 -106l-92 -93l-107 107q-123 -96 -280 -96q-156 0 -283 96l-105 -107zM184 711q0 -135 89.5 -227.5 t218.5 -92.5t218 92.5t89 227.5t-89 227t-218 92t-218.5 -92t-89.5 -227z" />
<glyph unicode="&#xa5;" horiz-adv-x="983" d="M4 1421h254l234 -581l243 581h244l-301 -667h205v-140h-267l-22 -47v-96h289v-139h-289v-332h-221v332h-289v139h289v96l-21 47h-268v140h207z" />
<glyph unicode="&#xa6;" horiz-adv-x="454" d="M139 -29v568h176v-568h-176zM139 924v567h176v-567h-176z" />
<glyph unicode="&#xa7;" horiz-adv-x="985" d="M49 645q0 95 53 169t138 122q-63 35 -97 96t-34 139q0 153 108.5 236.5t276.5 83.5q86 0 153.5 -20.5t108 -52.5t66.5 -76t36 -86t10 -87h-221q0 76 -41.5 117t-118.5 41q-69 0 -113 -37.5t-44 -95.5q0 -49 36 -88t119 -86l277 -154q96 -54 135 -129.5t39 -175.5 q0 -86 -44.5 -161.5t-119.5 -123.5q117 -96 117 -237q0 -172 -108 -265t-281 -93q-195 0 -295.5 102t-100.5 272h222q0 -91 42 -144.5t132 -53.5q67 0 111 41t44 112q0 69 -39 111t-112 82l-234 127q-221 122 -221 315zM246 672q0 -51 34 -84.5t121 -83.5l234 -137l33 24 q71 61 71 146q0 33 -10.5 60.5t-31 48.5t-37.5 34t-42 29l-243 141l-27 -23q-102 -73 -102 -155z" />
<glyph unicode="&#xa8;" horiz-adv-x="454" d="M-41 1286v221h197v-221h-197zM299 1286v221h197v-221h-197z" />
<glyph unicode="&#xa9;" horiz-adv-x="1638" d="M59 731q0 155 60 295.5t162 242.5t242.5 162t295.5 60t295.5 -60t242.5 -162t162 -242.5t60 -295.5t-60 -295.5t-162 -242.5t-242.5 -162t-295.5 -60t-295.5 60t-242.5 162t-162 242.5t-60 295.5zM246 731q0 -122 45.5 -232t122 -190t182.5 -127t223 -47q156 0 288 79.5 t209 217t77 299.5t-77 299.5t-209 217t-288 79.5q-117 0 -223 -47t-182.5 -127t-122 -190t-45.5 -232zM414 733q0 210 116 333.5t312 123.5q144 0 244.5 -82.5t121.5 -230.5h-164q-16 74 -70.5 119.5t-135.5 41.5q-116 0 -182 -86.5t-66 -218.5q0 -135 67.5 -221t188.5 -86 q78 0 133 47t65 125h170q-26 -151 -130.5 -237.5t-256.5 -86.5q-187 0 -300 124.5t-113 334.5z" />
<glyph unicode="&#xaa;" horiz-adv-x="647" d="M16 936q0 56 11.5 92.5t39.5 59.5t57 35.5t81 25.5l106 27q49 12 70.5 29t21.5 57q0 73 -94 73q-34 0 -57 -9t-33.5 -25.5t-14 -32t-3.5 -35.5h-152q0 110 62 163.5t217 53.5q111 0 175 -39t64 -123v-362q0 -20 9 -33.5t26 -13.5q13 0 29 4v-117q-63 -14 -84 -14 q-54 0 -89 23.5t-38 72.5h-6q-33 -50 -79 -73t-118 -23q-97 0 -149 47t-52 137zM193 952q0 -30 23.5 -51.5t62.5 -21.5q56 0 90 35t34 90v116q-20 -15 -82.5 -35t-76.5 -28q-32 -15 -41.5 -41.5t-9.5 -63.5z" />
<glyph unicode="&#xab;" horiz-adv-x="833" d="M102 475v234l295 276v-225l-180 -168l180 -168v-225zM436 475v234l295 276v-225l-180 -168l180 -168v-225z" />
<glyph unicode="&#xac;" horiz-adv-x="1228" d="M96 643v176h1037v-602h-177v426h-860z" />
<glyph unicode="&#xad;" horiz-adv-x="720" d="M92 487v209h537v-209h-537z" />
<glyph unicode="&#xae;" horiz-adv-x="1638" d="M59 731q0 155 60 295.5t162 242.5t242.5 162t295.5 60t295.5 -60t242.5 -162t162 -242.5t60 -295.5t-60 -295.5t-162 -242.5t-242.5 -162t-295.5 -60t-295.5 60t-242.5 162t-162 242.5t-60 295.5zM246 731q0 -122 45.5 -232t122 -190t182.5 -127t223 -47q156 0 288 79.5 t209 217t77 299.5t-77 299.5t-209 217t-288 79.5q-117 0 -223 -47t-182.5 -127t-122 -190t-45.5 -232zM492 297v868h337q164 0 245 -60t81 -190q0 -203 -223 -245l237 -373h-176l-221 367h-129v-367h-151zM643 791h156q38 0 64 2t55 9.5t46 21t28.5 38.5t11.5 60 q0 116 -193 116h-168v-247z" />
<glyph unicode="&#xaf;" horiz-adv-x="454" d="M-61 1335v127h577v-127h-577z" />
<glyph unicode="&#xb0;" horiz-adv-x="819" d="M104 1145q0 126 90 215.5t216 89.5t215.5 -89.5t89.5 -215.5t-89.5 -215.5t-215.5 -89.5t-216 89.5t-90 215.5zM244 1145q0 -69 48.5 -117.5t117.5 -48.5t117 48.5t48 117.5t-48 117.5t-117 48.5t-117.5 -48.5t-48.5 -117.5z" />
<glyph unicode="&#xb1;" horiz-adv-x="1228" d="M96 0v176h1037v-176h-1037zM96 551v176h430v309h176v-309h431v-176h-431v-309h-176v309h-430z" />
<glyph unicode="&#xb2;" horiz-adv-x="641" d="M33 573q0 83 22 150t57 111t77 80.5t84.5 67t77.5 61t57 71t22 90.5q0 56 -26.5 87.5t-77.5 31.5q-34 0 -58 -15t-35.5 -40t-16.5 -49.5t-5 -51.5h-176q0 283 293 283q278 0 278 -233q0 -57 -17 -104.5t-46 -82t-64 -64t-74 -57t-74 -55t-65.5 -64t-46.5 -77.5h379v-140 h-565z" />
<glyph unicode="&#xb3;" horiz-adv-x="641" d="M20 819h177q0 -29 9.5 -57t38.5 -52t72 -24q64 0 95.5 41.5t31.5 103.5q0 134 -145 134h-61v127h55q65 0 97 35.5t32 84.5q0 42 -26.5 76.5t-76.5 34.5q-56 0 -82 -39t-26 -86h-176q0 121 80 186.5t217 65.5q50 0 95.5 -13t84.5 -38.5t62.5 -69.5t23.5 -100 q0 -68 -48 -125.5t-116 -67.5v-4q81 -5 134 -59.5t53 -143.5q0 -126 -85 -198t-219 -72q-151 0 -224 62.5t-73 197.5z" />
<glyph unicode="&#xb4;" horiz-adv-x="454" d="M115 1245l123 295h245l-217 -295h-151z" />
<glyph unicode="&#xb5;" horiz-adv-x="985" d="M106 -360v1462h222v-756q0 -108 35 -153.5t118 -45.5q73 0 124.5 56.5t51.5 158.5v740h222v-1102h-209v129h-6q-41 -73 -104.5 -115.5t-129.5 -42.5q-65 0 -102 37v-368h-222z" />
<glyph unicode="&#xb6;" horiz-adv-x="1228" d="M109 1077q0 198 126.5 291.5t350.5 93.5h508v-1753h-187v1614h-227v-1614h-186v996q-160 0 -272.5 106.5t-112.5 265.5z" />
<glyph unicode="&#xb7;" horiz-adv-x="491" d="M98 631q0 61 43 104t105 43t104.5 -43t42.5 -104q0 -62 -43 -105t-104 -43q-62 0 -105 43.5t-43 104.5z" />
<glyph unicode="&#xb8;" horiz-adv-x="454" d="M10 -408l33 82q71 -26 135 -26q28 0 52 6t43.5 24.5t19.5 47.5q0 34 -27.5 55.5t-66.5 21.5q-25 0 -78 -16l-37 35l113 178h102l-84 -117q55 11 82 11q68 0 114 -45t46 -107q0 -82 -68.5 -133t-171.5 -51q-114 0 -207 34z" />
<glyph unicode="&#xb9;" horiz-adv-x="641" d="M82 1198v115h14q191 0 223 121v16h123v-877h-176v625h-184z" />
<glyph unicode="&#xba;" horiz-adv-x="647" d="M29 1098q0 171 66.5 261.5t228.5 90.5t228 -90.5t66 -261.5q0 -167 -66 -256.5t-228 -89.5t-228.5 89.5t-66.5 256.5zM205 1098q0 -48 5 -84t17 -68.5t36.5 -49.5t60.5 -17t60.5 17t36.5 49.5t16.5 68t4.5 84.5q0 51 -4.5 88t-16.5 70t-36.5 50t-60.5 17t-60.5 -17 t-36.5 -50t-17 -70t-5 -88z" />
<glyph unicode="&#xbb;" horiz-adv-x="833" d="M102 199v225l181 168l-181 168v225l295 -276v-234zM436 199v225l180 168l-180 168v225l295 -276v-234z" />
<glyph unicode="&#xbc;" horiz-adv-x="1476" d="M20 1198v115h15q191 0 223 121v16h123v-877h-176v625h-185zM152 -63l862 1548h151l-862 -1548h-151zM780 193v124l324 560h176v-570h102v-114h-102v-193h-164v193h-336zM901 307h215v373h-4z" />
<glyph unicode="&#xbd;" horiz-adv-x="1476" d="M20 1198v115h15q191 0 223 121v16h123v-877h-176v625h-185zM152 -63l862 1548h151l-862 -1548h-151zM842 0q0 83 22 150t57 111t77 80.5t84.5 67t77.5 61t57 71t22 90.5q0 56 -26.5 87.5t-77.5 31.5q-34 0 -58 -15t-35.5 -40t-16.5 -49.5t-5 -51.5h-176q0 283 293 283 q278 0 278 -234q0 -57 -17 -104.5t-46 -82t-64 -64t-74 -57t-74 -55t-65.5 -64t-46.5 -77.5h379v-139h-565z" />
<glyph unicode="&#xbe;" horiz-adv-x="1476" d="M-33 819h176q0 -20 6 -41.5t19 -43t38 -35t58 -13.5q64 0 95.5 41.5t31.5 103.5q0 134 -145 134h-62v127h56q65 0 97 35.5t32 84.5q0 42 -26.5 76.5t-76.5 34.5q-56 0 -82 -39t-26 -86h-176q0 121 80 186.5t217 65.5q50 0 95.5 -13t84.5 -38.5t62.5 -69.5t23.5 -100 q0 -68 -48 -125.5t-116 -67.5v-4q81 -5 133.5 -59t52.5 -144q0 -126 -84.5 -198t-218.5 -72q-151 0 -224 62.5t-73 197.5zM221 -63l862 1548h152l-862 -1548h-152zM780 193v124l324 560h176v-570h102v-114h-102v-193h-164v193h-336zM901 307h215v373h-4z" />
<glyph unicode="&#xbf;" d="M72 4q0 71 17.5 132.5t46 106t62.5 84t68.5 73.5t63 67.5t46 73t17.5 82.5v86h209v-123q0 -60 -16.5 -109.5t-42.5 -84t-57.5 -66t-63.5 -63t-58 -66t-42.5 -84t-16.5 -109.5q0 -46 8.5 -83t26.5 -68t51.5 -48.5t79.5 -17.5q99 0 141.5 75.5t42.5 213.5h222 q0 -100 -22 -182t-68.5 -146.5t-126.5 -100.5t-187 -36q-191 0 -296 102.5t-105 290.5zM383 868v234h233v-234h-233z" />
<glyph unicode="&#xc0;" horiz-adv-x="1062" d="M-18 0l415 1462h299l385 -1462h-243l-90 358h-429l-94 -358h-243zM291 1839h246l122 -295h-151zM362 545h347l-168 721h-4z" />
<glyph unicode="&#xc1;" horiz-adv-x="1062" d="M-18 0l415 1462h299l385 -1462h-243l-90 358h-429l-94 -358h-243zM362 545h347l-168 721h-4zM434 1544l123 295h246l-217 -295h-152z" />
<glyph unicode="&#xc2;" horiz-adv-x="1062" d="M-18 0l415 1462h299l385 -1462h-243l-90 358h-429l-94 -358h-243zM252 1544l186 295h221l183 -295h-187l-110 180l-117 -180h-176zM362 545h347l-168 721h-4z" />
<glyph unicode="&#xc3;" horiz-adv-x="1062" d="M-18 0l415 1462h299l385 -1462h-243l-90 358h-429l-94 -358h-243zM238 1559q0 36 11.5 76t34 79t64.5 64.5t96 25.5q12 0 27.5 -4t23.5 -7t31 -12.5t27 -11.5q78 -36 115 -36q32 0 46.5 22.5t14.5 54.5h127q0 -49 -18.5 -102.5t-60.5 -96t-97 -42.5q-50 0 -134 35.5 t-112 35.5q-32 0 -50.5 -24t-18.5 -57h-127zM362 545h347l-168 721h-4z" />
<glyph unicode="&#xc4;" horiz-adv-x="1062" d="M-18 0l415 1462h299l385 -1462h-243l-90 358h-429l-94 -358h-243zM279 1585v221h196v-221h-196zM362 545h347l-168 721h-4zM618 1585v221h197v-221h-197z" />
<glyph unicode="&#xc5;" horiz-adv-x="1062" d="M-18 0l415 1462h299l385 -1462h-243l-90 358h-429l-94 -358h-243zM330 1731q0 91 63 154t154 63t154 -63t63 -154t-63 -154.5t-154 -63.5t-154 63.5t-63 154.5zM362 545h347l-168 721h-4zM432 1731q0 -47 34 -81t81 -34t81 34t34 81t-34 80.5t-81 33.5t-81 -33.5 t-34 -80.5z" />
<glyph unicode="&#xc6;" horiz-adv-x="1517" d="M-25 0l560 1462h895v-196h-519v-406h490v-196h-490v-467h537v-197h-758v358h-342l-129 -358h-244zM410 545h280v731h-18z" />
<glyph unicode="&#xc7;" horiz-adv-x="1062" d="M86 731q0 202 23.5 340t79.5 234.5t149.5 141t232.5 44.5q86 0 155 -18t114.5 -46t78.5 -69.5t50.5 -80.5t27.5 -88t12.5 -83t2.5 -74v-26h-234v24q0 56 -9.5 103.5t-31.5 91t-65 68t-103 22.5q-54 0 -92.5 -15t-69.5 -52.5t-49.5 -103.5t-28.5 -166t-10 -241 q0 -233 27.5 -363t80 -178.5t142.5 -48.5q217 0 217 353v24h234v-30q0 -80 -12.5 -150.5t-42.5 -137.5t-76.5 -116.5t-118 -81.5t-162.5 -37l-63 -88q55 11 82 11q68 0 113.5 -44.5t45.5 -107.5q0 -82 -68 -133t-171 -51q-114 0 -207 34l33 82q71 -26 135 -26q28 0 52 6 t43.5 24.5t19.5 47.5q0 34 -27.5 55.5t-67.5 21.5q-24 0 -77 -16l-37 35l96 149q-120 11 -202 61t-131 146.5t-70 229.5t-21 323z" />
<glyph unicode="&#xc8;" horiz-adv-x="985" d="M121 0v1462h790v-196h-557v-406h525v-196h-525v-467h574v-197h-807zM262 1839h246l123 -295h-152z" />
<glyph unicode="&#xc9;" horiz-adv-x="985" d="M121 0v1462h790v-196h-557v-406h525v-196h-525v-467h574v-197h-807zM406 1544l122 295h246l-217 -295h-151z" />
<glyph unicode="&#xca;" horiz-adv-x="985" d="M121 0v1462h790v-196h-557v-406h525v-196h-525v-467h574v-197h-807zM223 1544l187 295h221l182 -295h-186l-111 180l-117 -180h-176z" />
<glyph unicode="&#xcb;" horiz-adv-x="985" d="M121 0v1462h790v-196h-557v-406h525v-196h-525v-467h574v-197h-807zM250 1585v221h196v-221h-196zM590 1585v221h196v-221h-196z" />
<glyph unicode="&#xcc;" horiz-adv-x="454" d="M-29 1839h246l123 -295h-152zM111 0v1462h233v-1462h-233z" />
<glyph unicode="&#xcd;" horiz-adv-x="454" d="M111 0v1462h233v-1462h-233zM115 1544l123 295h245l-217 -295h-151z" />
<glyph unicode="&#xce;" horiz-adv-x="454" d="M-68 1544l187 295h221l182 -295h-186l-111 180l-116 -180h-177zM111 0v1462h233v-1462h-233z" />
<glyph unicode="&#xcf;" horiz-adv-x="454" d="M-41 1585v221h197v-221h-197zM111 0v1462h233v-1462h-233zM299 1585v221h197v-221h-197z" />
<glyph unicode="&#xd0;" horiz-adv-x="1138" d="M0 682v164h121v616h416q76 0 138.5 -11t111.5 -31t87.5 -52t66.5 -68.5t48 -86.5t32.5 -100t19.5 -115.5t9.5 -127t2.5 -139.5t-2.5 -139.5t-9.5 -127t-19.5 -115.5t-32.5 -100t-48 -86.5t-66.5 -68.5t-87.5 -52t-111.5 -31t-138.5 -11h-416v682h-121zM354 176h193 q100 0 157.5 49.5t86 170.5t28.5 335q0 209 -26 328.5t-84.5 173t-161.5 53.5h-193v-440h244v-164h-244v-506z" />
<glyph unicode="&#xd1;" horiz-adv-x="1175" d="M121 0v1462h285l423 -1089h5v1089h221v-1462h-285l-424 1118h-4v-1118h-221zM279 1559q0 36 11.5 76t34 79t64.5 64.5t96 25.5q12 0 27.5 -4t23.5 -7t31 -12.5t27 -11.5q78 -36 115 -36q32 0 46.5 22.5t14.5 54.5h127q0 -49 -18.5 -102.5t-60.5 -96t-97 -42.5 q-50 0 -134 35.5t-112 35.5q-32 0 -50.5 -24t-18.5 -57h-127z" />
<glyph unicode="&#xd2;" horiz-adv-x="1138" d="M86 731q0 393 116 576.5t367 183.5t367.5 -183.5t116.5 -576.5t-116.5 -576.5t-367.5 -183.5t-367 183.5t-116 576.5zM313 1839h246l123 -295h-152zM319 737q0 -147 13 -254.5t34.5 -171t55 -101.5t68 -50.5t79.5 -12.5t79.5 12.5t68 50.5t55 101.5t34.5 171t13 254.5 q0 144 -13 249t-34.5 167.5t-55 99.5t-68 49.5t-79.5 12.5t-79.5 -12.5t-68 -49.5t-55 -99.5t-34.5 -167.5t-13 -249z" />
<glyph unicode="&#xd3;" horiz-adv-x="1138" d="M86 731q0 393 116 576.5t367 183.5t367.5 -183.5t116.5 -576.5t-116.5 -576.5t-367.5 -183.5t-367 183.5t-116 576.5zM319 737q0 -147 13 -254.5t34.5 -171t55 -101.5t68 -50.5t79.5 -12.5t79.5 12.5t68 50.5t55 101.5t34.5 171t13 254.5q0 144 -13 249t-34.5 167.5 t-55 99.5t-68 49.5t-79.5 12.5t-79.5 -12.5t-68 -49.5t-55 -99.5t-34.5 -167.5t-13 -249zM457 1544l123 295h245l-217 -295h-151z" />
<glyph unicode="&#xd4;" horiz-adv-x="1138" d="M86 731q0 393 116 576.5t367 183.5t367.5 -183.5t116.5 -576.5t-116.5 -576.5t-367.5 -183.5t-367 183.5t-116 576.5zM274 1544l187 295h221l182 -295h-186l-111 180l-116 -180h-177zM319 737q0 -147 13 -254.5t34.5 -171t55 -101.5t68 -50.5t79.5 -12.5t79.5 12.5 t68 50.5t55 101.5t34.5 171t13 254.5q0 144 -13 249t-34.5 167.5t-55 99.5t-68 49.5t-79.5 12.5t-79.5 -12.5t-68 -49.5t-55 -99.5t-34.5 -167.5t-13 -249z" />
<glyph unicode="&#xd5;" horiz-adv-x="1138" d="M86 731q0 393 116 576.5t367 183.5t367.5 -183.5t116.5 -576.5t-116.5 -576.5t-367.5 -183.5t-367 183.5t-116 576.5zM260 1559q0 36 11.5 76t34.5 79t65 64.5t96 25.5q12 0 27 -4t23.5 -7t30 -12.5t27.5 -11.5q78 -36 115 -36q32 0 47 22.5t15 54.5h127 q0 -49 -19 -102.5t-61 -96t-97 -42.5q-50 0 -133.5 35.5t-111.5 35.5q-32 0 -51 -24t-19 -57h-127zM319 737q0 -147 13 -254.5t34.5 -171t55 -101.5t68 -50.5t79.5 -12.5t79.5 12.5t68 50.5t55 101.5t34.5 171t13 254.5q0 144 -13 249t-34.5 167.5t-55 99.5t-68 49.5 t-79.5 12.5t-79.5 -12.5t-68 -49.5t-55 -99.5t-34.5 -167.5t-13 -249z" />
<glyph unicode="&#xd6;" horiz-adv-x="1138" d="M86 731q0 393 116 576.5t367 183.5t367.5 -183.5t116.5 -576.5t-116.5 -576.5t-367.5 -183.5t-367 183.5t-116 576.5zM301 1585v221h197v-221h-197zM319 737q0 -147 13 -254.5t34.5 -171t55 -101.5t68 -50.5t79.5 -12.5t79.5 12.5t68 50.5t55 101.5t34.5 171t13 254.5 q0 144 -13 249t-34.5 167.5t-55 99.5t-68 49.5t-79.5 12.5t-79.5 -12.5t-68 -49.5t-55 -99.5t-34.5 -167.5t-13 -249zM641 1585v221h197v-221h-197z" />
<glyph unicode="&#xd7;" horiz-adv-x="1228" d="M143 162l357 356l-357 356l115 115l354 -356l359 356l114 -115l-358 -356l358 -356l-114 -115l-359 359l-354 -359z" />
<glyph unicode="&#xd8;" horiz-adv-x="1138" d="M86 731q0 393 116 576.5t367 183.5q140 0 236 -57l55 133l105 -49l-68 -158q156 -178 156 -629q0 -393 -116.5 -576.5t-367.5 -183.5q-139 0 -233 58l-57 -135l-105 49l68 159q-156 178 -156 629zM319 737q0 -228 33 -370h4l369 876q-54 72 -156 72q-45 0 -79.5 -12.5 t-68 -49.5t-55 -99.5t-34.5 -167.5t-13 -249zM416 219q52 -72 153 -72q45 0 79.5 12.5t68 50.5t55 101.5t34.5 171t13 254.5q0 221 -31 359h-4z" />
<glyph unicode="&#xd9;" horiz-adv-x="1099" d="M102 432v1030h234v-1048q0 -267 215 -267q213 0 213 267v1048h233v-1030q0 -244 -113.5 -352.5t-332.5 -108.5q-220 0 -334.5 108.5t-114.5 352.5zM295 1839h246l123 -295h-152z" />
<glyph unicode="&#xda;" horiz-adv-x="1099" d="M102 432v1030h234v-1048q0 -267 215 -267q213 0 213 267v1048h233v-1030q0 -244 -113.5 -352.5t-332.5 -108.5q-220 0 -334.5 108.5t-114.5 352.5zM438 1544l123 295h246l-217 -295h-152z" />
<glyph unicode="&#xdb;" horiz-adv-x="1099" d="M102 432v1030h234v-1048q0 -267 215 -267q213 0 213 267v1048h233v-1030q0 -244 -113.5 -352.5t-332.5 -108.5q-220 0 -334.5 108.5t-114.5 352.5zM256 1544l186 295h222l182 -295h-187l-110 180l-117 -180h-176z" />
<glyph unicode="&#xdc;" horiz-adv-x="1099" d="M102 432v1030h234v-1048q0 -267 215 -267q213 0 213 267v1048h233v-1030q0 -244 -113.5 -352.5t-332.5 -108.5q-220 0 -334.5 108.5t-114.5 352.5zM283 1585v221h196v-221h-196zM623 1585v221h196v-221h-196z" />
<glyph unicode="&#xdd;" horiz-adv-x="985" d="M-8 1462h260l246 -631l252 631h243l-391 -891v-571h-233v571zM381 1544l123 295h246l-218 -295h-151z" />
<glyph unicode="&#xde;" horiz-adv-x="1024" d="M121 0v1462h233v-278h230q203 0 303 -114.5t100 -311.5q0 -199 -112.5 -315.5t-315.5 -116.5h-205v-326h-233zM354 502h166q103 0 168.5 61t65.5 191q0 125 -58 189.5t-192 64.5h-150v-506z" />
<glyph unicode="&#xdf;" horiz-adv-x="985" d="M90 0v1092q0 387 385 387q59 0 111.5 -9.5t103.5 -33t87 -60.5t58.5 -97t22.5 -136q0 -251 -205 -303v-4q76 -7 130.5 -42.5t83.5 -91t42 -116.5t13 -131q0 -103 -23 -187t-69 -147.5t-122 -98t-176 -34.5h-104v176h55q103 0 154 74t51 213q0 292 -203 292h-53v164h39 q23 0 49 9.5t53.5 30.5t45.5 63t18 98q0 207 -164 207q-85 0 -123.5 -52.5t-38.5 -154.5v-1108h-221z" />
<glyph unicode="&#xe0;" d="M63 281q0 72 13 126t33 88t56 60t68.5 40.5t85.5 31.5l173 47q69 20 99 47.5t30 93.5q0 80 -34.5 122t-117.5 42q-43 0 -74 -12t-49 -31t-28.5 -48t-13.5 -56.5t-3 -63.5h-209q0 183 88 272.5t299 89.5q102 0 178 -26t124 -88t48 -156v-631q0 -31 17 -54t41 -23 q25 0 37 6v-144q-58 -26 -109 -26q-80 0 -131 35t-55 110h-4q-88 -162 -275 -162q-136 0 -211.5 78t-75.5 232zM219 1540h246l123 -295h-152zM285 301q0 -73 35.5 -119.5t101.5 -46.5q98 0 148.5 69t50.5 193v185q-33 -26 -132 -61t-114 -42q-90 -44 -90 -178z" />
<glyph unicode="&#xe1;" d="M63 281q0 72 13 126t33 88t56 60t68.5 40.5t85.5 31.5l173 47q69 20 99 47.5t30 93.5q0 80 -34.5 122t-117.5 42q-43 0 -74 -12t-49 -31t-28.5 -48t-13.5 -56.5t-3 -63.5h-209q0 183 88 272.5t299 89.5q102 0 178 -26t124 -88t48 -156v-631q0 -31 17 -54t41 -23 q25 0 37 6v-144q-58 -26 -109 -26q-80 0 -131 35t-55 110h-4q-88 -162 -275 -162q-136 0 -211.5 78t-75.5 232zM285 301q0 -73 35.5 -119.5t101.5 -46.5q98 0 148.5 69t50.5 193v185q-33 -26 -132 -61t-114 -42q-90 -44 -90 -178zM362 1245l123 295h246l-217 -295h-152z" />
<glyph unicode="&#xe2;" d="M63 281q0 72 13 126t33 88t56 60t68.5 40.5t85.5 31.5l173 47q69 20 99 47.5t30 93.5q0 80 -34.5 122t-117.5 42q-43 0 -74 -12t-49 -31t-28.5 -48t-13.5 -56.5t-3 -63.5h-209q0 183 88 272.5t299 89.5q102 0 178 -26t124 -88t48 -156v-631q0 -31 17 -54t41 -23 q25 0 37 6v-144q-58 -26 -109 -26q-80 0 -131 35t-55 110h-4q-88 -162 -275 -162q-136 0 -211.5 78t-75.5 232zM180 1245l187 295h221l182 -295h-186l-111 180l-117 -180h-176zM285 301q0 -73 35.5 -119.5t101.5 -46.5q98 0 148.5 69t50.5 193v185q-33 -26 -132 -61 t-114 -42q-90 -44 -90 -178z" />
<glyph unicode="&#xe3;" d="M63 281q0 72 13 126t33 88t56 60t68.5 40.5t85.5 31.5l173 47q69 20 99 47.5t30 93.5q0 80 -34.5 122t-117.5 42q-43 0 -74 -12t-49 -31t-28.5 -48t-13.5 -56.5t-3 -63.5h-209q0 183 88 272.5t299 89.5q102 0 178 -26t124 -88t48 -156v-631q0 -31 17 -54t41 -23 q25 0 37 6v-144q-58 -26 -109 -26q-80 0 -131 35t-55 110h-4q-88 -162 -275 -162q-136 0 -211.5 78t-75.5 232zM166 1260q0 36 11.5 76t34.5 79t65 64.5t96 25.5q12 0 27 -4t23.5 -7t30 -12.5t27.5 -11.5q78 -36 115 -36q32 0 46.5 22.5t14.5 54.5h127q0 -49 -18.5 -102.5 t-60.5 -96t-97 -42.5q-50 0 -134 35.5t-112 35.5q-32 0 -50.5 -24t-18.5 -57h-127zM285 301q0 -73 35.5 -119.5t101.5 -46.5q98 0 148.5 69t50.5 193v185q-33 -26 -132 -61t-114 -42q-90 -44 -90 -178z" />
<glyph unicode="&#xe4;" d="M63 281q0 72 13 126t33 88t56 60t68.5 40.5t85.5 31.5l173 47q69 20 99 47.5t30 93.5q0 80 -34.5 122t-117.5 42q-43 0 -74 -12t-49 -31t-28.5 -48t-13.5 -56.5t-3 -63.5h-209q0 183 88 272.5t299 89.5q102 0 178 -26t124 -88t48 -156v-631q0 -31 17 -54t41 -23 q25 0 37 6v-144q-58 -26 -109 -26q-80 0 -131 35t-55 110h-4q-88 -162 -275 -162q-136 0 -211.5 78t-75.5 232zM207 1286v221h196v-221h-196zM285 301q0 -73 35.5 -119.5t101.5 -46.5q98 0 148.5 69t50.5 193v185q-33 -26 -132 -61t-114 -42q-90 -44 -90 -178zM547 1286v221 h196v-221h-196z" />
<glyph unicode="&#xe5;" d="M63 281q0 72 13 126t33 88t56 60t68.5 40.5t85.5 31.5l173 47q69 20 99 47.5t30 93.5q0 80 -34.5 122t-117.5 42q-43 0 -74 -12t-49 -31t-28.5 -48t-13.5 -56.5t-3 -63.5h-209q0 183 88 272.5t299 89.5q102 0 178 -26t124 -88t48 -156v-631q0 -31 17 -54t41 -23 q25 0 37 6v-144q-58 -26 -109 -26q-80 0 -131 35t-55 110h-4q-88 -162 -275 -162q-136 0 -211.5 78t-75.5 232zM258 1432q0 91 63 154t154 63t154 -63t63 -154t-63 -154.5t-154 -63.5t-154 63.5t-63 154.5zM285 301q0 -73 35.5 -119.5t101.5 -46.5q98 0 148.5 69t50.5 193 v185q-33 -26 -132 -61t-114 -42q-90 -44 -90 -178zM360 1432q0 -47 34 -81t81 -34t81 34t34 81t-34 80.5t-81 33.5t-81 -33.5t-34 -80.5z" />
<glyph unicode="&#xe6;" horiz-adv-x="1441" d="M63 281q0 84 19.5 143.5t59.5 97t84.5 58.5t109.5 38l174 46q55 14 74.5 43.5t19.5 107.5q0 164 -135 164q-43 0 -74 -12t-49 -31t-28.5 -48t-13.5 -56.5t-3 -63.5h-209q0 183 88 272.5t299 89.5q64 0 114 -15.5t78.5 -40.5t43 -45t22.5 -40q39 67 110.5 103t160.5 38 q82 0 143.5 -22t102 -62t66 -102t36 -136t10.5 -169v-117h-551v-78q0 -314 162 -321q45 0 79 20t51.5 47.5t28.5 64t14 63t3 51.5h209q0 -184 -103.5 -291t-283.5 -107q-62 1 -112 17t-79 35t-54.5 52t-34 50t-21.5 47q-41 -97 -119.5 -149t-177.5 -52q-134 0 -224 78.5 t-90 231.5zM285 289q0 -63 35 -108.5t94 -45.5q192 0 192 256v174q-26 -31 -160 -65q-54 -15 -88 -35.5t-49 -50t-19.5 -56t-4.5 -69.5zM817 674h328v59q0 112 -38.5 179t-121.5 67q-47 0 -82 -26.5t-52.5 -68.5t-25.5 -83t-8 -80v-47z" />
<glyph unicode="&#xe7;" horiz-adv-x="909" d="M63 551q0 107 12 192t41 159t75 123t117 77t165 28q68 1 124.5 -13.5t95 -38.5t68 -58.5t46.5 -70t27.5 -76t14 -73t3.5 -65.5h-221q0 43 -7 80.5t-23.5 74.5t-49 57.5t-78.5 19.5q-47 0 -81 -20.5t-54.5 -55t-32.5 -89.5t-16 -113.5t-4 -137.5t4 -137.5t16 -113.5 t32.5 -89.5t54.5 -55t81 -20.5q168 -3 168 266h209q-10 -193 -82 -300.5t-233 -123.5l-68 -94q55 11 82 11q68 0 114 -45t46 -107q0 -82 -68.5 -133t-171.5 -51q-114 0 -207 34l33 82q71 -26 135 -26q28 0 52 6t43.5 24.5t19.5 47.5q0 34 -27.5 55.5t-66.5 21.5 q-25 0 -78 -16l-37 35l96 153q-105 7 -178.5 51t-114 122.5t-58.5 176t-18 226.5z" />
<glyph unicode="&#xe8;" d="M76 535q0 67 4.5 124.5t16 119.5t30.5 112t50.5 95.5t73.5 76.5t101 49t131 18q113 0 190 -32.5t120 -99t61 -152.5t18 -207v-117h-575v-63q0 -52 3 -92.5t14 -88.5t30 -80t54 -53.5t83 -21.5q45 0 79 20t51.5 47.5t28.5 64t14 63t3 51.5h209q0 -184 -103.5 -291 t-283.5 -107q-44 0 -79.5 4.5t-78.5 18.5t-76.5 38t-66 67t-54 101t-35 143.5t-13.5 191.5zM244 1540h245l123 -295h-151zM297 674h354v59q0 113 -40.5 179.5t-129.5 66.5q-67 0 -110 -42.5t-58.5 -102.5t-15.5 -138v-22z" />
<glyph unicode="&#xe9;" d="M76 535q0 67 4.5 124.5t16 119.5t30.5 112t50.5 95.5t73.5 76.5t101 49t131 18q113 0 190 -32.5t120 -99t61 -152.5t18 -207v-117h-575v-63q0 -52 3 -92.5t14 -88.5t30 -80t54 -53.5t83 -21.5q45 0 79 20t51.5 47.5t28.5 64t14 63t3 51.5h209q0 -184 -103.5 -291 t-283.5 -107q-44 0 -79.5 4.5t-78.5 18.5t-76.5 38t-66 67t-54 101t-35 143.5t-13.5 191.5zM297 674h354v59q0 113 -40.5 179.5t-129.5 66.5q-67 0 -110 -42.5t-58.5 -102.5t-15.5 -138v-22zM387 1245l123 295h246l-217 -295h-152z" />
<glyph unicode="&#xea;" d="M76 535q0 67 4.5 124.5t16 119.5t30.5 112t50.5 95.5t73.5 76.5t101 49t131 18q113 0 190 -32.5t120 -99t61 -152.5t18 -207v-117h-575v-63q0 -52 3 -92.5t14 -88.5t30 -80t54 -53.5t83 -21.5q45 0 79 20t51.5 47.5t28.5 64t14 63t3 51.5h209q0 -184 -103.5 -291 t-283.5 -107q-44 0 -79.5 4.5t-78.5 18.5t-76.5 38t-66 67t-54 101t-35 143.5t-13.5 191.5zM205 1245l186 295h221l183 -295h-187l-110 180l-117 -180h-176zM297 674h354v59q0 113 -40.5 179.5t-129.5 66.5q-67 0 -110 -42.5t-58.5 -102.5t-15.5 -138v-22z" />
<glyph unicode="&#xeb;" d="M76 535q0 67 4.5 124.5t16 119.5t30.5 112t50.5 95.5t73.5 76.5t101 49t131 18q113 0 190 -32.5t120 -99t61 -152.5t18 -207v-117h-575v-63q0 -52 3 -92.5t14 -88.5t30 -80t54 -53.5t83 -21.5q45 0 79 20t51.5 47.5t28.5 64t14 63t3 51.5h209q0 -184 -103.5 -291 t-283.5 -107q-44 0 -79.5 4.5t-78.5 18.5t-76.5 38t-66 67t-54 101t-35 143.5t-13.5 191.5zM231 1286v221h197v-221h-197zM297 674h354v59q0 113 -40.5 179.5t-129.5 66.5q-67 0 -110 -42.5t-58.5 -102.5t-15.5 -138v-22zM571 1286v221h197v-221h-197z" />
<glyph unicode="&#xec;" horiz-adv-x="454" d="M-29 1540h246l123 -295h-152zM117 0v1102h221v-1102h-221z" />
<glyph unicode="&#xed;" horiz-adv-x="454" d="M115 1245l123 295h245l-217 -295h-151zM117 0v1102h221v-1102h-221z" />
<glyph unicode="&#xee;" horiz-adv-x="454" d="M-68 1245l187 295h221l182 -295h-186l-111 180l-116 -180h-177zM117 0v1102h221v-1102h-221z" />
<glyph unicode="&#xef;" horiz-adv-x="454" d="M-41 1286v221h197v-221h-197zM117 0v1102h221v-1102h-221zM299 1286v221h197v-221h-197z" />
<glyph unicode="&#xf0;" d="M63 551q0 259 91.5 405t285.5 146q106 0 168 -68l4 4q-92 140 -241 285l-178 -98l-74 73l176 97q-66 63 -131 106l162 88q54 -34 135 -104l186 100l66 -74l-176 -96q200 -191 274 -378t74 -486q0 -580 -412 -580q-410 0 -410 580zM285 551q0 -90 4 -152t16 -115.5t33 -84 t54 -47.5t81 -17t82 17t55.5 47.5t33 84t16 115.5t4.5 152q0 89 -7.5 152.5t-27 120t-58.5 85.5t-98 29q-58 0 -96.5 -29t-58 -85.5t-26.5 -120t-7 -152.5z" />
<glyph unicode="&#xf1;" horiz-adv-x="985" d="M106 0v1102h209v-129h7q41 74 115.5 115.5t166.5 41.5q133 0 204 -69.5t71 -229.5v-831h-222v756q0 107 -35 152.5t-118 45.5q-73 0 -124.5 -56.5t-51.5 -158.5v-739h-222zM184 1260q0 36 11.5 76t34.5 79t65 64.5t96 25.5q12 0 27.5 -4t23.5 -7t31 -12.5t27 -11.5 q78 -36 114 -36q32 0 47 22.5t15 54.5h127q0 -49 -18.5 -102.5t-60.5 -96t-97 -42.5q-50 0 -134 35.5t-112 35.5q-32 0 -51 -24t-19 -57h-127z" />
<glyph unicode="&#xf2;" d="M63 551q0 107 12 192t41 159t75 123t117 77t165 28q95 0 166.5 -28t118 -77t75 -123t40.5 -159t12 -192q0 -580 -412 -580q-410 0 -410 580zM219 1540h246l123 -295h-152zM285 551q0 -90 4 -152t16 -115.5t33 -84t54 -47.5t81 -17t82 17t55.5 47.5t33 84t16 115.5 t4.5 152q0 100 -7.5 169.5t-27 128.5t-58.5 88.5t-98 29.5q-47 0 -81 -20.5t-54.5 -55t-32.5 -89.5t-16 -113.5t-4 -137.5z" />
<glyph unicode="&#xf3;" d="M63 551q0 107 12 192t41 159t75 123t117 77t165 28q95 0 166.5 -28t118 -77t75 -123t40.5 -159t12 -192q0 -580 -412 -580q-410 0 -410 580zM285 551q0 -90 4 -152t16 -115.5t33 -84t54 -47.5t81 -17t82 17t55.5 47.5t33 84t16 115.5t4.5 152q0 100 -7.5 169.5t-27 128.5 t-58.5 88.5t-98 29.5q-47 0 -81 -20.5t-54.5 -55t-32.5 -89.5t-16 -113.5t-4 -137.5zM362 1245l123 295h246l-217 -295h-152z" />
<glyph unicode="&#xf4;" d="M63 551q0 107 12 192t41 159t75 123t117 77t165 28q95 0 166.5 -28t118 -77t75 -123t40.5 -159t12 -192q0 -580 -412 -580q-410 0 -410 580zM180 1245l187 295h221l182 -295h-186l-111 180l-117 -180h-176zM285 551q0 -90 4 -152t16 -115.5t33 -84t54 -47.5t81 -17t82 17 t55.5 47.5t33 84t16 115.5t4.5 152q0 100 -7.5 169.5t-27 128.5t-58.5 88.5t-98 29.5q-47 0 -81 -20.5t-54.5 -55t-32.5 -89.5t-16 -113.5t-4 -137.5z" />
<glyph unicode="&#xf5;" d="M63 551q0 107 12 192t41 159t75 123t117 77t165 28q95 0 166.5 -28t118 -77t75 -123t40.5 -159t12 -192q0 -580 -412 -580q-410 0 -410 580zM166 1260q0 36 11.5 76t34.5 79t65 64.5t96 25.5q12 0 27 -4t23.5 -7t30 -12.5t27.5 -11.5q78 -36 115 -36q32 0 46.5 22.5 t14.5 54.5h127q0 -49 -18.5 -102.5t-60.5 -96t-97 -42.5q-50 0 -134 35.5t-112 35.5q-32 0 -50.5 -24t-18.5 -57h-127zM285 551q0 -90 4 -152t16 -115.5t33 -84t54 -47.5t81 -17t82 17t55.5 47.5t33 84t16 115.5t4.5 152q0 100 -7.5 169.5t-27 128.5t-58.5 88.5t-98 29.5 q-47 0 -81 -20.5t-54.5 -55t-32.5 -89.5t-16 -113.5t-4 -137.5z" />
<glyph unicode="&#xf6;" d="M63 551q0 107 12 192t41 159t75 123t117 77t165 28q95 0 166.5 -28t118 -77t75 -123t40.5 -159t12 -192q0 -580 -412 -580q-410 0 -410 580zM207 1286v221h196v-221h-196zM285 551q0 -90 4 -152t16 -115.5t33 -84t54 -47.5t81 -17t82 17t55.5 47.5t33 84t16 115.5 t4.5 152q0 100 -7.5 169.5t-27 128.5t-58.5 88.5t-98 29.5q-47 0 -81 -20.5t-54.5 -55t-32.5 -89.5t-16 -113.5t-4 -137.5zM547 1286v221h196v-221h-196z" />
<glyph unicode="&#xf7;" horiz-adv-x="1228" d="M96 430v176h1037v-176h-1037zM467 98q0 62 43 105t104 43q62 0 105 -43t43 -105q0 -61 -43 -104t-105 -43t-104.5 42.5t-42.5 104.5zM467 938q0 62 42.5 104.5t104.5 42.5t105 -43t43 -104t-43 -104t-105 -43t-104.5 42.5t-42.5 104.5z" />
<glyph unicode="&#xf8;" d="M63 551q0 107 12 192t41 159t75 123t117 77t165 28q115 0 191 -40l61 133l98 -54l-67 -143q129 -129 129 -475q0 -107 -12 -192t-40.5 -159.5t-75 -123.5t-118 -77t-166.5 -28q-113 0 -190 39l-64 -137l-98 53l72 152q-130 130 -130 473zM285 551q0 -143 14 -238h4 l283 609q-45 45 -113 45q-47 0 -81 -20.5t-54.5 -55t-32.5 -89.5t-16 -113.5t-4 -137.5zM362 180q42 -45 111 -45q59 0 98 29.5t58.5 88.5t27 128.5t7.5 169.5q0 144 -17 240h-4z" />
<glyph unicode="&#xf9;" horiz-adv-x="985" d="M106 332v770h222v-791q0 -89 37.5 -126.5t111.5 -37.5q75 0 127.5 48.5t52.5 136.5v770h222v-1102h-209v129h-6q-41 -74 -116 -116t-167 -42q-65 0 -113 17t-85.5 56.5t-57 111.5t-19.5 176zM238 1540h245l123 -295h-151z" />
<glyph unicode="&#xfa;" horiz-adv-x="985" d="M106 332v770h222v-791q0 -89 37.5 -126.5t111.5 -37.5q75 0 127.5 48.5t52.5 136.5v770h222v-1102h-209v129h-6q-41 -74 -116 -116t-167 -42q-65 0 -113 17t-85.5 56.5t-57 111.5t-19.5 176zM381 1245l123 295h246l-218 -295h-151z" />
<glyph unicode="&#xfb;" horiz-adv-x="985" d="M106 332v770h222v-791q0 -89 37.5 -126.5t111.5 -37.5q75 0 127.5 48.5t52.5 136.5v770h222v-1102h-209v129h-6q-41 -74 -116 -116t-167 -42q-65 0 -113 17t-85.5 56.5t-57 111.5t-19.5 176zM199 1245l186 295h221l182 -295h-186l-110 180l-117 -180h-176z" />
<glyph unicode="&#xfc;" horiz-adv-x="985" d="M106 332v770h222v-791q0 -89 37.5 -126.5t111.5 -37.5q75 0 127.5 48.5t52.5 136.5v770h222v-1102h-209v129h-6q-41 -74 -116 -116t-167 -42q-65 0 -113 17t-85.5 56.5t-57 111.5t-19.5 176zM225 1286v221h197v-221h-197zM565 1286v221h197v-221h-197z" />
<glyph unicode="&#xfd;" horiz-adv-x="872" d="M16 1102h238l190 -828h5l176 828h231l-303 -1143q-22 -77 -42 -130t-45.5 -92t-51.5 -61t-65 -34.5t-79.5 -16t-101.5 -2.5q-30 0 -88 8v176q50 -8 72 -8q61 0 96 18t53 68l29 90zM324 1245l122 295h246l-217 -295h-151z" />
<glyph unicode="&#xfe;" horiz-adv-x="985" d="M106 -360v1822h222v-489h4q31 74 96 115.5t154 41.5q340 0 340 -593q0 -133 -21 -236t-54.5 -164t-79.5 -99.5t-90.5 -52.5t-94.5 -14q-88 0 -153.5 42t-96.5 116h-4v-489h-222zM315 563q0 -215 39.5 -315.5t149.5 -100.5q98 0 141 88.5t43 311.5q0 101 -7.5 170.5 t-27.5 125.5t-57.5 83.5t-93.5 27.5t-93.5 -27t-57.5 -81t-28 -121.5t-8 -161.5z" />
<glyph unicode="&#xff;" horiz-adv-x="872" d="M16 1102h238l190 -828h5l176 828h231l-303 -1143q-22 -77 -42 -130t-45.5 -92t-51.5 -61t-65 -34.5t-79.5 -16t-101.5 -2.5q-30 0 -88 8v176q50 -8 72 -8q61 0 96 18t53 68l29 90zM168 1286v221h197v-221h-197zM508 1286v221h197v-221h-197z" />
<glyph unicode="&#x152;" horiz-adv-x="1630" d="M86 731q0 390 112 575t343 185q196 0 274 -119h4v90h725v-196h-520v-406h487v-196h-487v-467h537v-197h-742v104h-4q-41 -66 -116.5 -99.5t-166.5 -33.5q-229 0 -337.5 182.5t-108.5 577.5zM319 737q0 -147 13 -254.5t34.5 -171t55 -101.5t68 -50.5t79.5 -12.5 q56 0 95 13.5t72.5 48.5t50 103.5t16.5 170.5v496q0 102 -16 170.5t-47.5 103.5t-67.5 48.5t-86 13.5q-51 0 -88.5 -12.5t-72.5 -49.5t-57 -100t-35.5 -167.5t-13.5 -248.5z" />
<glyph unicode="&#x153;" horiz-adv-x="1478" d="M63 551q0 135 19.5 236t64.5 180.5t124.5 121t193.5 41.5q58 0 106 -11.5t77 -27t55 -41.5t37.5 -43t27.5 -44q52 87 119.5 127t169.5 40q82 0 143.5 -22t102 -62t66 -102t36 -136t10.5 -169v-117h-551v-78q0 -314 162 -321q45 0 79 20t51.5 47.5t28.5 64t14 63t3 51.5 h209q0 -184 -103.5 -291t-283.5 -107q-57 0 -104.5 15.5t-75.5 36.5t-49 48.5t-29 44t-12 31.5q-86 -176 -303 -176q-109 0 -185.5 41.5t-120 121t-63 181.5t-19.5 236zM285 551q0 -100 7 -169.5t25.5 -128.5t55.5 -88.5t92 -29.5q40 0 70.5 13.5t51 40.5t34 62t21 84.5 t10.5 99.5t3 116t-3 116t-10.5 99.5t-21 84.5t-34 62t-51 40.5t-70.5 13.5q-55 0 -92 -29.5t-55.5 -88.5t-25.5 -128.5t-7 -169.5zM866 674h328v59q0 112 -38.5 179t-121.5 67q-47 0 -82 -26.5t-52.5 -68.5t-25.5 -83t-8 -80v-47z" />
<glyph unicode="&#x178;" horiz-adv-x="985" d="M-8 1462h260l246 -631l252 631h243l-391 -891v-571h-233v571zM225 1585v221h197v-221h-197zM565 1585v221h197v-221h-197z" />
<glyph unicode="&#x2c6;" horiz-adv-x="454" d="M-68 1245l187 295h221l182 -295h-186l-111 180l-116 -180h-177z" />
<glyph unicode="&#x2dc;" horiz-adv-x="454" d="M-82 1260q0 36 11.5 76t34.5 79t65 64.5t96 25.5q12 0 27 -4t23.5 -7t30 -12.5t27.5 -11.5q78 -36 115 -36q32 0 47 22.5t15 54.5h127q0 -49 -19 -102.5t-61 -96t-97 -42.5q-50 0 -133.5 35.5t-111.5 35.5q-32 0 -51 -24t-19 -57h-127z" />
<glyph unicode="&#x2000;" horiz-adv-x="974" />
<glyph unicode="&#x2001;" horiz-adv-x="1948" />
<glyph unicode="&#x2002;" horiz-adv-x="974" />
<glyph unicode="&#x2003;" horiz-adv-x="1948" />
<glyph unicode="&#x2004;" horiz-adv-x="649" />
<glyph unicode="&#x2005;" horiz-adv-x="487" />
<glyph unicode="&#x2006;" horiz-adv-x="324" />
<glyph unicode="&#x2007;" horiz-adv-x="324" />
<glyph unicode="&#x2008;" horiz-adv-x="243" />
<glyph unicode="&#x2009;" horiz-adv-x="389" />
<glyph unicode="&#x200a;" horiz-adv-x="108" />
<glyph unicode="&#x2010;" horiz-adv-x="720" d="M92 487v209h537v-209h-537z" />
<glyph unicode="&#x2011;" horiz-adv-x="720" d="M92 487v209h537v-209h-537z" />
<glyph unicode="&#x2012;" horiz-adv-x="720" d="M92 487v209h537v-209h-537z" />
<glyph unicode="&#x2013;" horiz-adv-x="1024" d="M0 494v196h1024v-196h-1024z" />
<glyph unicode="&#x2014;" horiz-adv-x="2048" d="M0 494v196h2048v-196h-2048z" />
<glyph unicode="&#x2018;" horiz-adv-x="491" d="M129 877v270q0 131 52.5 210.5t180.5 104.5v-119q-48 -12 -75 -55t-27 -110v-31h102v-270h-233z" />
<glyph unicode="&#x2019;" horiz-adv-x="491" d="M129 877v118q48 12 75 55.5t27 110.5v31h-102v270h233v-270q0 -131 -52.5 -210.5t-180.5 -104.5z" />
<glyph unicode="&#x201a;" horiz-adv-x="491" d="M129 0v270h233v-270q0 -131 -52.5 -210.5t-180.5 -104.5v118q48 12 75 55.5t27 110.5v31h-102z" />
<glyph unicode="&#x201c;" horiz-adv-x="872" d="M137 877v270q0 131 53 210.5t181 104.5v-119q-48 -12 -75.5 -55t-27.5 -110v-31h103v-270h-234zM502 877v270q0 131 52.5 210.5t180.5 104.5v-119q-48 -12 -75 -55t-27 -110v-31h102v-270h-233z" />
<glyph unicode="&#x201d;" horiz-adv-x="872" d="M137 877v118q48 12 75.5 55.5t27.5 110.5v31h-103v270h234v-270q0 -131 -53 -210.5t-181 -104.5zM502 877v118q48 12 75 55.5t27 110.5v31h-102v270h233v-270q0 -131 -52.5 -210.5t-180.5 -104.5z" />
<glyph unicode="&#x201e;" horiz-adv-x="872" d="M137 0v270h234v-270q0 -131 -53 -210.5t-181 -104.5v118q48 12 75.5 55.5t27.5 110.5v31h-103zM502 0v270h233v-270q0 -131 -52.5 -210.5t-180.5 -104.5v118q48 12 75 55.5t27 110.5v31h-102z" />
<glyph unicode="&#x2022;" horiz-adv-x="1024" d="M147 731q0 151 107 258t258 107t258 -107t107 -258t-107 -257.5t-258 -106.5t-258 106.5t-107 257.5z" />
<glyph unicode="&#x2026;" horiz-adv-x="2048" d="M225 0v270h234v-270h-234zM907 0v270h234v-270h-234zM1589 0v270h234v-270h-234z" />
<glyph unicode="&#x202f;" horiz-adv-x="389" />
<glyph unicode="&#x2039;" horiz-adv-x="491" d="M98 475v234l295 276v-225l-180 -168l180 -168v-225z" />
<glyph unicode="&#x203a;" horiz-adv-x="491" d="M98 199v225l181 168l-181 168v225l295 -276v-234z" />
<glyph unicode="&#x205f;" horiz-adv-x="487" />
<glyph unicode="&#x20ac;" horiz-adv-x="983" d="M0 506l49 139h96q-3 75 0 143h-145l49 140h105q18 305 182 434q112 88 301 88q123 0 213 -39q78 -36 133 -102l-70 -189q-34 75 -106 121q-69 45 -164 45q-107 0 -166 -67q-79 -88 -90 -291h459l-49 -140h-418q-3 -68 0 -143h379l-49 -139h-322q7 -205 90 -299 q64 -72 170 -72q92 0 174 43q81 41 129 117v-225q-45 -38 -94 -58q-93 -41 -213 -41q-194 0 -307 88q-53 42 -91 105t-56 130.5t-25.5 116.5t-9.5 95h-154z" />
<glyph unicode="&#x2122;" horiz-adv-x="2048" d="M66 1323v139h679v-139h-251v-705h-177v705h-251zM913 618v844h244l229 -598l230 598h244v-844h-164v668h-4l-248 -668h-115l-248 668h-4v-668h-164z" />
<glyph unicode="&#xe000;" horiz-adv-x="1105" d="M0 0v1106h1106v-1106h-1106z" />
</font>
</defs>
</svg>
