<?xml version="1.0" standalone="no"?>
<!DOCTYPE svg PUBLIC "-//W3C//DTD SVG 1.1//EN" "http://www.w3.org/Graphics/SVG/1.1/DTD/svg11.dtd" >
<svg>
<metadata>
Created by FontForge 20110222 at Wed Dec  5 11:51:02 2012
 By Stefan Warting
 The digitally encoded machine readable software for producing the
 Typefaces licensed to you is copyrighted (c) 1988, 1990, 1993, 2002 Adobe Systems.
 All Rights Reserved. This software is the property of Adobe Systems
 Incorporated and its licensors, and may not be reproduced, used, 
 displayed, modified, disclosed or transferred without the express 
 written approval of Adobe.
 
 The digitally encoded machine readable outline data for producing the Typefaces 
 provided as part of your laser printer is copyrighted (c) 1981, 2002 Heidelberger Druckmaschinen AG. 
 All rights reserved. This data is the property of Heidelberger Druckmaschinen AG, 
 and may not be reproduced, used, displayed, modified, disclosed or transferred 
 without the express written approval of Heidelberger Druckmaschinen AG. 
</metadata>
<defs>
<font id="HelveticaNeueLTStd-Th" horiz-adv-x="556" >
  <font-face 
    font-family="Helvetica Neue LT Std"
    font-weight="250"
    font-stretch="normal"
    units-per-em="1000"
    panose-1="2 11 4 3 2 2 2 2 2 4"
    ascent="714"
    descent="-286"
    x-height="514"
    cap-height="714"
    bbox="-169 -214 1041 927"
    underline-thickness="50"
    underline-position="-50"
    stemh="33"
    stemv="38"
    unicode-range="U+0020-FB02"
  />
<missing-glyph horiz-adv-x="500" 
d="M0 0v700h500v-700h-500zM250 395l170 255h-340zM280 350l170 -255v510zM80 50h340l-170 255zM50 605v-510l170 255z" />
    <glyph glyph-name="fi" unicode="fi" horiz-adv-x="389" 
d="M0 481v33h92v106c0 72 51 102 113 102c15 0 30 -2 45 -5v-33c-15 3 -30 5 -45 5c-42 0 -75 -15 -75 -72v-103h107v-33h-107v-481h-38v481h-92zM286 611v103h38v-103h-38zM286 0v514h38v-514h-38z" />
    <glyph glyph-name="fl" unicode="fl" horiz-adv-x="389" 
d="M0 481v33h92v106c0 72 51 102 113 102c15 0 30 -2 45 -5v-33c-15 3 -30 5 -45 5c-42 0 -75 -15 -75 -72v-103h107v-33h-107v-481h-38v481h-92zM286 0v714h38v-714h-38z" />
    <glyph glyph-name=".notdef" horiz-adv-x="500" 
d="M0 0v700h500v-700h-500zM250 395l170 255h-340zM280 350l170 -255v510zM80 50h340l-170 255zM50 605v-510l170 255z" />
    <glyph glyph-name="space" unicode=" " horiz-adv-x="278" 
 />
    <glyph glyph-name="exclam" unicode="!" horiz-adv-x="259" 
d="M106 714h48v-241l-12 -290h-24l-12 290v241zM155 0h-51v103h51v-103z" />
    <glyph glyph-name="quotedbl" unicode="&#x22;" horiz-adv-x="315" 
d="M80 485v229h38v-229h-38zM197 485v229h38v-229h-38z" />
    <glyph glyph-name="numbersign" unicode="#" 
d="M414 690h33l-31 -220h110v-33h-115l-24 -173h111v-33h-116l-32 -231h-33l32 231h-169l-32 -231h-33l32 231h-117v33h122l24 173h-118v33h123l31 220h33l-31 -220h169zM209 437l-24 -173h169l24 173h-169z" />
    <glyph glyph-name="dollar" unicode="$" 
d="M290 347v-326c114 0 211 47 211 162c0 76 -46 123 -150 149zM258 393v300c-135 -5 -186 -69 -186 -152c0 -94 64 -121 145 -139zM258 -105v88c-147 13 -246 80 -246 252h38c0 -125 70 -206 208 -214v333l-47 11c-85 20 -177 53 -177 176c0 44 13 183 224 190v49h32v-49
c138 -3 227 -68 232 -220h-38c-8 131 -79 180 -194 183v-310l78 -19c132 -32 171 -100 171 -182c0 -147 -125 -198 -249 -200v-88h-32z" />
    <glyph glyph-name="percent" unicode="%" horiz-adv-x="778" 
d="M572 -12c-101 0 -166 80 -166 177c0 99 63 179 167 179c105 0 165 -77 165 -179c0 -95 -65 -177 -166 -177zM571 21c80 0 129 71 129 144c0 78 -44 146 -128 146c-83 0 -128 -69 -128 -146c0 -73 49 -144 127 -144zM206 346c-101 0 -166 80 -166 177c0 99 63 179 167 179
c105 0 165 -77 165 -179c0 -95 -65 -177 -166 -177zM205 379c80 0 129 71 129 144c0 78 -44 146 -128 146c-83 0 -128 -69 -128 -146c0 -73 49 -144 127 -144zM138 -24l465 738h40l-465 -738h-40z" />
    <glyph glyph-name="ampersand" unicode="&#x26;" horiz-adv-x="593" 
d="M262 412c58 38 132 85 132 167c0 54 -57 90 -112 90s-112 -36 -112 -90c0 -69 60 -119 92 -167zM433 137l-184 229c-74 -48 -168 -95 -168 -196c0 -94 87 -149 174 -149c120 0 179 110 178 116zM545 0l-87 106c-44 -73 -117 -118 -203 -118c-119 0 -212 61 -212 182
c0 117 104 172 186 224c-44 55 -97 110 -97 185c0 74 76 123 150 123c78 0 150 -43 150 -123c0 -102 -78 -144 -148 -195l170 -209c14 37 24 78 24 119h38c-3 -52 -16 -105 -36 -151l116 -143h-51z" />
    <glyph glyph-name="quoteright" unicode="&#x2019;" horiz-adv-x="204" 
d="M125 714v-103c0 -53 -15 -108 -64 -126v33c29 13 34 66 34 93h-21v103h51z" />
    <glyph glyph-name="parenleft" unicode="(" horiz-adv-x="241" 
d="M228 -184h-34c-81 133 -129 292 -129 450c0 162 49 326 131 465h35c-83 -141 -128 -302 -128 -465c0 -158 42 -314 125 -450z" />
    <glyph glyph-name="parenright" unicode=")" horiz-adv-x="241" 
d="M13 731h34c81 -133 129 -292 129 -450c0 -162 -49 -326 -131 -465h-35c83 141 128 302 128 465c0 158 -42 314 -125 450z" />
    <glyph glyph-name="asterisk" unicode="*" horiz-adv-x="352" 
d="M161 714h29v-130l122 41l10 -28l-123 -41l76 -102l-22 -20l-77 106l-80 -106l-24 20l81 102l-124 41l9 28l123 -41v130z" />
    <glyph glyph-name="plus" unicode="+" horiz-adv-x="600" 
d="M281 271v233h38v-233h233v-38h-233v-233h-38v233h-233v38h233z" />
    <glyph glyph-name="comma" unicode="," horiz-adv-x="278" 
d="M100 -126v33c29 13 34 66 34 93h-21v103h51v-103c0 -53 -15 -108 -64 -126z" />
    <glyph glyph-name="hyphen" unicode="-" horiz-adv-x="352" 
d="M283 253h-214v38h214v-38z" />
    <glyph glyph-name="period" unicode="." horiz-adv-x="278" 
d="M164 0h-51v103h51v-103z" />
    <glyph glyph-name="slash" unicode="/" horiz-adv-x="333" 
d="M28 -17h-41l318 748h41z" />
    <glyph glyph-name="zero" unicode="0" 
d="M278 -12c-199 0 -250 191 -250 357s51 357 250 357s250 -191 250 -357s-51 -357 -250 -357zM278 21c173 0 212 185 212 324s-39 324 -212 324s-212 -185 -212 -324s39 -324 212 -324z" />
    <glyph glyph-name="one" unicode="1" 
d="M331 690v-690h-38v616c-49 -52 -116 -81 -185 -88v33c80 12 148 59 189 129h34z" />
    <glyph glyph-name="two" unicode="2" 
d="M94 38h412v-38h-460c8 129 110 200 211 267c100 67 200 131 200 247c0 94 -80 155 -170 155c-126 0 -186 -93 -186 -212h-38c8 165 83 245 218 245c117 0 214 -62 214 -189c0 -121 -95 -197 -194 -263s-200 -127 -207 -212z" />
    <glyph glyph-name="three" unicode="3" 
d="M36 228h38c-5 -128 74 -207 201 -207c102 0 198 60 198 170c0 132 -118 167 -232 159v33c101 -4 216 25 216 145c0 97 -98 141 -182 141c-121 0 -179 -83 -184 -197h-38c1 136 85 230 222 230c111 0 220 -51 220 -174c0 -82 -54 -147 -135 -158v-2
c94 -11 151 -84 151 -177c0 -136 -108 -203 -236 -203c-152 0 -246 86 -239 240z" />
    <glyph glyph-name="four" unicode="4" 
d="M365 690h38v-481h116v-33h-116v-176h-38v176h-336v38zM365 209v429h-2l-296 -429h298z" />
    <glyph glyph-name="five" unicode="5" 
d="M58 333l72 357h349v-33h-319l-59 -275l2 -2c40 55 102 83 171 83c137 0 234 -98 234 -235s-96 -240 -234 -240c-132 0 -246 84 -237 223h38c-2 -115 88 -190 199 -190c117 0 196 94 196 207c0 112 -83 202 -196 202c-78 0 -133 -33 -177 -97h-39z" />
    <glyph glyph-name="six" unicode="6" 
d="M288 21c111 0 193 90 193 199c0 108 -81 203 -193 203c-114 0 -195 -91 -195 -203c0 -114 87 -199 195 -199zM507 520h-38c-15 89 -82 149 -173 149c-190 0 -216 -223 -216 -359l2 -2c30 89 114 148 206 148c136 0 231 -101 231 -236c0 -133 -98 -232 -231 -232
c-193 0 -246 155 -246 323c0 170 41 391 254 391c115 0 198 -66 211 -182z" />
    <glyph glyph-name="seven" unicode="7" 
d="M56 657v33h445v-38c-139 -154 -265 -312 -297 -652h-44c15 197 66 402 303 657h-407z" />
    <glyph glyph-name="eight" unicode="8" 
d="M479 198c0 115 -93 161 -201 161s-201 -46 -201 -161c0 -122 95 -177 201 -177s201 55 201 177zM65 529c0 130 106 173 213 173s213 -43 213 -173c0 -77 -43 -135 -127 -151v-2c94 -11 153 -80 153 -178c0 -143 -107 -210 -239 -210s-239 67 -239 210
c0 98 59 167 153 178v2c-84 16 -127 74 -127 151zM453 529c0 105 -84 140 -175 140s-175 -35 -175 -140c0 -98 86 -137 175 -137s175 39 175 137z" />
    <glyph glyph-name="nine" unicode="9" 
d="M279 267c114 0 195 91 195 203c0 110 -84 199 -195 199s-195 -90 -195 -199s84 -203 195 -203zM55 170h38c15 -89 82 -149 173 -149c190 0 216 228 216 351l-2 2c-28 -76 -94 -140 -201 -140c-138 0 -233 98 -233 236c0 136 98 232 233 232c106 0 241 -47 241 -323
c0 -170 -41 -391 -254 -391c-115 0 -198 66 -211 182z" />
    <glyph glyph-name="colon" unicode=":" horiz-adv-x="278" 
d="M113 514h51v-103h-51v103zM164 0h-51v103h51v-103z" />
    <glyph glyph-name="semicolon" unicode=";" horiz-adv-x="278" 
d="M100 -126v33c29 13 34 66 34 93h-21v103h51v-103c0 -53 -15 -108 -64 -126zM113 514h51v-103h-51v103z" />
    <glyph glyph-name="less" unicode="&#x3c;" horiz-adv-x="600" 
d="M554 514v-42l-475 -218l475 -220v-42l-508 236v52z" />
    <glyph glyph-name="equal" unicode="=" horiz-adv-x="600" 
d="M552 369v-38h-504v38h504zM552 175v-38h-504v38h504z" />
    <glyph glyph-name="greater" unicode="&#x3e;" horiz-adv-x="600" 
d="M46 -8v42l475 218l-475 220v42l508 -236v-52z" />
    <glyph glyph-name="question" unicode="?" horiz-adv-x="519" 
d="M81 493h-38c0 142 77 238 222 238c106 0 196 -58 196 -179c0 -86 -44 -126 -89 -170c-45 -39 -98 -84 -98 -201h-38c0 106 40 159 88 205c49 46 99 96 99 166c0 99 -78 141 -161 141c-120 0 -181 -86 -181 -200zM231 0v103h51v-103h-51z" />
    <glyph glyph-name="at" unicode="@" horiz-adv-x="800" 
d="M425 547c-113 0 -192 -155 -192 -260c0 -74 45 -122 103 -122c39 0 84 34 116 79c38 53 65 132 65 185c0 37 -8 118 -92 118zM609 560l-96 -296c-7 -21 -16 -46 -16 -60c0 -20 18 -34 39 -34c91 0 180 140 180 253c0 167 -151 275 -299 275c-183 0 -333 -158 -333 -345
c0 -197 168 -337 335 -337c110 0 215 60 275 152h44c-62 -114 -190 -185 -319 -185c-213 0 -373 168 -373 377c0 205 169 371 369 371c189 0 339 -130 339 -311c0 -151 -125 -288 -229 -288c-35 0 -65 23 -66 71h-2c-32 -46 -80 -71 -134 -71c-76 0 -128 69 -128 150
c0 139 98 298 236 298c64 0 104 -44 112 -91h2l23 71h41z" />
    <glyph glyph-name="A" unicode="A" horiz-adv-x="593" 
d="M275 714h48l282 -714h-47l-90 229h-342l-91 -229h-47zM140 267h314l-153 404h-2z" />
    <glyph glyph-name="B" unicode="B" horiz-adv-x="630" 
d="M107 352v-314h242c126 0 205 56 205 162c0 122 -111 152 -205 152h-242zM63 0v714h286c170 0 225 -93 225 -185c0 -77 -56 -142 -139 -152l2 -2c19 3 161 -31 161 -175c0 -130 -100 -200 -249 -200h-286zM107 676v-286h242c119 0 181 60 181 147c0 103 -86 139 -181 139
h-242z" />
    <glyph glyph-name="C" unicode="C" horiz-adv-x="704" 
d="M663 501h-44c-19 120 -124 192 -243 192c-187 0 -296 -153 -296 -336s109 -336 296 -336c139 0 247 124 255 257h44c-16 -170 -142 -295 -299 -295c-214 0 -340 165 -340 374s126 374 340 374c253 0 286 -220 287 -230z" />
    <glyph glyph-name="D" unicode="D" horiz-adv-x="667" 
d="M107 676v-638h192c133 0 284 73 284 320c0 292 -187 318 -293 318h-183zM63 0v714h234c255 0 330 -175 330 -356c0 -202 -103 -358 -332 -358h-232z" />
    <glyph glyph-name="E" unicode="E" horiz-adv-x="560" 
d="M107 38h441v-38h-485v714h480v-38h-436v-286h410v-38h-410v-314z" />
    <glyph glyph-name="F" unicode="F" horiz-adv-x="514" 
d="M471 352h-364v-352h-44v714h448v-38h-404v-286h364v-38z" />
    <glyph glyph-name="G" unicode="G" horiz-adv-x="741" 
d="M382 350h301v-350h-38v152h-2c-35 -104 -144 -169 -270 -169c-216 0 -336 165 -336 370c0 202 122 378 337 378c147 0 272 -89 297 -238h-42c-33 123 -124 200 -254 200c-193 0 -294 -162 -294 -340c0 -182 98 -332 294 -332c170 0 277 116 270 291h-263v38z" />
    <glyph glyph-name="H" unicode="H" horiz-adv-x="670" 
d="M563 352h-456v-352h-44v714h44v-324h456v324h44v-714h-44v352z" />
    <glyph glyph-name="I" unicode="I" horiz-adv-x="170" 
d="M63 0v714h44v-714h-44z" />
    <glyph glyph-name="J" unicode="J" horiz-adv-x="481" 
d="M20 227h44c-7 -106 11 -206 153 -206c165 0 157 117 157 216v477h44v-492c0 -84 3 -239 -196 -239c-193 0 -202 137 -202 244z" />
    <glyph glyph-name="K" unicode="K" horiz-adv-x="613" 
d="M63 0v714h44v-411l449 411h57l-326 -297l346 -417h-55l-323 387l-148 -135v-252h-44z" />
    <glyph glyph-name="L" unicode="L" horiz-adv-x="500" 
d="M63 0v714h44v-676h405v-38h-449z" />
    <glyph glyph-name="M" unicode="M" horiz-adv-x="809" 
d="M63 0v714h63l279 -665h2l276 665h63v-714h-44v660h-2l-272 -660h-44l-275 660h-2v-660h-44z" />
    <glyph glyph-name="N" unicode="N" horiz-adv-x="678" 
d="M63 0v714h55l451 -655h2v655h44v-714h-52l-454 660h-2v-660h-44z" />
    <glyph glyph-name="O" unicode="O" horiz-adv-x="741" 
d="M710 357c0 -209 -126 -374 -339 -374c-214 0 -340 165 -340 374s126 374 340 374c213 0 339 -165 339 -374zM75 357c0 -183 109 -336 296 -336c186 0 295 153 295 336s-109 336 -295 336c-187 0 -296 -153 -296 -336z" />
    <glyph glyph-name="P" unicode="P" horiz-adv-x="591" 
d="M107 676v-320h251c129 0 173 85 173 159c0 53 -24 161 -167 161h-257zM63 0v714h304c81 0 208 -29 208 -200c0 -125 -82 -196 -224 -196h-244v-318h-44z" />
    <glyph glyph-name="Q" unicode="Q" horiz-adv-x="741" 
d="M453 182l115 -83c64 62 98 156 98 258c0 183 -109 336 -295 336c-187 0 -296 -153 -296 -336s109 -336 296 -336c66 0 122 19 167 53l-108 77zM691 -37l-118 85c-54 -42 -122 -65 -202 -65c-214 0 -340 165 -340 374s126 374 340 374c213 0 339 -165 339 -374
c0 -116 -38 -217 -107 -283l111 -80z" />
    <glyph glyph-name="R" unicode="R" horiz-adv-x="630" 
d="M107 363h254c104 0 182 49 182 164c0 108 -86 149 -182 149h-254v-313zM63 0v714h298c125 0 226 -46 226 -184c0 -96 -58 -167 -153 -183v-2c106 -12 132 -79 139 -153s-5 -154 24 -192h-49c-27 49 -11 131 -19 200c-9 69 -43 125 -168 125h-254v-325h-44z" />
    <glyph glyph-name="S" unicode="S" horiz-adv-x="630" 
d="M573 510h-44c-5 122 -97 183 -229 183c-81 0 -196 -34 -196 -152c0 -115 122 -134 243 -159c122 -25 244 -56 244 -198c0 -148 -142 -201 -251 -201c-167 0 -303 69 -301 253h44c-9 -156 116 -215 257 -215c86 0 207 39 207 163c0 121 -122 142 -244 167
c-121 25 -243 54 -243 190c0 137 127 190 240 190c149 0 266 -64 273 -221z" />
    <glyph glyph-name="T" unicode="T" horiz-adv-x="519" 
d="M237 676h-251v38h547v-38h-252v-676h-44v676z" />
    <glyph glyph-name="U" unicode="U" horiz-adv-x="672" 
d="M63 714h44v-428c0 -86 18 -265 224 -265c175 0 234 103 234 265v428h44v-428c0 -170 -64 -303 -278 -303c-254 0 -268 208 -268 303v428z" />
    <glyph glyph-name="V" unicode="V" 
d="M32 714l245 -676h2l247 676h44l-267 -714h-51l-266 714h46z" />
    <glyph glyph-name="W" unicode="W" horiz-adv-x="889" 
d="M200 0l-206 714h45l186 -667h2l189 667h55l192 -667h2l183 667h47l-205 -714h-50l-196 676h-2l-193 -676h-49z" />
    <glyph glyph-name="X" unicode="X" 
d="M251 367l-250 347h51l226 -314l231 314h50l-252 -347l266 -367h-53l-242 334l-243 -334h-52z" />
    <glyph glyph-name="Y" unicode="Y" horiz-adv-x="574" 
d="M287 336l259 378h49l-287 -415v-299h-44v299l-285 415h50z" />
    <glyph glyph-name="Z" unicode="Z" horiz-adv-x="537" 
d="M28 676v38h501v-38l-484 -638h493v-38h-539v38l482 638h-453z" />
    <glyph glyph-name="bracketleft" unicode="[" horiz-adv-x="241" 
d="M231 698h-99v-849h99v-33h-137v915h137v-33z" />
    <glyph glyph-name="backslash" unicode="\" horiz-adv-x="333" 
d="M346 -17h-41l-318 748h41z" />
    <glyph glyph-name="bracketright" unicode="]" horiz-adv-x="241" 
d="M10 -151h99v849h-99v33h137v-915h-137v33z" />
    <glyph glyph-name="asciicircum" unicode="^" horiz-adv-x="600" 
d="M561 237h-42l-218 420l-220 -420h-42l236 453h52z" />
    <glyph glyph-name="underscore" unicode="_" horiz-adv-x="500" 
d="M500 -125h-500v50h500v-50z" />
    <glyph glyph-name="quoteleft" unicode="&#x2018;" horiz-adv-x="204" 
d="M143 714v-33c-29 -13 -34 -66 -34 -93h21v-103h-51v103c0 53 15 108 64 126z" />
    <glyph glyph-name="a" unicode="a" horiz-adv-x="500" 
d="M397 196v96c-30 -34 -112 -30 -186 -40c-90 -10 -141 -42 -141 -119c0 -62 45 -112 135 -112c173 0 192 148 192 175zM435 392v-297c0 -30 0 -62 34 -62c7 0 16 1 28 3v-32c-11 -2 -21 -4 -31 -4c-60 0 -69 33 -69 75v27h-2c-24 -61 -93 -114 -191 -114
c-97 0 -172 37 -172 145c0 120 104 145 189 152c170 12 177 23 177 107c0 23 -26 101 -143 101c-92 0 -153 -48 -158 -137h-38c5 113 75 170 196 170c90 0 180 -28 180 -134z" />
    <glyph glyph-name="b" unicode="b" 
d="M300 21c135 0 185 130 185 248c0 114 -62 224 -185 224c-134 0 -196 -95 -196 -224c0 -126 56 -248 196 -248zM65 0v714h38v-309h2c29 80 112 121 195 121c151 0 223 -114 223 -257c0 -245 -152 -281 -223 -281c-135 0 -187 100 -195 127h-2v-115h-38z" />
    <glyph glyph-name="c" unicode="c" horiz-adv-x="519" 
d="M481 355h-38c-7 91 -81 138 -174 138c-129 0 -198 -114 -198 -231c0 -139 65 -241 198 -241c96 0 166 66 179 160h38c-17 -123 -106 -193 -217 -193c-167 0 -236 131 -236 274s84 264 236 264c111 0 201 -54 212 -171z" />
    <glyph glyph-name="d" unicode="d" 
d="M262 21c130 0 190 117 190 235c0 120 -59 237 -191 237c-136 0 -191 -113 -191 -237c0 -121 60 -235 192 -235zM453 0v110h-2c-42 -81 -105 -122 -197 -122c-155 0 -222 126 -222 268c0 152 74 270 229 270c84 0 163 -46 190 -127h2v315h38v-714h-38z" />
    <glyph glyph-name="e" unicode="e" horiz-adv-x="519" 
d="M486 252h-415c-2 -121 62 -231 189 -231c97 0 166 58 184 153h38c-20 -120 -100 -186 -222 -186c-150 0 -229 118 -227 260c-2 141 72 278 227 278c161 0 233 -127 226 -274zM71 285h377c-2 108 -70 208 -188 208c-114 0 -181 -106 -189 -208z" />
    <glyph glyph-name="f" unicode="f" horiz-adv-x="241" 
d="M92 481h-92v33h92v106c0 72 51 102 113 102c15 0 30 -2 45 -5v-33c-15 3 -30 5 -45 5c-42 0 -75 -15 -75 -72v-103h107v-33h-107v-481h-38v481z" />
    <glyph glyph-name="g" unicode="g" horiz-adv-x="537" 
d="M255 493c-124 0 -184 -111 -184 -220c0 -121 63 -221 184 -221c125 0 187 105 187 221c0 115 -61 220 -187 220zM443 514h38v-487c0 -40 0 -230 -222 -223c-110 0 -195 41 -201 160h38c8 -91 80 -127 164 -127c180 0 183 147 183 181v118h-2c-36 -76 -99 -117 -186 -117
c-151 0 -222 111 -222 254c0 136 77 253 222 253c80 0 158 -42 186 -119h2v107z" />
    <glyph glyph-name="h" unicode="h" horiz-adv-x="519" 
d="M56 714h38v-310h2c26 77 104 122 184 122c181 0 183 -145 183 -208v-318h-38v325c0 53 -6 168 -146 168c-115 0 -185 -89 -185 -215v-278h-38v714z" />
    <glyph glyph-name="i" unicode="i" horiz-adv-x="168" 
d="M103 0h-38v514h38v-514zM103 611h-38v103h38v-103z" />
    <glyph glyph-name="j" unicode="j" horiz-adv-x="168" 
d="M65 514h38v-569c0 -69 -17 -129 -105 -129c-10 0 -22 0 -32 1v33c6 -1 14 -2 25 -2c54 0 74 22 74 100v566zM103 611h-38v103h38v-103z" />
    <glyph glyph-name="k" unicode="k" horiz-adv-x="463" 
d="M58 0v714h38v-473l317 273h55l-225 -192l241 -322h-52l-219 293l-117 -99v-194h-38z" />
    <glyph glyph-name="l" unicode="l" horiz-adv-x="168" 
d="M65 714h38v-714h-38v714z" />
    <glyph glyph-name="m" unicode="m" horiz-adv-x="796" 
d="M57 0v514h38v-105h2c16 65 84 117 161 117c98 0 144 -56 155 -109h2c30 70 80 109 163 109c93 0 161 -54 161 -175v-351h-38v352c0 131 -93 141 -123 141c-93 0 -161 -66 -161 -189v-304h-38v352c0 129 -88 141 -121 141c-73 0 -163 -57 -163 -189v-304h-38z" />
    <glyph glyph-name="n" unicode="n" horiz-adv-x="519" 
d="M56 0v514h38v-110h2c26 77 104 122 184 122c181 0 183 -145 183 -208v-318h-38v325c0 53 -6 168 -146 168c-115 0 -185 -89 -185 -215v-278h-38z" />
    <glyph glyph-name="o" unicode="o" horiz-adv-x="537" 
d="M32 257c0 146 85 269 236 269s236 -123 236 -269s-85 -269 -236 -269s-236 123 -236 269zM70 257c0 -123 69 -236 198 -236s198 113 198 236s-69 236 -198 236s-198 -113 -198 -236z" />
    <glyph glyph-name="p" unicode="p" 
d="M292 21c134 0 193 108 193 235c0 117 -55 237 -193 237c-137 0 -188 -115 -188 -237s43 -235 188 -235zM103 514v-118h2c16 51 74 130 187 130c158 0 231 -125 231 -270c0 -156 -74 -268 -231 -268c-85 0 -157 36 -187 119h-2v-291h-38v698h38z" />
    <glyph glyph-name="q" unicode="q" 
d="M261 21c132 0 191 117 191 237c0 118 -60 235 -190 235c-132 0 -192 -114 -192 -235c0 -124 55 -237 191 -237zM453 -184v299h-2c-27 -81 -106 -127 -190 -127c-155 0 -229 118 -229 270c0 142 67 268 222 268c92 0 155 -41 197 -122h2v110h38v-698h-38z" />
    <glyph glyph-name="r" unicode="r" horiz-adv-x="278" 
d="M94 514v-114h3c20 67 104 121 197 117v-38c-40 5 -96 -5 -142 -50c-38 -39 -54 -71 -58 -148v-281h-38v514h38z" />
    <glyph glyph-name="s" unicode="s" horiz-adv-x="481" 
d="M36 171h38c6 -95 77 -150 170 -150c67 0 163 20 163 109c0 87 -88 100 -176 118c-89 18 -177 41 -177 146c0 102 99 132 186 132c109 0 190 -47 190 -164h-38c-1 93 -66 131 -152 131c-70 0 -148 -26 -148 -99c0 -82 88 -95 171 -113c102 -19 182 -43 182 -151
c0 -111 -111 -142 -201 -142c-117 0 -205 63 -208 183z" />
    <glyph glyph-name="t" unicode="t" horiz-adv-x="259" 
d="M245 514v-33h-112v-359c0 -83 39 -91 111 -89v-33c-78 -5 -153 6 -149 122v359h-95v33h95v160h38v-160h112z" />
    <glyph glyph-name="u" unicode="u" horiz-adv-x="519" 
d="M463 514v-514h-38v110h-2c-26 -77 -104 -122 -184 -122c-181 0 -183 145 -183 208v318h38v-325c0 -53 6 -168 146 -168c115 0 185 89 185 215v278h38z" />
    <glyph glyph-name="v" unicode="v" horiz-adv-x="444" 
d="M446 514l-194 -514h-47l-207 514h44l186 -470h2l174 470h42z" />
    <glyph glyph-name="w" unicode="w" horiz-adv-x="704" 
d="M39 514l145 -470h2l140 470h51l141 -470h2l144 470h42l-165 -514h-47l-141 466h-2l-142 -466h-48l-163 514h41z" />
    <glyph glyph-name="x" unicode="x" horiz-adv-x="444" 
d="M-6 0l202 270l-188 244h53l161 -215l162 215h49l-186 -244l203 -270h-52l-176 241l-180 -241h-48z" />
    <glyph glyph-name="y" unicode="y" horiz-adv-x="444" 
d="M209 3l-215 511h45l191 -469l176 469h43l-220 -569c-21 -50 -38 -89 -60 -106c-27 -21 -62 -23 -120 -23v33c54 0 81 7 107 33c15 15 29 53 53 121z" />
    <glyph glyph-name="z" unicode="z" horiz-adv-x="426" 
d="M55 33h362v-33h-408v36l345 445h-318v33h365v-36z" />
    <glyph glyph-name="braceleft" unicode="{" horiz-adv-x="333" 
d="M293 731v-33h-48c-41 0 -52 -27 -52 -103v-157c0 -133 -57 -155 -70 -162c13 -12 70 -34 70 -167v-157c0 -76 11 -103 52 -103h48v-33h-50c-56 0 -88 27 -88 118v158c0 81 -14 160 -72 162v38c58 2 72 81 72 162v159c0 91 32 118 88 118h50z" />
    <glyph glyph-name="bar" unicode="|" horiz-adv-x="222" 
d="M92 -214v1000h38v-1000h-38z" />
    <glyph glyph-name="braceright" unicode="}" horiz-adv-x="333" 
d="M40 -184v33h48c41 0 52 27 52 103v157c0 133 57 155 70 167c-13 7 -70 29 -70 162v157c0 76 -11 103 -52 103h-48v33h50c56 0 88 -27 88 -118v-159c0 -81 14 -160 72 -162v-38c-58 -2 -72 -81 -72 -162v-158c0 -91 -32 -118 -88 -118h-50z" />
    <glyph glyph-name="asciitilde" unicode="~" horiz-adv-x="600" 
d="M500 312l28 -28c-26 -40 -63 -85 -121 -85c-37 0 -69 15 -114 38c-22 11 -66 30 -92 30c-59 0 -85 -43 -99 -75l-29 30c31 51 61 83 122 83c40 0 66 -12 111 -32c28 -13 60 -36 102 -36c39 0 75 43 92 75z" />
    <glyph glyph-name="exclamdown" unicode="&#xa1;" horiz-adv-x="259" 
d="M153 -184h-48v241l12 290h24l12 -290v-241zM104 535h51v-103h-51v103z" />
    <glyph glyph-name="cent" unicode="&#xa2;" 
d="M272 21v472c-119 -9 -183 -118 -183 -231c0 -134 60 -234 183 -241zM272 -118v106c-156 7 -221 135 -221 274c0 138 79 257 221 264v89h32v-89c104 -5 185 -61 195 -171h-38c-7 85 -71 132 -157 138v-472c88 7 150 72 162 160h38c-16 -116 -96 -186 -200 -193v-106h-32z
" />
    <glyph glyph-name="sterling" unicode="&#xa3;" 
d="M50 330v33h60c-30 54 -60 112 -60 176c0 125 108 192 227 192c155 0 239 -83 235 -247h-38c-1 135 -60 209 -196 209c-116 0 -190 -58 -190 -152c0 -72 40 -126 65 -178h160v-33h-141c13 -20 23 -58 23 -108c0 -76 -48 -147 -99 -191l2 -2c29 20 59 36 94 36
c41 0 73 -11 104 -23c30 -10 59 -21 91 -21c59 0 98 34 135 68l22 -33c-39 -41 -93 -73 -151 -73c-41 0 -75 11 -108 22c-32 11 -63 22 -96 22c-51 0 -78 -18 -120 -44l-25 34c56 54 113 118 113 207c0 40 -12 80 -29 106h-78z" />
    <glyph glyph-name="fraction" unicode="&#x2044;" horiz-adv-x="167" 
d="M-169 -24l465 738h40l-465 -738h-40z" />
    <glyph glyph-name="yen" unicode="&#xa5;" 
d="M-7 714h48l238 -374l239 374h45l-238 -372h92v-33h-120v-78h120v-33h-120v-198h-38v198h-120v33h120v78h-120v33h92z" />
    <glyph glyph-name="florin" unicode="&#x192;" 
d="M5 -178l7 37c17 -3 33 -5 50 -5c57 0 90 57 105 138l79 404h-112l7 33h111l33 169c14 68 54 133 147 133c19 0 39 -1 61 -6l-8 -38c-21 4 -39 6 -54 6c-49 0 -90 -27 -105 -100l-32 -164h120l-5 -33h-121l-80 -409c-11 -57 -37 -171 -150 -171c-17 0 -34 2 -53 6z" />
    <glyph glyph-name="section" unicode="&#xa7;" 
d="M339 359l-152 90c-47 -18 -97 -57 -97 -112c0 -69 60 -106 108 -135c55 -33 111 -66 165 -101c11 -3 46 17 67 34c20 18 35 46 35 78c0 69 -71 114 -126 146zM449 536h-38c4 81 -47 162 -136 162c-59 2 -127 -40 -128 -105c0 -91 90 -134 177 -180
c88 -46 179 -93 179 -200c0 -77 -47 -119 -111 -136c40 -37 57 -66 57 -123c0 -100 -78 -138 -168 -138c-116 0 -182 80 -182 193h38c3 -88 47 -160 143 -160c79 0 131 32 131 105c0 88 -91 132 -180 180c-100 58 -184 105 -179 203c0 64 53 113 111 134
c-46 33 -59 98 -54 122c0 82 82 142 166 138c115 0 173 -77 174 -195z" />
    <glyph glyph-name="currency" unicode="&#xa4;" 
d="M519 131l-27 -27l-53 54c-47 -41 -105 -61 -162 -61s-114 20 -160 61l-55 -56l-27 27l56 55c-40 47 -60 104 -61 161c0 57 20 115 61 161l-57 56l27 27l56 -56c46 39 103 59 160 60c57 0 115 -20 162 -61l54 55l27 -27l-55 -54c41 -46 61 -104 61 -161s-20 -115 -61 -160
zM278 135c110 0 204 94 204 210s-94 210 -204 210s-204 -94 -204 -210s94 -210 204 -210z" />
    <glyph glyph-name="quotesingle" unicode="'" horiz-adv-x="204" 
d="M83 485v229h38v-229h-38z" />
    <glyph glyph-name="quotedblleft" unicode="&#x201c;" horiz-adv-x="315" 
d="M128 714v-33c-29 -13 -34 -66 -34 -93h21v-103h-51v103c0 53 15 108 64 126zM254 714v-33c-29 -13 -34 -66 -34 -93h21v-103h-51v103c0 53 15 108 64 126z" />
    <glyph glyph-name="guillemotleft" unicode="&#xab;" horiz-adv-x="389" 
d="M181 121l-114 131v40l114 131v-51l-85 -100l85 -102v-49zM309 121l-114 131v40l114 131v-51l-85 -100l85 -102v-49z" />
    <glyph glyph-name="guilsinglleft" unicode="&#x2039;" horiz-adv-x="259" 
d="M181 121l-114 131v40l114 131v-51l-85 -100l85 -102v-49z" />
    <glyph glyph-name="guilsinglright" unicode="&#x203a;" horiz-adv-x="259" 
d="M78 121v49l85 102l-85 100v51l114 -131v-40z" />
    <glyph glyph-name="endash" unicode="&#x2013;" horiz-adv-x="500" 
d="M0 253v38h500v-38h-500z" />
    <glyph glyph-name="dagger" unicode="&#x2020;" 
d="M54 514h205v200h38v-200h205v-33h-205v-627h-38v627h-205v33z" />
    <glyph glyph-name="daggerdbl" unicode="&#x2021;" 
d="M259 714h38v-200h205v-33h-205v-394h205v-33h-205v-200h-38v200h-205v33h205v394h-205v33h205v200z" />
    <glyph glyph-name="periodcentered" unicode="&#xb7;" horiz-adv-x="278" 
d="M85 317c0 28 26 54 54 54s55 -25 55 -54s-26 -55 -55 -55s-54 27 -54 55z" />
    <glyph glyph-name="paragraph" unicode="&#xb6;" horiz-adv-x="600" 
d="M273 -146v470c-117 0 -207 89 -207 194c0 128 83 196 223 196h217v-860h-38v827h-157v-827h-38z" />
    <glyph glyph-name="bullet" unicode="&#x2022;" horiz-adv-x="500" 
d="M72 357c0 99 79 178 178 178s179 -79 179 -178s-80 -179 -179 -179s-178 80 -178 179z" />
    <glyph glyph-name="quotesinglbase" unicode="&#x201a;" horiz-adv-x="204" 
d="M125 103v-103c0 -53 -15 -108 -64 -126v33c29 13 34 66 34 93h-21v103h51z" />
    <glyph glyph-name="quotedblbase" unicode="&#x201e;" horiz-adv-x="315" 
d="M251 103v-103c0 -53 -15 -108 -64 -126v33c29 13 34 66 34 93h-21v103h51zM125 103v-103c0 -53 -15 -108 -64 -126v33c29 13 34 66 34 93h-21v103h51z" />
    <glyph glyph-name="quotedblright" unicode="&#x201d;" horiz-adv-x="315" 
d="M251 714v-103c0 -53 -15 -108 -64 -126v33c29 13 34 66 34 93h-21v103h51zM125 714v-103c0 -53 -15 -108 -64 -126v33c29 13 34 66 34 93h-21v103h51z" />
    <glyph glyph-name="guillemotright" unicode="&#xbb;" horiz-adv-x="389" 
d="M80 121v49l85 102l-85 100v51l114 -131v-40zM208 121v49l85 102l-85 100v51l114 -131v-40z" />
    <glyph glyph-name="ellipsis" unicode="&#x2026;" horiz-adv-x="1000" 
d="M141 0v103h51v-103h-51zM474 0v103h51v-103h-51zM807 0v103h51v-103h-51z" />
    <glyph glyph-name="perthousand" unicode="&#x2030;" horiz-adv-x="1074" 
d="M527 -12c-102 0 -153 69 -153 170c0 95 61 168 153 168c95 0 151 -72 151 -168c0 -99 -54 -170 -151 -170zM525 21c75 0 115 60 115 137c0 73 -41 135 -115 135c-75 0 -113 -58 -113 -135s31 -137 113 -137zM882 -12c-102 0 -152 69 -152 170c0 95 60 168 152 168
c95 0 152 -72 152 -168c0 -99 -55 -170 -152 -170zM882 21c75 0 114 60 114 137c0 73 -40 135 -114 135c-75 0 -114 -58 -114 -135s32 -137 114 -137zM193 702c95 0 151 -71 151 -167c0 -99 -54 -171 -151 -171c-102 0 -153 70 -153 171c0 95 61 167 153 167zM192 669
c-75 0 -114 -57 -114 -134s32 -138 114 -138c75 -1 114 61 114 138c0 73 -40 134 -114 134zM105 -24l465 738h40l-465 -738h-40z" />
    <glyph glyph-name="questiondown" unicode="&#xbf;" horiz-adv-x="519" 
d="M437 42h38c0 -142 -77 -238 -222 -238c-106 0 -196 58 -196 179c0 86 44 126 89 170c45 39 98 84 98 201h38c0 -106 -40 -159 -88 -205c-49 -46 -99 -96 -99 -166c0 -99 78 -141 161 -141c120 0 181 86 181 200zM287 535v-103h-51v103h51z" />
    <glyph glyph-name="grave" unicode="`" horiz-adv-x="167" 
d="M141 591h-37l-134 140h51z" />
    <glyph glyph-name="acute" unicode="&#xb4;" horiz-adv-x="167" 
d="M26 591l120 140h51l-134 -140h-37z" />
    <glyph glyph-name="circumflex" unicode="&#x2c6;" horiz-adv-x="167" 
d="M63 731h40l116 -140h-38l-98 115l-97 -115h-38z" />
    <glyph glyph-name="tilde" unicode="&#x2dc;" horiz-adv-x="167" 
d="M-32 602h-29c2 22 10 45 22 62c13 17 32 28 55 28s46 -14 70 -27s47 -30 68 -30c28 0 42 31 45 57h29c-3 -23 -9 -45 -21 -61s-29 -29 -55 -29c-24 0 -48 16 -69 29c-23 14 -46 28 -70 28c-28 0 -41 -31 -45 -57z" />
    <glyph glyph-name="macron" unicode="&#xaf;" horiz-adv-x="167" 
d="M205 629h-242v33h242v-33z" />
    <glyph glyph-name="breve" unicode="&#x2d8;" horiz-adv-x="167" 
d="M186 731h33c-8 -64 -64 -120 -131 -120c-74 0 -131 45 -140 120h33c17 -67 67 -93 106 -87c49 -2 91 36 99 87z" />
    <glyph glyph-name="dotaccent" unicode="&#x2d9;" horiz-adv-x="167" 
d="M105 594h-44v103h44v-103z" />
    <glyph glyph-name="dieresis" unicode="&#xa8;" horiz-adv-x="167" 
d="M26 594h-44v103h44v-103zM184 594h-44v103h44v-103z" />
    <glyph glyph-name="ring" unicode="&#x2da;" horiz-adv-x="167" 
d="M-16 640c0 55 44 99 99 99s99 -44 99 -99s-44 -99 -99 -99s-99 44 -99 99zM11 640c0 -40 32 -72 72 -72s72 32 72 72s-32 72 -72 72s-72 -32 -72 -72z" />
    <glyph glyph-name="cedilla" unicode="&#xb8;" horiz-adv-x="167" 
d="M83 0h34l-48 -56l2 -2c9 4 21 9 37 9c38 0 75 -22 75 -73c0 -53 -42 -74 -102 -74c-42 0 -73 12 -90 21l11 24c22 -8 46 -18 80 -18c29 0 63 11 63 47c0 32 -31 46 -49 46c-21 0 -38 -5 -53 -12l-16 13z" />
    <glyph glyph-name="hungarumlaut" unicode="&#x2dd;" horiz-adv-x="167" 
d="M-19 591h-37l120 140h51zM139 591h-37l120 140h51z" />
    <glyph glyph-name="ogonek" unicode="&#x2db;" horiz-adv-x="167" 
d="M112 0h24c-74 -63 -90 -91 -90 -135c0 -25 26 -43 47 -43c28 0 45 11 62 40l25 -8c-14 -35 -46 -65 -91 -65c-24 0 -87 4 -87 76c0 22 14 81 110 135z" />
    <glyph glyph-name="caron" unicode="&#x2c7;" horiz-adv-x="167" 
d="M97 591h-40l-115 140h38l97 -115l98 115h38z" />
    <glyph glyph-name="emdash" unicode="&#x2014;" horiz-adv-x="1000" 
d="M130 253v38h740v-38h-740z" />
    <glyph glyph-name="AE" unicode="&#xc6;" horiz-adv-x="870" 
d="M-9 0l373 714h490v-38h-379v-286h350v-38h-350v-314h380v-38h-424v254h-268l-132 -254h-40zM431 292v384h-47l-201 -384h248z" />
    <glyph glyph-name="ordfeminine" unicode="&#xaa;" horiz-adv-x="310" 
d="M250 498v56c-19 -21 -73 -18 -117 -24c-55 -6 -88 -26 -88 -68c0 -39 29 -69 80 -69c113 0 125 88 125 105zM61 596h-32c8 69 53 106 132 106c62 0 121 -17 121 -85v-178c0 -18 0 -37 18 -37c4 0 10 0 18 2v-27c-7 -1 -14 -2 -20 -2c-39 0 -45 20 -45 45v14h-2
c-12 -36 -57 -68 -123 -68s-115 22 -115 96c0 76 67 91 123 95c110 8 115 14 115 65c0 35 -39 53 -93 53s-93 -29 -97 -79z" />
    <glyph glyph-name="Lslash" unicode="&#x141;" horiz-adv-x="500" 
d="M63 714h44v-383l235 143v-36l-235 -142v-258h405v-38h-449v269l-85 -53v38l85 51v409z" />
    <glyph glyph-name="Oslash" unicode="&#xd8;" horiz-adv-x="741" 
d="M598 582l-433 -474c50 -54 120 -87 206 -87c186 0 295 153 295 336c0 86 -24 165 -68 225zM143 134l432 475c-51 52 -119 84 -204 84c-187 0 -296 -153 -296 -336c0 -85 23 -163 68 -223zM34 16l79 86c-53 66 -82 156 -82 255c0 209 126 374 340 374
c96 0 175 -34 232 -91l68 74l26 -24l-70 -76c54 -66 83 -156 83 -257c0 -209 -126 -374 -339 -374c-98 0 -178 34 -235 93l-76 -84z" />
    <glyph glyph-name="OE" unicode="&#x152;" horiz-adv-x="1056" 
d="M573 127v451c0 27 -36 57 -57 71c-43 29 -92 44 -144 44c-194 0 -297 -158 -297 -339s92 -333 288 -333c43 0 87 6 126 27c27 13 84 50 84 79zM617 676v-286h378v-38h-378v-314h424v-38h-468v66h-2c-33 -43 -106 -83 -211 -83c-212 0 -329 163 -329 371
c0 203 120 377 337 377c75 0 154 -28 205 -83v66h466v-38h-422z" />
    <glyph glyph-name="ordmasculine" unicode="&#xba;" horiz-adv-x="334" 
d="M167 366c-102 0 -158 72 -158 168s56 168 158 168s158 -72 158 -168s-56 -168 -158 -168zM167 393c87 0 126 67 126 141s-39 141 -126 141s-126 -67 -126 -141s39 -141 126 -141z" />
    <glyph glyph-name="ae" unicode="&#xe6;" horiz-adv-x="889" 
d="M444 285h374c3 111 -70 208 -185 208c-124 0 -181 -97 -189 -208zM406 201v88h-2c-17 -30 -103 -29 -189 -36c-78 -5 -145 -34 -145 -122c0 -79 74 -110 146 -110c99 0 188 79 190 180zM856 252h-411c-9 -126 57 -231 188 -231c97 0 164 53 179 150h38
c-18 -114 -101 -183 -217 -183c-102 0 -182 51 -206 149h-2c-33 -92 -111 -149 -209 -149c-96 0 -184 42 -184 143c0 123 108 150 187 152c88 11 194 -9 187 90c0 82 -49 120 -150 120c-92 0 -157 -42 -164 -140h-38c8 119 87 173 202 173c93 0 171 -28 180 -131h2
c32 89 102 131 195 131c157 0 236 -128 223 -274z" />
    <glyph glyph-name="dotlessi" unicode="&#x131;" horiz-adv-x="168" 
d="M103 0h-38v514h38v-514z" />
    <glyph glyph-name="lslash" unicode="&#x142;" horiz-adv-x="168" 
d="M65 334v380h38v-350l65 51v-33l-65 -51v-331h-38v301l-65 -51v33z" />
    <glyph glyph-name="oslash" unicode="&#xf8;" horiz-adv-x="537" 
d="M109 112l299 316c-31 39 -79 65 -140 65c-129 0 -198 -113 -198 -236c0 -53 13 -105 39 -145zM428 400l-299 -316c33 -39 80 -63 139 -63c129 0 198 113 198 236c0 52 -12 102 -38 143zM513 490l-58 -62c32 -46 49 -106 49 -171c0 -146 -85 -269 -236 -269
c-70 0 -126 27 -165 69l-54 -57l-24 23l57 61c-33 46 -50 107 -50 173c0 146 85 269 236 269c71 0 128 -27 166 -71l55 58z" />
    <glyph glyph-name="oe" unicode="&#x153;" horiz-adv-x="889" 
d="M252 21c140 0 174 126 174 229c0 125 -42 243 -173 243c-141 0 -183 -131 -183 -243c0 -120 53 -229 182 -229zM857 252h-393c-7 -118 46 -231 181 -231c94 0 149 60 170 148h38c-24 -109 -92 -181 -208 -181c-108 0 -182 55 -200 151h-2c-26 -98 -88 -151 -192 -151
c-162 0 -219 127 -219 262c0 146 68 276 222 276c99 0 169 -56 190 -152h2c27 100 94 152 199 152c156 0 219 -132 212 -274zM464 285h355c0 108 -58 208 -174 208c-122 0 -184 -101 -181 -208z" />
    <glyph glyph-name="germandbls" unicode="&#xdf;" horiz-adv-x="500" 
d="M207 379v33c96 0 183 42 183 148c0 88 -68 133 -150 133c-101 0 -144 -60 -144 -156v-537h-38v537c0 121 59 189 182 189c105 0 188 -54 188 -166c0 -82 -37 -139 -119 -157v-2c103 -12 154 -84 154 -187c0 -194 -140 -214 -201 -214h-55v33h38c58 0 180 15 180 181
c0 132 -95 165 -218 165z" />
    <glyph glyph-name="onesuperior" unicode="&#xb9;" horiz-adv-x="333" 
d="M208 693v-418h-32v371c-31 -32 -69 -49 -117 -53v27c49 7 93 35 120 73h29z" />
    <glyph glyph-name="logicalnot" unicode="&#xac;" horiz-adv-x="600" 
d="M514 108v223h-466v38h504v-261h-38z" />
    <glyph glyph-name="mu" unicode="&#xb5;" horiz-adv-x="519" 
d="M463 514v-514h-38v110h-2c-26 -77 -104 -122 -184 -122c-54 0 -110 13 -143 56h-2v-228h-38v698h38v-325c0 -53 6 -168 146 -168c115 0 185 89 185 215v278h38z" />
    <glyph glyph-name="trademark" unicode="&#x2122;" horiz-adv-x="990" 
d="M404 714v-33h-143v-379h-32v379h-144v33h319zM542 714l152 -346l152 346h59v-412h-32v379h-3l-167 -379h-18l-167 379h-3v-379h-32v412h59z" />
    <glyph glyph-name="Eth" unicode="&#xd0;" horiz-adv-x="667" 
d="M63 396v318h234c255 0 330 -175 330 -356c0 -202 -103 -358 -332 -358h-232v363h-68v33h68zM107 396h264v-33h-264v-325h192c133 0 284 73 284 320c0 292 -187 318 -293 318h-183v-280z" />
    <glyph glyph-name="onehalf" unicode="&#xbd;" horiz-adv-x="834" 
d="M121 -24l465 738h40l-465 -738h-40zM213 693v-418h-32v371c-31 -32 -69 -49 -117 -53v27c49 7 93 35 120 73h29zM517 27h266v-27h-300c3 82 70 127 135 167s130 78 130 143c0 44 -33 90 -111 90c-79 0 -110 -48 -114 -124h-32c6 90 41 151 146 151c80 0 143 -37 143 -118
c0 -67 -62 -113 -126 -154c-64 -40 -119 -67 -137 -128z" />
    <glyph glyph-name="plusminus" unicode="&#xb1;" horiz-adv-x="600" 
d="M281 315v189h38v-189h233v-38h-233v-189h-38v189h-233v38h233zM48 0v38h504v-38h-504z" />
    <glyph glyph-name="Thorn" unicode="&#xde;" horiz-adv-x="593" 
d="M63 0v714h44v-120h260c81 0 208 -28 208 -199c0 -126 -82 -197 -224 -197h-244v-198h-44zM107 556v-320h251c129 0 173 85 173 160c0 53 -24 160 -167 160h-257z" />
    <glyph glyph-name="onequarter" unicode="&#xbc;" horiz-adv-x="834" 
d="M626 414h47v-283h71v-27h-71v-104h-32v104h-215v27zM641 131v250h-2l-177 -250h179zM151 -24l465 738h40l-465 -738h-40zM243 693v-418h-32v371c-31 -32 -69 -49 -117 -53v27c49 7 93 35 120 73h29z" />
    <glyph glyph-name="divide" unicode="&#xf7;" horiz-adv-x="600" 
d="M552 233h-504v38h504v-38zM250 452c0 29 23 52 51 52s52 -23 52 -52c0 -28 -24 -51 -52 -51s-51 23 -51 51zM250 51c0 29 23 52 51 52s52 -23 52 -52c0 -28 -24 -51 -52 -51s-51 23 -51 51z" />
    <glyph glyph-name="brokenbar" unicode="&#xa6;" horiz-adv-x="222" 
d="M92 -89v250h38v-250h-38zM92 411v250h38v-250h-38z" />
    <glyph glyph-name="degree" unicode="&#xb0;" horiz-adv-x="400" 
d="M200 669c-60 0 -105 -50 -105 -110s45 -110 105 -110s105 50 105 110s-45 110 -105 110zM200 416c-80 0 -143 63 -143 143s63 143 143 143s143 -63 143 -143s-63 -143 -143 -143z" />
    <glyph glyph-name="thorn" unicode="&#xfe;" 
d="M292 21c134 0 193 108 193 235c0 117 -55 237 -193 237c-137 0 -188 -115 -188 -237s43 -235 188 -235zM65 -184v898h38v-318h2c16 51 74 130 187 130c158 0 231 -125 231 -270c0 -156 -74 -268 -231 -268c-85 0 -157 36 -187 119h-2v-291h-38z" />
    <glyph glyph-name="threequarters" unicode="&#xbe;" horiz-adv-x="834" 
d="M656 414h47v-283h71v-27h-71v-104h-32v104h-215v27zM198 -24l465 738h40l-465 -738h-40zM671 131v250h-2l-177 -250h179zM33 415h32c-3 -75 48 -122 129 -122c64 0 126 36 126 98c0 74 -76 95 -150 90v27c65 -3 140 15 140 85c0 56 -64 82 -116 82
c-77 0 -115 -49 -118 -116h-32c1 87 56 143 155 143c72 0 143 -30 143 -109c0 -49 -35 -88 -88 -95v-2c61 -6 98 -50 98 -105c0 -85 -70 -125 -153 -125c-109 0 -170 51 -166 149z" />
    <glyph glyph-name="twosuperior" unicode="&#xb2;" horiz-adv-x="333" 
d="M48 302h268v-27h-300c3 82 70 127 135 167s130 78 130 143c0 44 -33 90 -111 90c-79 0 -110 -48 -114 -124h-32c6 90 41 151 146 151c80 0 143 -37 143 -118c0 -67 -62 -113 -126 -154c-64 -40 -119 -67 -139 -128z" />
    <glyph glyph-name="registered" unicode="&#xae;" horiz-adv-x="800" 
d="M264 136v442h166c100 0 144 -42 144 -122c0 -72 -51 -107 -114 -117l132 -203h-42l-133 204h-115v-204h-38zM302 545v-172h94c67 0 140 7 140 84c0 68 -59 88 -112 88h-122zM401 698c-193 0 -337 -148 -337 -341c0 -189 146 -341 337 -341s335 153 335 342
c0 191 -143 340 -335 340zM400 731c207 0 374 -167 374 -374s-167 -374 -374 -374s-374 167 -374 374s167 374 374 374z" />
    <glyph glyph-name="minus" unicode="&#x2212;" horiz-adv-x="600" 
d="M552 233h-504v38h504v-38z" />
    <glyph glyph-name="eth" unicode="&#xf0;" horiz-adv-x="537" 
d="M269 473c-130 0 -199 -108 -199 -224c0 -118 64 -228 199 -228c137 0 197 108 197 228c0 116 -66 224 -197 224zM146 582l108 60c-33 25 -70 49 -103 65l28 24c39 -21 77 -46 108 -71l115 64l20 -22l-109 -61c126 -101 191 -227 191 -392c0 -144 -78 -261 -235 -261
c-161 0 -237 115 -237 261c0 139 85 257 237 257c60 0 115 -16 163 -74l2 2c-29 68 -88 135 -155 188l-112 -62z" />
    <glyph glyph-name="multiply" unicode="&#xd7;" horiz-adv-x="600" 
d="M79 58l194 194l-194 195l26 27l195 -195l194 195l27 -27l-194 -195l194 -194l-27 -27l-194 195l-195 -195z" />
    <glyph glyph-name="threesuperior" unicode="&#xb3;" horiz-adv-x="333" 
d="M18 415h32c-3 -75 48 -122 129 -122c64 0 126 36 126 98c0 74 -76 95 -150 90v27c65 -3 140 15 140 85c0 56 -64 82 -116 82c-77 0 -115 -49 -118 -116h-32c1 87 56 143 155 143c72 0 143 -30 143 -109c0 -49 -35 -88 -88 -95v-2c61 -6 98 -50 98 -105
c0 -85 -70 -125 -153 -125c-109 0 -170 51 -166 149z" />
    <glyph glyph-name="copyright" unicode="&#xa9;" horiz-adv-x="800" 
d="M401 698c-193 0 -337 -148 -337 -340c0 -190 146 -342 337 -342s335 153 335 342c0 191 -143 340 -335 340zM599 438h-38c-15 76 -75 122 -152 122c-118 0 -186 -85 -186 -201c0 -113 72 -206 188 -206c81 0 131 53 150 128h38c-12 -97 -92 -161 -188 -161
c-137 0 -226 103 -226 238c0 137 85 235 223 235c97 0 178 -55 191 -155zM400 731c207 0 374 -167 374 -374s-167 -374 -374 -374s-374 167 -374 374s167 374 374 374z" />
    <glyph glyph-name="Aacute" unicode="&#xc1;" horiz-adv-x="593" 
d="M275 714h48l282 -714h-47l-90 229h-342l-91 -229h-47zM140 267h314l-153 404h-2zM239 764l120 140h51l-134 -140h-37z" />
    <glyph glyph-name="Acircumflex" unicode="&#xc2;" horiz-adv-x="593" 
d="M275 714h48l282 -714h-47l-90 229h-342l-91 -229h-47zM140 267h314l-153 404h-2zM276 904h40l116 -140h-38l-98 115l-97 -115h-38z" />
    <glyph glyph-name="Adieresis" unicode="&#xc4;" horiz-adv-x="593" 
d="M275 714h48l282 -714h-47l-90 229h-342l-91 -229h-47zM140 267h314l-153 404h-2zM239 767h-44v103h44v-103zM397 767h-44v103h44v-103z" />
    <glyph glyph-name="Agrave" unicode="&#xc0;" horiz-adv-x="593" 
d="M275 714h48l282 -714h-47l-90 229h-342l-91 -229h-47zM140 267h314l-153 404h-2zM354 764h-37l-134 140h51z" />
    <glyph glyph-name="Aring" unicode="&#xc5;" horiz-adv-x="593" 
d="M275 714h48l282 -714h-47l-90 229h-342l-91 -229h-47zM140 267h314l-153 404h-2zM192 828c0 55 44 99 99 99s99 -44 99 -99s-44 -99 -99 -99s-99 44 -99 99zM219 828c0 -40 32 -72 72 -72s72 32 72 72s-32 72 -72 72s-72 -32 -72 -72z" />
    <glyph glyph-name="Atilde" unicode="&#xc3;" horiz-adv-x="593" 
d="M275 714h48l282 -714h-47l-90 229h-342l-91 -229h-47zM140 267h314l-153 404h-2zM181 775h-29c2 22 10 45 22 62c13 17 32 28 55 28s46 -14 70 -27s47 -30 68 -30c28 0 42 31 45 57h29c-3 -23 -9 -45 -21 -61s-29 -29 -55 -29c-24 0 -48 16 -69 29c-23 14 -46 28 -70 28
c-28 0 -41 -31 -45 -57z" />
    <glyph glyph-name="Ccedilla" unicode="&#xc7;" horiz-adv-x="704" 
d="M663 501h-44c-19 120 -124 192 -243 192c-187 0 -296 -153 -296 -336s109 -336 296 -336c139 0 247 124 255 257h44c-16 -170 -142 -295 -299 -295h-5l-33 -39l2 -2c9 4 21 9 37 9c38 0 75 -22 75 -73c0 -53 -42 -74 -102 -74c-42 0 -73 12 -90 21l11 24
c22 -8 46 -18 80 -18c29 0 63 11 63 47c0 32 -31 46 -49 46c-21 0 -38 -5 -53 -12l-16 13l44 60c-192 17 -304 175 -304 372c0 209 126 374 340 374c253 0 286 -220 287 -230z" />
    <glyph glyph-name="Eacute" unicode="&#xc9;" horiz-adv-x="560" 
d="M107 38h441v-38h-485v714h480v-38h-436v-286h410v-38h-410v-314zM223 764l120 140h51l-134 -140h-37z" />
    <glyph glyph-name="Ecircumflex" unicode="&#xca;" horiz-adv-x="560" 
d="M107 38h441v-38h-485v714h480v-38h-436v-286h410v-38h-410v-314zM260 904h40l116 -140h-38l-98 115l-97 -115h-38z" />
    <glyph glyph-name="Edieresis" unicode="&#xcb;" horiz-adv-x="560" 
d="M107 38h441v-38h-485v714h480v-38h-436v-286h410v-38h-410v-314zM233 767h-44v103h44v-103zM391 767h-44v103h44v-103z" />
    <glyph glyph-name="Egrave" unicode="&#xc8;" horiz-adv-x="560" 
d="M107 38h441v-38h-485v714h480v-38h-436v-286h410v-38h-410v-314zM338 764h-37l-134 140h51z" />
    <glyph glyph-name="Iacute" unicode="&#xcd;" horiz-adv-x="170" 
d="M63 0v714h44v-714h-44zM28 764l120 140h51l-134 -140h-37z" />
    <glyph glyph-name="Icircumflex" unicode="&#xce;" horiz-adv-x="170" 
d="M63 0v714h44v-714h-44zM65 904h40l116 -140h-38l-98 115l-97 -115h-38z" />
    <glyph glyph-name="Idieresis" unicode="&#xcf;" horiz-adv-x="170" 
d="M63 0v714h44v-714h-44zM28 767h-44v103h44v-103zM186 767h-44v103h44v-103z" />
    <glyph glyph-name="Igrave" unicode="&#xcc;" horiz-adv-x="170" 
d="M63 0v714h44v-714h-44zM143 764h-37l-134 140h51z" />
    <glyph glyph-name="Ntilde" unicode="&#xd1;" horiz-adv-x="678" 
d="M63 0v714h55l451 -655h2v655h44v-714h-52l-454 660h-2v-660h-44zM224 775h-29c2 22 10 45 22 62c13 17 32 28 55 28s46 -14 70 -27s47 -30 68 -30c28 0 42 31 45 57h29c-3 -23 -9 -45 -21 -61s-29 -29 -55 -29c-24 0 -48 16 -69 29c-23 14 -46 28 -70 28
c-28 0 -41 -31 -45 -57z" />
    <glyph glyph-name="Oacute" unicode="&#xd3;" horiz-adv-x="741" 
d="M710 357c0 -209 -126 -374 -339 -374c-214 0 -340 165 -340 374s126 374 340 374c213 0 339 -165 339 -374zM75 357c0 -183 109 -336 296 -336c186 0 295 153 295 336s-109 336 -295 336c-187 0 -296 -153 -296 -336zM313 764l120 140h51l-134 -140h-37z" />
    <glyph glyph-name="Ocircumflex" unicode="&#xd4;" horiz-adv-x="741" 
d="M710 357c0 -209 -126 -374 -339 -374c-214 0 -340 165 -340 374s126 374 340 374c213 0 339 -165 339 -374zM75 357c0 -183 109 -336 296 -336c186 0 295 153 295 336s-109 336 -295 336c-187 0 -296 -153 -296 -336zM350 904h40l116 -140h-38l-98 115l-97 -115h-38z" />
    <glyph glyph-name="Odieresis" unicode="&#xd6;" horiz-adv-x="741" 
d="M710 357c0 -209 -126 -374 -339 -374c-214 0 -340 165 -340 374s126 374 340 374c213 0 339 -165 339 -374zM75 357c0 -183 109 -336 296 -336c186 0 295 153 295 336s-109 336 -295 336c-187 0 -296 -153 -296 -336zM313 767h-44v103h44v-103zM471 767h-44v103h44v-103z
" />
    <glyph glyph-name="Ograve" unicode="&#xd2;" horiz-adv-x="741" 
d="M710 357c0 -209 -126 -374 -339 -374c-214 0 -340 165 -340 374s126 374 340 374c213 0 339 -165 339 -374zM75 357c0 -183 109 -336 296 -336c186 0 295 153 295 336s-109 336 -295 336c-187 0 -296 -153 -296 -336zM428 764h-37l-134 140h51z" />
    <glyph glyph-name="Otilde" unicode="&#xd5;" horiz-adv-x="741" 
d="M710 357c0 -209 -126 -374 -339 -374c-214 0 -340 165 -340 374s126 374 340 374c213 0 339 -165 339 -374zM75 357c0 -183 109 -336 296 -336c186 0 295 153 295 336s-109 336 -295 336c-187 0 -296 -153 -296 -336zM255 775h-29c2 22 10 45 22 62c13 17 32 28 55 28
s46 -14 70 -27s47 -30 68 -30c28 0 42 31 45 57h29c-3 -23 -9 -45 -21 -61s-29 -29 -55 -29c-24 0 -48 16 -69 29c-23 14 -46 28 -70 28c-28 0 -41 -31 -45 -57z" />
    <glyph glyph-name="Scaron" unicode="&#x160;" horiz-adv-x="630" 
d="M573 510h-44c-5 122 -97 183 -229 183c-81 0 -196 -34 -196 -152c0 -115 122 -134 243 -159c122 -25 244 -56 244 -198c0 -148 -142 -201 -251 -201c-167 0 -303 69 -301 253h44c-9 -156 116 -215 257 -215c86 0 207 39 207 163c0 121 -122 142 -244 167
c-121 25 -243 54 -243 190c0 137 127 190 240 190c149 0 266 -64 273 -221zM329 764h-40l-115 140h38l97 -115l98 115h38z" />
    <glyph glyph-name="Uacute" unicode="&#xda;" horiz-adv-x="672" 
d="M63 714h44v-428c0 -86 18 -265 224 -265c175 0 234 103 234 265v428h44v-428c0 -170 -64 -303 -278 -303c-254 0 -268 208 -268 303v428zM279 764l120 140h51l-134 -140h-37z" />
    <glyph glyph-name="Ucircumflex" unicode="&#xdb;" horiz-adv-x="672" 
d="M63 714h44v-428c0 -86 18 -265 224 -265c175 0 234 103 234 265v428h44v-428c0 -170 -64 -303 -278 -303c-254 0 -268 208 -268 303v428zM316 904h40l116 -140h-38l-98 115l-97 -115h-38z" />
    <glyph glyph-name="Udieresis" unicode="&#xdc;" horiz-adv-x="672" 
d="M63 714h44v-428c0 -86 18 -265 224 -265c175 0 234 103 234 265v428h44v-428c0 -170 -64 -303 -278 -303c-254 0 -268 208 -268 303v428zM279 767h-44v103h44v-103zM437 767h-44v103h44v-103z" />
    <glyph glyph-name="Ugrave" unicode="&#xd9;" horiz-adv-x="672" 
d="M63 714h44v-428c0 -86 18 -265 224 -265c175 0 234 103 234 265v428h44v-428c0 -170 -64 -303 -278 -303c-254 0 -268 208 -268 303v428zM394 764h-37l-134 140h51z" />
    <glyph glyph-name="Yacute" unicode="&#xdd;" horiz-adv-x="574" 
d="M287 336l259 378h49l-287 -415v-299h-44v299l-285 415h50zM230 764l120 140h51l-134 -140h-37z" />
    <glyph glyph-name="Ydieresis" unicode="&#x178;" horiz-adv-x="574" 
d="M287 336l259 378h49l-287 -415v-299h-44v299l-285 415h50zM230 767h-44v103h44v-103zM388 767h-44v103h44v-103z" />
    <glyph glyph-name="Zcaron" unicode="&#x17d;" horiz-adv-x="537" 
d="M28 676v38h501v-38l-484 -638h493v-38h-539v38l482 638h-453zM282 764h-40l-115 140h38l97 -115l98 115h38z" />
    <glyph glyph-name="aacute" unicode="&#xe1;" horiz-adv-x="500" 
d="M397 196v96c-30 -34 -112 -30 -186 -40c-90 -10 -141 -42 -141 -119c0 -62 45 -112 135 -112c173 0 192 148 192 175zM435 392v-297c0 -30 0 -62 34 -62c7 0 16 1 28 3v-32c-11 -2 -21 -4 -31 -4c-60 0 -69 33 -69 75v27h-2c-24 -61 -93 -114 -191 -114
c-97 0 -172 37 -172 145c0 120 104 145 189 152c170 12 177 23 177 107c0 23 -26 101 -143 101c-92 0 -153 -48 -158 -137h-38c5 113 75 170 196 170c90 0 180 -28 180 -134zM193 591l120 140h51l-134 -140h-37z" />
    <glyph glyph-name="acircumflex" unicode="&#xe2;" horiz-adv-x="500" 
d="M397 196v96c-30 -34 -112 -30 -186 -40c-90 -10 -141 -42 -141 -119c0 -62 45 -112 135 -112c173 0 192 148 192 175zM435 392v-297c0 -30 0 -62 34 -62c7 0 16 1 28 3v-32c-11 -2 -21 -4 -31 -4c-60 0 -69 33 -69 75v27h-2c-24 -61 -93 -114 -191 -114
c-97 0 -172 37 -172 145c0 120 104 145 189 152c170 12 177 23 177 107c0 23 -26 101 -143 101c-92 0 -153 -48 -158 -137h-38c5 113 75 170 196 170c90 0 180 -28 180 -134zM230 731h40l116 -140h-38l-98 115l-97 -115h-38z" />
    <glyph glyph-name="adieresis" unicode="&#xe4;" horiz-adv-x="500" 
d="M397 196v96c-30 -34 -112 -30 -186 -40c-90 -10 -141 -42 -141 -119c0 -62 45 -112 135 -112c173 0 192 148 192 175zM435 392v-297c0 -30 0 -62 34 -62c7 0 16 1 28 3v-32c-11 -2 -21 -4 -31 -4c-60 0 -69 33 -69 75v27h-2c-24 -61 -93 -114 -191 -114
c-97 0 -172 37 -172 145c0 120 104 145 189 152c170 12 177 23 177 107c0 23 -26 101 -143 101c-92 0 -153 -48 -158 -137h-38c5 113 75 170 196 170c90 0 180 -28 180 -134zM193 594h-44v103h44v-103zM351 594h-44v103h44v-103z" />
    <glyph glyph-name="agrave" unicode="&#xe0;" horiz-adv-x="500" 
d="M397 196v96c-30 -34 -112 -30 -186 -40c-90 -10 -141 -42 -141 -119c0 -62 45 -112 135 -112c173 0 192 148 192 175zM435 392v-297c0 -30 0 -62 34 -62c7 0 16 1 28 3v-32c-11 -2 -21 -4 -31 -4c-60 0 -69 33 -69 75v27h-2c-24 -61 -93 -114 -191 -114
c-97 0 -172 37 -172 145c0 120 104 145 189 152c170 12 177 23 177 107c0 23 -26 101 -143 101c-92 0 -153 -48 -158 -137h-38c5 113 75 170 196 170c90 0 180 -28 180 -134zM308 591h-37l-134 140h51z" />
    <glyph glyph-name="aring" unicode="&#xe5;" horiz-adv-x="500" 
d="M397 196v96c-30 -34 -112 -30 -186 -40c-90 -10 -141 -42 -141 -119c0 -62 45 -112 135 -112c173 0 192 148 192 175zM435 392v-297c0 -30 0 -62 34 -62c7 0 16 1 28 3v-32c-11 -2 -21 -4 -31 -4c-60 0 -69 33 -69 75v27h-2c-24 -61 -93 -114 -191 -114
c-97 0 -172 37 -172 145c0 120 104 145 189 152c170 12 177 23 177 107c0 23 -26 101 -143 101c-92 0 -153 -48 -158 -137h-38c5 113 75 170 196 170c90 0 180 -28 180 -134zM151 640c0 55 44 99 99 99s99 -44 99 -99s-44 -99 -99 -99s-99 44 -99 99zM178 640
c0 -40 32 -72 72 -72s72 32 72 72s-32 72 -72 72s-72 -32 -72 -72z" />
    <glyph glyph-name="atilde" unicode="&#xe3;" horiz-adv-x="500" 
d="M397 196v96c-30 -34 -112 -30 -186 -40c-90 -10 -141 -42 -141 -119c0 -62 45 -112 135 -112c173 0 192 148 192 175zM435 392v-297c0 -30 0 -62 34 -62c7 0 16 1 28 3v-32c-11 -2 -21 -4 -31 -4c-60 0 -69 33 -69 75v27h-2c-24 -61 -93 -114 -191 -114
c-97 0 -172 37 -172 145c0 120 104 145 189 152c170 12 177 23 177 107c0 23 -26 101 -143 101c-92 0 -153 -48 -158 -137h-38c5 113 75 170 196 170c90 0 180 -28 180 -134zM135 602h-29c2 22 10 45 22 62c13 17 32 28 55 28s46 -14 70 -27s47 -30 68 -30c28 0 42 31 45 57
h29c-3 -23 -9 -45 -21 -61s-29 -29 -55 -29c-24 0 -48 16 -69 29c-23 14 -46 28 -70 28c-28 0 -41 -31 -45 -57z" />
    <glyph glyph-name="ccedilla" unicode="&#xe7;" horiz-adv-x="519" 
d="M481 355h-38c-7 91 -81 138 -174 138c-129 0 -198 -114 -198 -231c0 -139 65 -241 198 -241c96 0 166 66 179 160h38c-16 -117 -97 -186 -202 -192l-39 -45l2 -2c9 4 21 9 37 9c38 0 75 -22 75 -73c0 -53 -42 -74 -102 -74c-42 0 -73 12 -90 21l11 24
c22 -8 46 -18 80 -18c29 0 63 11 63 47c0 32 -31 46 -49 46c-21 0 -38 -5 -53 -12l-16 13l48 64c-154 9 -218 135 -218 273c0 143 84 264 236 264c111 0 201 -54 212 -171z" />
    <glyph glyph-name="eacute" unicode="&#xe9;" horiz-adv-x="519" 
d="M486 252h-415c-2 -121 62 -231 189 -231c97 0 166 58 184 153h38c-20 -120 -100 -186 -222 -186c-150 0 -229 118 -227 260c-2 141 72 278 227 278c161 0 233 -127 226 -274zM71 285h377c-2 108 -70 208 -188 208c-114 0 -181 -106 -189 -208zM202 591l120 140h51
l-134 -140h-37z" />
    <glyph glyph-name="ecircumflex" unicode="&#xea;" horiz-adv-x="519" 
d="M486 252h-415c-2 -121 62 -231 189 -231c97 0 166 58 184 153h38c-20 -120 -100 -186 -222 -186c-150 0 -229 118 -227 260c-2 141 72 278 227 278c161 0 233 -127 226 -274zM71 285h377c-2 108 -70 208 -188 208c-114 0 -181 -106 -189 -208zM239 731h40l116 -140h-38
l-98 115l-97 -115h-38z" />
    <glyph glyph-name="edieresis" unicode="&#xeb;" horiz-adv-x="519" 
d="M486 252h-415c-2 -121 62 -231 189 -231c97 0 166 58 184 153h38c-20 -120 -100 -186 -222 -186c-150 0 -229 118 -227 260c-2 141 72 278 227 278c161 0 233 -127 226 -274zM71 285h377c-2 108 -70 208 -188 208c-114 0 -181 -106 -189 -208zM202 594h-44v103h44v-103z
M360 594h-44v103h44v-103z" />
    <glyph glyph-name="egrave" unicode="&#xe8;" horiz-adv-x="519" 
d="M486 252h-415c-2 -121 62 -231 189 -231c97 0 166 58 184 153h38c-20 -120 -100 -186 -222 -186c-150 0 -229 118 -227 260c-2 141 72 278 227 278c161 0 233 -127 226 -274zM71 285h377c-2 108 -70 208 -188 208c-114 0 -181 -106 -189 -208zM317 591h-37l-134 140h51z
" />
    <glyph glyph-name="iacute" unicode="&#xed;" horiz-adv-x="168" 
d="M103 0h-38v514h38v-514zM27 591l120 140h51l-134 -140h-37z" />
    <glyph glyph-name="icircumflex" unicode="&#xee;" horiz-adv-x="168" 
d="M103 0h-38v514h38v-514zM64 731h40l116 -140h-38l-98 115l-97 -115h-38z" />
    <glyph glyph-name="idieresis" unicode="&#xef;" horiz-adv-x="168" 
d="M103 0h-38v514h38v-514zM27 594h-44v103h44v-103zM185 594h-44v103h44v-103z" />
    <glyph glyph-name="igrave" unicode="&#xec;" horiz-adv-x="168" 
d="M103 0h-38v514h38v-514zM142 591h-37l-134 140h51z" />
    <glyph glyph-name="ntilde" unicode="&#xf1;" horiz-adv-x="519" 
d="M56 0v514h38v-110h2c26 77 104 122 184 122c181 0 183 -145 183 -208v-318h-38v325c0 53 -6 168 -146 168c-115 0 -185 -89 -185 -215v-278h-38zM144 602h-29c2 22 10 45 22 62c13 17 32 28 55 28s46 -14 70 -27s47 -30 68 -30c28 0 42 31 45 57h29
c-3 -23 -9 -45 -21 -61s-29 -29 -55 -29c-24 0 -48 16 -69 29c-23 14 -46 28 -70 28c-28 0 -41 -31 -45 -57z" />
    <glyph glyph-name="oacute" unicode="&#xf3;" horiz-adv-x="537" 
d="M32 257c0 146 85 269 236 269s236 -123 236 -269s-85 -269 -236 -269s-236 123 -236 269zM70 257c0 -123 69 -236 198 -236s198 113 198 236s-69 236 -198 236s-198 -113 -198 -236zM211 591l120 140h51l-134 -140h-37z" />
    <glyph glyph-name="ocircumflex" unicode="&#xf4;" horiz-adv-x="537" 
d="M32 257c0 146 85 269 236 269s236 -123 236 -269s-85 -269 -236 -269s-236 123 -236 269zM70 257c0 -123 69 -236 198 -236s198 113 198 236s-69 236 -198 236s-198 -113 -198 -236zM248 731h40l116 -140h-38l-98 115l-97 -115h-38z" />
    <glyph glyph-name="odieresis" unicode="&#xf6;" horiz-adv-x="537" 
d="M32 257c0 146 85 269 236 269s236 -123 236 -269s-85 -269 -236 -269s-236 123 -236 269zM70 257c0 -123 69 -236 198 -236s198 113 198 236s-69 236 -198 236s-198 -113 -198 -236zM211 594h-44v103h44v-103zM369 594h-44v103h44v-103z" />
    <glyph glyph-name="ograve" unicode="&#xf2;" horiz-adv-x="537" 
d="M32 257c0 146 85 269 236 269s236 -123 236 -269s-85 -269 -236 -269s-236 123 -236 269zM70 257c0 -123 69 -236 198 -236s198 113 198 236s-69 236 -198 236s-198 -113 -198 -236zM326 591h-37l-134 140h51z" />
    <glyph glyph-name="otilde" unicode="&#xf5;" horiz-adv-x="537" 
d="M32 257c0 146 85 269 236 269s236 -123 236 -269s-85 -269 -236 -269s-236 123 -236 269zM70 257c0 -123 69 -236 198 -236s198 113 198 236s-69 236 -198 236s-198 -113 -198 -236zM153 602h-29c2 22 10 45 22 62c13 17 32 28 55 28s46 -14 70 -27s47 -30 68 -30
c28 0 42 31 45 57h29c-3 -23 -9 -45 -21 -61s-29 -29 -55 -29c-24 0 -48 16 -69 29c-23 14 -46 28 -70 28c-28 0 -41 -31 -45 -57z" />
    <glyph glyph-name="scaron" unicode="&#x161;" horiz-adv-x="481" 
d="M36 171h38c6 -95 77 -150 170 -150c67 0 163 20 163 109c0 87 -88 100 -176 118c-89 18 -177 41 -177 146c0 102 99 132 186 132c109 0 190 -47 190 -164h-38c-1 93 -66 131 -152 131c-70 0 -148 -26 -148 -99c0 -82 88 -95 171 -113c102 -19 182 -43 182 -151
c0 -111 -111 -142 -201 -142c-117 0 -205 63 -208 183zM254 591h-40l-115 140h38l97 -115l98 115h38z" />
    <glyph glyph-name="uacute" unicode="&#xfa;" horiz-adv-x="519" 
d="M463 514v-514h-38v110h-2c-26 -77 -104 -122 -184 -122c-181 0 -183 145 -183 208v318h38v-325c0 -53 6 -168 146 -168c115 0 185 89 185 215v278h38zM202 591l120 140h51l-134 -140h-37z" />
    <glyph glyph-name="ucircumflex" unicode="&#xfb;" horiz-adv-x="519" 
d="M463 514v-514h-38v110h-2c-26 -77 -104 -122 -184 -122c-181 0 -183 145 -183 208v318h38v-325c0 -53 6 -168 146 -168c115 0 185 89 185 215v278h38zM239 731h40l116 -140h-38l-98 115l-97 -115h-38z" />
    <glyph glyph-name="udieresis" unicode="&#xfc;" horiz-adv-x="519" 
d="M463 514v-514h-38v110h-2c-26 -77 -104 -122 -184 -122c-181 0 -183 145 -183 208v318h38v-325c0 -53 6 -168 146 -168c115 0 185 89 185 215v278h38zM202 594h-44v103h44v-103zM360 594h-44v103h44v-103z" />
    <glyph glyph-name="ugrave" unicode="&#xf9;" horiz-adv-x="519" 
d="M463 514v-514h-38v110h-2c-26 -77 -104 -122 -184 -122c-181 0 -183 145 -183 208v318h38v-325c0 -53 6 -168 146 -168c115 0 185 89 185 215v278h38zM317 591h-37l-134 140h51z" />
    <glyph glyph-name="yacute" unicode="&#xfd;" horiz-adv-x="444" 
d="M209 3l-215 511h45l191 -469l176 469h43l-220 -569c-21 -50 -38 -89 -60 -106c-27 -21 -62 -23 -120 -23v33c54 0 81 7 107 33c15 15 29 53 53 121zM165 591l120 140h51l-134 -140h-37z" />
    <glyph glyph-name="ydieresis" unicode="&#xff;" horiz-adv-x="444" 
d="M209 3l-215 511h45l191 -469l176 469h43l-220 -569c-21 -50 -38 -89 -60 -106c-27 -21 -62 -23 -120 -23v33c54 0 81 7 107 33c15 15 29 53 53 121zM165 594h-44v103h44v-103zM323 594h-44v103h44v-103z" />
    <glyph glyph-name="zcaron" unicode="&#x17e;" horiz-adv-x="426" 
d="M55 33h362v-33h-408v36l345 445h-318v33h365v-36zM227 591h-40l-115 140h38l97 -115l98 115h38z" />
    <glyph glyph-name="Delta" unicode="&#x2206;" horiz-adv-x="643" 
d="M35 0v33l268 676h38l267 -675v-34h-573zM69 30h501l-173 444c-19 52 -61 142 -74 189h-5c-10 -38 -47 -121 -66 -172z" />
    <glyph glyph-name="Omega" unicode="&#x2126;" horiz-adv-x="733" 
d="M218 30v3c-79 66 -146 180 -146 328c0 208 135 338 297 338c170 0 291 -148 291 -336c0 -156 -75 -274 -148 -330v-3h162v-30h-223v22c88 56 174 178 174 338c0 135 -87 309 -256 309c-160 0 -262 -142 -262 -310c0 -152 88 -282 174 -337v-22h-223v30h160z" />
    <glyph glyph-name="uni03BC" unicode="&#x3bc;" horiz-adv-x="519" 
d="M463 514v-514h-38v110h-2c-26 -77 -104 -122 -184 -122c-54 0 -110 13 -143 56h-2v-228h-38v698h38v-325c0 -53 6 -168 146 -168c115 0 185 89 185 215v278h38z" />
    <glyph glyph-name="pi" unicode="&#x3c0;" horiz-adv-x="548" 
d="M519 477h-89v-332c0 -90 8 -122 16 -145h-34c-8 12 -16 47 -16 138v339h-216c-7 -143 -42 -391 -80 -477h-36c41 99 74 327 81 477c-74 0 -102 -6 -123 -14l-9 23c25 13 58 22 128 22h383z" />
    <glyph glyph-name="Euro" unicode="&#x20ac;" 
d="M530 595l-21 -38c-13 44 -41 70 -64 85c-37 24 -76 27 -108 27c-28 0 -95 -1 -149 -56c-44 -45 -67 -124 -72 -183h332l-15 -33h-320c-3 -35 -2 -67 0 -96h283l-15 -33h-264c5 -52 22 -113 54 -160c54 -80 126 -87 170 -87c30 0 66 5 96 17c26 10 57 29 85 61v-46
c-18 -17 -40 -32 -69 -43c-34 -14 -79 -22 -117 -22c-85 0 -153 36 -197 98c-36 51 -57 121 -62 182h-65l15 33h48c-3 34 -3 66 0 96h-63l15 33h50c6 73 33 162 94 215s130 57 166 57c41 0 87 -5 127 -30c24 -15 50 -38 66 -77z" />
    <glyph glyph-name="afii61289" unicode="&#x2113;" horiz-adv-x="463" 
d="M413 123l23 -15c-38 -70 -93 -114 -171 -114c-110 0 -153 93 -154 197v14c-19 -16 -41 -35 -61 -52l-16 25c27 24 54 45 77 69v286c0 183 77 226 135 226c75 0 112 -66 112 -148c0 -131 -88 -255 -215 -378v-26c1 -136 63 -186 126 -186c70 0 121 56 144 102zM143 541
v-267c101 107 184 213 184 331c0 72 -23 125 -85 125c-43 0 -99 -50 -99 -189z" />
    <glyph glyph-name="estimated" unicode="&#x212e;" horiz-adv-x="861" 
d="M827 335h-643c-3 0 -5 -1 -5 -4v-195c0 -8 3 -15 9 -22c62 -64 147 -105 242 -105c103 0 194 46 256 118h57c-71 -84 -186 -138 -314 -138c-218 0 -396 159 -396 356s178 357 396 357c220 0 398 -160 398 -357v-10zM681 360v196c0 8 -3 17 -10 23
c-62 61 -147 101 -241 101s-179 -41 -241 -104c-7 -7 -10 -15 -10 -24v-192c0 -2 2 -6 5 -6h493c3 0 4 4 4 6z" />
    <glyph glyph-name="partialdiff" unicode="&#x2202;" horiz-adv-x="526" 
d="M101 690l-18 24c33 27 81 53 154 53c117 0 235 -115 235 -370c0 -217 -78 -405 -245 -405c-123 0 -181 108 -181 223c0 151 103 246 210 246c101 0 163 -75 180 -108h1c1 14 1 36 1 52c0 212 -100 333 -202 333c-63 0 -107 -25 -135 -48zM229 21h1c111 0 184 128 200 283
c-19 52 -82 128 -172 128c-94 0 -176 -93 -176 -213c0 -115 57 -198 147 -198z" />
    <glyph glyph-name="product" unicode="&#x220f;" horiz-adv-x="683" 
d="M656 656h-116v-751h-34v751h-330v-751h-33v751h-116v31h629v-31z" />
    <glyph glyph-name="summation" unicode="&#x2211;" horiz-adv-x="550" 
d="M525 -95h-503v26l291 363l-276 369v24h473v-31h-421v-4l266 -355l-283 -355v-3h453v-34z" />
    <glyph glyph-name="uni2219" unicode="&#x2219;" horiz-adv-x="278" 
d="M85 317c0 28 26 54 54 54s55 -25 55 -54s-26 -55 -55 -55s-54 27 -54 55z" />
    <glyph glyph-name="radical" unicode="&#x221a;" horiz-adv-x="555" 
d="M549 811l-220 -965h-39l-169 476l-75 -27l-11 26l111 41l146 -409c6 -19 12 -44 16 -61h1c2 17 8 39 11 57l198 862h31z" />
    <glyph glyph-name="infinity" unicode="&#x221e;" horiz-adv-x="773" 
d="M720 287v-1c0 -88 -70 -147 -146 -147c-67 0 -114 49 -186 123c-54 -58 -110 -123 -192 -123c-79 0 -143 66 -143 144c0 84 63 148 149 148c76 0 135 -66 189 -125c59 65 111 125 191 125c86 0 138 -60 138 -144zM201 168h1c69 0 124 72 168 115
c-47 54 -100 120 -177 120c-68 0 -107 -60 -106 -121c0 -63 44 -114 114 -114zM578 403h-1c-72 0 -132 -82 -169 -117c71 -72 114 -118 170 -118c69 0 109 58 109 116c0 78 -48 119 -109 119z" />
    <glyph glyph-name="integral" unicode="&#x222b;" horiz-adv-x="327" 
d="M315 817l-12 -25c-7 6 -25 12 -37 12c-15 0 -37 -6 -51 -22c-29 -32 -40 -83 -40 -184c0 -150 13 -364 13 -512c0 -116 -24 -170 -47 -200c-18 -22 -46 -36 -77 -36c-21 0 -47 10 -56 17l11 27c8 -4 26 -13 47 -13c17 0 36 9 48 24c21 27 40 72 40 183
c0 148 -13 367 -13 513c0 102 12 162 49 198c22 24 48 34 75 34c18 0 40 -9 50 -16z" />
    <glyph glyph-name="approxequal" unicode="&#x2248;" horiz-adv-x="575" 
d="M502 410l19 -16c-24 -47 -59 -88 -123 -88c-42 0 -71 17 -122 44c-32 17 -64 34 -99 34c-49 0 -78 -35 -104 -76l-21 14c31 59 77 90 132 90c49 0 88 -30 117 -44c35 -18 60 -34 101 -34c42 0 70 23 100 76zM502 252l19 -16c-24 -46 -59 -87 -123 -87
c-42 0 -70 16 -122 43c-32 17 -64 34 -99 34c-49 0 -79 -36 -104 -76l-21 15c31 58 77 89 132 89c50 0 87 -28 117 -43c34 -18 60 -35 101 -35c43 0 70 24 100 76z" />
    <glyph glyph-name="notequal" unicode="&#x2260;" horiz-adv-x="575" 
d="M396 493l-50 -107h174v-29h-187l-74 -154h261v-29h-274l-58 -122l-24 13l52 109h-163v29h177l73 154h-250v29h263l57 120z" />
    <glyph glyph-name="lessequal" unicode="&#x2264;" horiz-adv-x="575" 
d="M517 90l-457 226v30l457 226v-37l-421 -202v-2l421 -204v-37zM519 17h-466v30h466v-30z" />
    <glyph glyph-name="greaterequal" unicode="&#x2265;" horiz-adv-x="575" 
d="M60 572l457 -226v-30l-457 -226v37l420 203v2l-420 203v37zM519 17h-466v30h466v-30z" />
    <glyph glyph-name="lozenge" unicode="&#x25ca;" horiz-adv-x="557" 
d="M497 343l-205 -386h-29l-205 386l205 387h29zM462 342l-166 310c-7 15 -15 34 -19 46h-2c-4 -14 -10 -29 -19 -46l-163 -307l166 -311c10 -20 15 -34 18 -44h3c3 10 11 30 18 44z" />
    <glyph glyph-name="uni00A0" unicode="&#xa0;" horiz-adv-x="278" 
 />
    <glyph glyph-name="uni00AD" unicode="&#xad;" horiz-adv-x="352" 
d="M283 253h-214v38h214v-38z" />
    <glyph glyph-name="uni02C9" unicode="&#x2c9;" horiz-adv-x="167" 
d="M205 629h-242v33h242v-33z" />
    <glyph glyph-name="uni03A9" unicode="&#x3a9;" horiz-adv-x="733" 
d="M218 30v3c-79 66 -146 180 -146 328c0 208 135 338 297 338c170 0 291 -148 291 -336c0 -156 -75 -274 -148 -330v-3h162v-30h-223v22c88 56 174 178 174 338c0 135 -87 309 -256 309c-160 0 -262 -142 -262 -310c0 -152 88 -282 174 -337v-22h-223v30h160z" />
    <glyph glyph-name="uni2215" unicode="&#x2215;" horiz-adv-x="167" 
d="M-169 -24l465 738h40l-465 -738h-40z" />
    </font>
</defs>
</svg>
