<?xml version="1.0" standalone="no"?>
<!DOCTYPE svg PUBLIC "-//W3C//DTD SVG 1.1//EN" "http://www.w3.org/Graphics/SVG/1.1/DTD/svg11.dtd" >
<svg>
<metadata>
Created by FontForge 20090914 at Thu Jan 19 14:13:02 2012
 By www-data
Copyright (c) 1987, 1991, 1992, 1993 Adobe Systems Incorporated. All Rights Reserved.Futura is a registered trademark of Fundicion Tipografica Neufville S.A.
</metadata>
<defs>
<font id="FuturaLT-Condensed" horiz-adv-x="411" >
  <font-face 
    font-family="Futura LT Condensed"
    font-weight="500"
    font-stretch="normal"
    units-per-em="1000"
    panose-1="2 0 6 6 5 0 0 2 0 3"
    ascent="800"
    descent="-200"
    x-height="505"
    cap-height="754"
    bbox="-157 -216 893 969"
    underline-thickness="50"
    underline-position="-75"
    unicode-range="U+0020-U+FB02"
  />
<missing-glyph horiz-adv-x="205" 
 />
    <glyph glyph-name=".notdef" horiz-adv-x="205" 
 />
    <glyph glyph-name=".null" horiz-adv-x="0" 
 />
    <glyph glyph-name="nonmarkingreturn" horiz-adv-x="333" 
 />
    <glyph glyph-name="space" unicode=" " horiz-adv-x="205" 
 />
    <glyph glyph-name="space" unicode="&#xa0;" horiz-adv-x="205" 
 />
    <glyph glyph-name="exclam" unicode="!" horiz-adv-x="252" 
d="M126 -8q-25 0 -42.5 17.5t-17.5 42.5t17.5 42.5t42.5 17.5t42.5 -17.5t17.5 -42.5t-17.5 -42.5t-42.5 -17.5zM177 754v-573h-100v573h100z" />
    <glyph glyph-name="quotedbl" unicode="&#x22;" horiz-adv-x="250" 
d="M148 754h86l-12 -226h-62zM17 754h86l-12 -226h-62z" />
    <glyph glyph-name="numbersign" unicode="#" 
d="M229 317l38 124h-88l-37 -124h87zM68 258h-107l17 59h108l38 124h-109l17 59h109l79 254h55l-78 -254h88l77 254h56l-78 -254h111l-17 -59h-112l-38 -124h112l-15 -59h-115l-79 -258h-55l79 258h-87l-81 -258h-55z" />
    <glyph glyph-name="dollar" unicode="$" 
d="M227 819v-65q55 -4 93.5 -31t52.5 -80l-77 -46q-6 32 -30 52.5t-58 20.5q-23 0 -38.5 -7.5t-25.5 -21t-14 -31.5t-4 -38q0 -31 9.5 -52.5t26 -38t38 -30.5l46.5 -30q35 -22 61 -41t42.5 -42t24.5 -53t8 -74q0 -40 -7 -76t-25 -64.5t-48 -47t-75 -23.5v-67h-45v67
q-60 5 -94 32t-53 82l83 40q9 -33 29.5 -51.5t55.5 -18.5q24 0 40 9t25.5 25t13.5 36t4 43q0 32 -7.5 52t-21 35t-32.5 27l-42 27q-38 23 -66.5 44.5t-47.5 47t-29 58t-10 79.5q0 36 9 68.5t28 57.5t47.5 41t67.5 20v65h45z" />
    <glyph glyph-name="percent" unicode="%" horiz-adv-x="553" 
d="M149 465q17 0 25.5 15t11.5 35t3 39v30v29t-3 40t-11.5 35t-25.5 15t-25.5 -15t-11.5 -35t-3 -40v-29v-30q0 -19 3 -39t11.5 -35t25.5 -15zM403 289q-17 0 -25.5 -15t-11.5 -34.5t-3 -39.5v-29v-30t3 -40t11.5 -35t25.5 -15t25.5 15t11.5 35t3 40v30v29t-3 39.5
t-11.5 34.5t-25.5 15zM494 754l-374 -754h-62l374 754h62zM403 349q37 0 58.5 -17.5t32 -44.5t13.5 -58.5t3 -58.5t-3 -58.5t-13.5 -58t-32 -44.5t-58.5 -18t-58.5 18t-32 44.5t-13.5 58t-3 58.5t3 58.5t13.5 58.5t32 44.5t58.5 17.5zM149 763q37 0 58.5 -17.5t32 -44.5
t13.5 -58.5t3 -58.5t-3 -58.5t-13.5 -58t-32 -44.5t-58.5 -18t-58.5 18t-32 44.5t-13.5 58t-3 58.5t3 58.5t13.5 58.5t32 44.5t58.5 17.5z" />
    <glyph glyph-name="ampersand" unicode="&#x26;" horiz-adv-x="494" 
d="M204 441l25.5 26.5t23 28.5t17 32t6.5 37q0 26 -14 43t-41 17q-26 0 -42.5 -21t-16.5 -45q0 -32 14 -61zM178 302q-26 -27 -41.5 -54.5t-15.5 -65.5q0 -20 6 -39t17 -34t26.5 -24t35.5 -9q26 0 44 14.5t32 37.5zM324 59q-23 -33 -57.5 -51t-72.5 -18q-36 0 -67 15.5
t-53.5 41.5t-35.5 60t-13 71q0 30 8.5 58t23 53t33.5 47.5t40 43.5q-25 38 -42.5 84.5t-17.5 92.5q0 31 10.5 57.5t29.5 45.5t45.5 30t58.5 11q63 0 103.5 -35t40.5 -101q0 -31 -10 -58.5t-25.5 -52t-35.5 -46.5t-41 -42l99 -164l62 88l64 -52l-80 -112l80 -126h-111z" />
    <glyph glyph-name="quotesingle" unicode="'" horiz-adv-x="250" 
d="M82 754h86l-12 -226h-62z" />
    <glyph glyph-name="parenleft" unicode="(" horiz-adv-x="276" 
d="M223 741q-36 -95 -61.5 -199t-25.5 -204q0 -108 24 -217t63 -210l-93 -24q-43 106 -66 219t-23 226q0 111 22 220t67 212z" />
    <glyph glyph-name="parenright" unicode=")" horiz-adv-x="276" 
d="M235 332q0 -113 -23 -226t-66 -219l-93 24q39 101 63 210t24 217q0 100 -25.5 204t-61.5 199l93 23q45 -103 67 -212t22 -220z" />
    <glyph glyph-name="asterisk" unicode="*" horiz-adv-x="357" 
d="M196 754v-133l111 70l21 -34l-116 -66l116 -64l-21 -34l-111 67l4 -129h-43l4 132l-109 -70l-23 34l113 64l-113 60l19 36l113 -66l-4 133h39z" />
    <glyph glyph-name="plus" unicode="+" horiz-adv-x="500" 
d="M215 507h70v-216h172v-70h-172v-219h-70v219h-171v70h171v216z" />
    <glyph glyph-name="comma" unicode="," horiz-adv-x="205" 
d="M157 81l-97 -265l-51 14l67 276z" />
    <glyph glyph-name="hyphen" unicode="-" horiz-adv-x="242" 
d="M210 297v-76h-178v76h178z" />
    <glyph glyph-name="hyphen" unicode="&#xad;" horiz-adv-x="242" 
d="M210 297v-76h-178v76h178z" />
    <glyph glyph-name="period" unicode="." horiz-adv-x="205" 
d="M103 -8q-25 0 -42.5 17.5t-17.5 43.5q0 24 17.5 41.5t42.5 17.5t42.5 -17.5t17.5 -41.5q0 -26 -17.5 -43.5t-42.5 -17.5z" />
    <glyph glyph-name="slash" unicode="/" horiz-adv-x="407" 
d="M437 830l-385 -933h-81l387 933h79z" />
    <glyph glyph-name="zero" unicode="0" 
d="M279 377q0 59 -1.5 112.5t-9 94.5t-22 65t-40.5 24t-40.5 -24t-22 -65t-9 -94.5t-1.5 -112.5t1.5 -112.5t9 -94.5t22 -65t40.5 -24t40.5 24t22 65t9 94.5t1.5 112.5zM206 763q45 0 75 -20.5t49 -53.5t29 -74.5t14 -84.5t4 -83v-70v-70t-4 -83t-14 -84.5t-29 -74.5
t-49 -53.5t-75 -20.5t-75 20.5t-49 53.5t-29 74.5t-14 84.5t-4 83v70v70t4 83t14 84.5t29 74.5t49 53.5t75 20.5z" />
    <glyph glyph-name="one" unicode="1" 
d="M255 754v-754h-98v667h-74v87h172z" />
    <glyph glyph-name="two" unicode="2" 
d="M47 536q0 45 4.5 86t21 72.5t48.5 50t87 18.5q93 0 130.5 -49t37.5 -137q0 -42 -13 -91t-32.5 -98t-42 -95.5t-42.5 -83.5l-64 -122h187v-87h-332l183 387q20 46 37 95.5t17 100.5q0 15 -3 31t-11 29t-21 21.5t-32 8.5q-26 0 -38 -18t-16.5 -42t-4 -48t0.5 -36v-20h-102
v27z" />
    <glyph glyph-name="three" unicode="3" 
d="M153 347v90h12q32 0 52 6t31.5 20t15.5 35.5t4 53.5q0 15 -1 36t-6.5 39.5t-17 32t-33.5 13.5q-20 0 -31.5 -9.5t-17.5 -24.5t-8 -32t-2 -32v-23h-96v7q0 43 5 80t20.5 64.5t45.5 43.5t81 16q47 0 77.5 -15t48 -41.5t24.5 -62t7 -76.5q0 -26 -2 -54t-10.5 -52.5
t-25 -43.5t-46.5 -28v-2q31 -8 49.5 -25.5t28 -41.5t12.5 -51.5t3 -55.5q0 -45 -8 -85.5t-27.5 -71t-53 -48.5t-84.5 -18q-86 0 -122.5 45.5t-36.5 129.5v23h96v-24q0 -16 3 -31t10.5 -27t19.5 -19t30 -7q27 0 41 15t21 36.5t8 46t1 43.5q0 24 -3 47t-12.5 40.5t-27 28
t-46.5 9.5h-29z" />
    <glyph glyph-name="four" unicode="4" 
d="M232 601h-2l-122 -320h124v320zM330 281h48v-74h-48v-207h-98v207h-203v86l203 461h98v-473z" />
    <glyph glyph-name="five" unicode="5" 
d="M361 754v-87h-163l-24 -190q51 2 88 -13t61.5 -43.5t36 -68t11.5 -87.5q0 -52 -10.5 -101t-35.5 -87.5t-65.5 -62t-100.5 -23.5q-33 0 -60.5 8.5t-56.5 22.5l26 89q23 -12 42.5 -21t45.5 -9q33 0 55 17t34.5 42t18 54.5t5.5 54.5q0 33 -7.5 60t-23 46.5t-40.5 30.5
t-60 11q-15 0 -30.5 -2.5t-30.5 -6.5l44 366h240z" />
    <glyph glyph-name="six" unicode="6" 
d="M266 226q0 17 -0.5 42.5t-6 49t-17.5 40t-35 16.5q-6 0 -16 -1.5t-20.5 -15t-18 -43.5t-7.5 -87q0 -16 1 -41t7 -48t18.5 -40t35.5 -17q21 0 33 16.5t18 40t7 48t1 40.5zM304 754l-147 -322l2 -2q17 15 35 24.5t42 9.5q47 0 73.5 -24t39.5 -60t16 -77.5t3 -75.5
q0 -44 -4.5 -86t-21 -75.5t-49 -54t-87.5 -20.5q-56 0 -88 23.5t-49 60.5t-21.5 82t-4.5 89q0 77 12 140.5t32.5 123t48.5 118.5l60 126h108z" />
    <glyph glyph-name="seven" unicode="7" 
d="M375 754l-229 -754h-108l210 667h-210v87h337z" />
    <glyph glyph-name="eight" unicode="8" 
d="M206 453q18 0 29 13t17 31.5t7.5 38t1.5 32.5t-1.5 31.5t-7 34.5t-16.5 27.5t-30 11.5t-30 -11.5t-17 -27.5t-7.5 -34.5t-1.5 -31.5t1.5 -32.5t7.5 -38t17 -31.5t30 -13zM205 81q22 0 34.5 13.5t18.5 33t7.5 41.5t1.5 38t-0.5 41.5t-6.5 49t-18.5 40.5t-36.5 17t-36 -17
t-17.5 -40.5t-6 -49t-0.5 -41.5t1.5 -38t7.5 -41.5t18 -33t33 -13.5zM132 410q-27 9 -43.5 27t-25 41t-11.5 49.5t-3 50.5q0 39 7 73t24 58.5t46 39t73 14.5q47 0 78.5 -12t50 -35t26.5 -58t8 -80q0 -24 -3 -50.5t-11.5 -49.5t-24.5 -41.5t-43 -27.5v-1q30 -8 47.5 -27.5
t27 -45t12 -54.5t2.5 -55q0 -43 -5.5 -85t-23 -75.5t-49.5 -54t-85 -20.5q-51 0 -82.5 19t-49.5 49.5t-24.5 70.5t-6.5 82q0 28 1.5 59t10 58.5t26.5 49t51 29.5v2z" />
    <glyph glyph-name="nine" unicode="9" 
d="M205 377q24 0 37 17.5t18 41.5t5.5 49.5t0.5 41.5t-1 41t-7 48t-18.5 40t-34.5 17q-23 0 -35 -17.5t-17 -42t-6 -50.5t-1 -42q0 -17 1 -41.5t6 -47t17 -39t35 -16.5zM102 0l150 315l-2 2q-17 -16 -34 -23t-42 -7q-44 0 -69.5 21.5t-39 54t-17.5 71t-4 72.5q0 44 4 89.5
t19.5 83t48 61t89.5 23.5t89.5 -23.5t49 -60.5t20.5 -82.5t4 -89.5q0 -62 -8 -114.5t-22.5 -101.5t-35.5 -97.5l-47 -103.5l-44 -90h-109z" />
    <glyph glyph-name="colon" unicode=":" horiz-adv-x="205" 
d="M103 392q-25 0 -42.5 17.5t-17.5 43.5q0 24 17.5 41.5t42.5 17.5t42.5 -17.5t17.5 -41.5q0 -26 -17.5 -43.5t-42.5 -17.5zM103 -8q-25 0 -42.5 17.5t-17.5 43.5q0 24 17.5 41.5t42.5 17.5t42.5 -17.5t17.5 -41.5q0 -26 -17.5 -43.5t-42.5 -17.5z" />
    <glyph glyph-name="semicolon" unicode=";" horiz-adv-x="205" 
d="M103 392q-25 0 -42.5 17.5t-17.5 43.5q0 24 17.5 41.5t42.5 17.5t42.5 -17.5t17.5 -41.5q0 -26 -17.5 -43.5t-42.5 -17.5zM158 81l-96 -265l-52 14l67 276z" />
    <glyph glyph-name="less" unicode="&#x3c;" horiz-adv-x="500" 
d="M44 286l413 232v-73l-335 -191l335 -191v-73l-413 232v64z" />
    <glyph glyph-name="equal" unicode="=" horiz-adv-x="500" 
d="M457 124h-413v70h413v-70zM457 314h-413v70h413v-70z" />
    <glyph glyph-name="greater" unicode="&#x3e;" horiz-adv-x="500" 
d="M457 222l-413 -232v73l335 191l-335 191v73l413 -232v-64z" />
    <glyph glyph-name="question" unicode="?" horiz-adv-x="341" 
d="M166 -8q-25 0 -42.5 17.5t-17.5 42.5t17.5 42.5t42.5 17.5t42.5 -17.5t17.5 -42.5t-17.5 -42.5t-42.5 -17.5zM123 178v227l23 -1q27 0 42 10.5t22 28t8.5 39.5t1.5 45v38q0 26 -3.5 51t-14 43.5t-31.5 18.5q-18 0 -26.5 -9.5t-12.5 -24t-4 -30.5v-28v-18h-94v12
q0 37 4 70.5t17.5 58.5t39.5 40t72 15q52 0 82 -19t45 -50.5t18.5 -72t3.5 -84.5q0 -28 -2 -63t-11.5 -66t-31 -51.5t-60.5 -19.5v-160h-88z" />
    <glyph glyph-name="at" unicode="@" horiz-adv-x="800" 
d="M334 211q38 0 68.5 30t52 72t33 87t11.5 74t-18 49t-50 20q-40 0 -72 -24.5t-54 -60.5t-34 -77.5t-12 -76.5q0 -37 18 -65t57 -28zM560 588h69l-104 -309q-4 -11 -8.5 -26t-4.5 -26q0 -13 8.5 -21.5t21.5 -8.5q22 0 51 16.5t54 48.5t42.5 78t17.5 105q0 61 -24 109
t-64 81t-92.5 50t-110.5 17q-71 0 -130 -26t-102.5 -70.5t-67.5 -104.5t-24 -128t25.5 -126.5t69.5 -102t103.5 -68t127.5 -24.5q79 0 151 32.5t117 96.5h63q-24 -44 -60 -79.5t-79.5 -60.5t-92.5 -38t-99 -13q-83 0 -155 30.5t-124.5 84t-82.5 124.5t-28 152q0 79 31 149
t84 122t124 82t152 30q69 0 133 -24t112.5 -66.5t77.5 -102t29 -130.5q0 -46 -18 -98t-50 -96.5t-76.5 -73.5t-98.5 -29q-26 0 -52.5 12.5t-35.5 40.5q-23 -24 -56 -37.5t-65 -13.5q-33 0 -59 12t-44.5 33t-28.5 49t-10 59q0 51 18.5 105.5t51.5 100t79.5 74.5t103.5 29
q36 0 67.5 -17t47.5 -51z" />
    <glyph glyph-name="A" unicode="A" horiz-adv-x="414" 
d="M245 334l-38 274h-2l-60 -383h120zM247 754l162 -754h-101l-28 147h-150l-28 -147h-98l164 754h79z" />
    <glyph glyph-name="B" unicode="B" horiz-adv-x="418" 
d="M262 556q0 22 -4 42.5t-14.5 36.5t-27.5 25t-43 9h-17v-247q35 -2 56 7.5t32 27.5t14.5 43.5t3.5 55.5zM156 85q33 -2 54 6t33 23.5t17 39.5t5 55t-4 56t-16 42.5t-33.5 26.5t-55.5 8v-257zM61 0v754h125q51 0 84.5 -13.5t53.5 -39.5t28 -63.5t8 -85.5q0 -28 -3.5 -54.5
t-14 -49t-29 -39t-48.5 -24.5v-2q32 -10 52.5 -27t32.5 -40t16.5 -51t4.5 -59q0 -104 -43 -155t-147 -51h-120z" />
    <glyph glyph-name="C" unicode="C" horiz-adv-x="369" 
d="M353 651q-15 8 -31 13.5t-33 5.5q-35 0 -59 -15.5t-39.5 -41t-24.5 -57.5t-13 -65t-4.5 -64.5t-0.5 -54.5q0 -38 3.5 -87.5t17.5 -94t43.5 -75.5t80.5 -31q31 0 60 15v-88q-19 -12 -38.5 -16.5t-41.5 -4.5q-51 0 -88 17t-62.5 45.5t-41.5 66t-24.5 79t-11.5 84.5t-3 83
q0 38 2.5 82t10 88.5t22.5 85.5t40 73t61.5 51t87.5 19q26 0 45.5 -4.5t41.5 -17.5v-91z" />
    <glyph glyph-name="D" unicode="D" horiz-adv-x="466" 
d="M319 364v63q0 35 -3.5 70t-12 67t-26 56t-46 37.5t-70.5 11.5v-584q62 -2 94.5 23.5t46.5 66t15.5 91t1.5 98.5zM173 754q29 0 59.5 -2.5t58.5 -14t52.5 -35.5t42.5 -67t28.5 -109.5t10.5 -161.5q0 -87 -9.5 -148t-27.5 -101t-43.5 -63.5t-58.5 -34.5t-72 -14t-84 -3h-69
v754h112z" />
    <glyph glyph-name="E" unicode="E" horiz-adv-x="347" 
d="M330 754v-87h-169v-237h151v-87h-151v-256h169v-87h-269v754h269z" />
    <glyph glyph-name="F" unicode="F" horiz-adv-x="342" 
d="M332 754v-87h-171v-237h154v-87h-154v-343h-100v754h271z" />
    <glyph glyph-name="G" unicode="G" horiz-adv-x="460" 
d="M422 398v-12q0 -36 0.5 -79.5t-2.5 -87.5t-12.5 -85t-29.5 -73t-53 -51.5t-83 -19.5q-67 0 -106.5 30t-60.5 82.5t-27 122.5t-6 150q0 79 5.5 149.5t25 124t57.5 84.5t103 31q40 0 70 -10t52 -29.5t37 -48.5t25 -66l-95 -39q-4 19 -9 36.5t-14.5 31.5t-24.5 22.5t-38 8.5
q-31 0 -48.5 -20.5t-26.5 -58.5t-11 -92.5t-2 -122.5q0 -98 7.5 -156t20 -88t28 -39t32.5 -9q15 0 30.5 3.5t28 21.5t20 55.5t7.5 105.5v41h-84v87h184z" />
    <glyph glyph-name="H" unicode="H" horiz-adv-x="473" 
d="M161 754v-294h151v294h100v-754h-100v373h-151v-373h-100v754h100z" />
    <glyph glyph-name="I" unicode="I" horiz-adv-x="222" 
d="M161 0h-100v754h100v-754z" />
    <glyph glyph-name="J" unicode="J" horiz-adv-x="303" 
d="M242 187q0 -40 -4.5 -76t-20 -63t-45 -42.5t-78.5 -15.5q-21 0 -44 4.5t-42 15.5v102q15 -9 31.5 -17.5t34.5 -8.5q25 0 39 9.5t20.5 24.5t7.5 34t1 38v562h100v-567z" />
    <glyph glyph-name="K" unicode="K" horiz-adv-x="424" 
d="M163 754v-362l141 362h103l-148 -365l160 -389h-115l-141 382v-382h-102v754h102z" />
    <glyph glyph-name="L" unicode="L" horiz-adv-x="331" 
d="M161 754v-667h168v-87h-268v754h100z" />
    <glyph glyph-name="M" unicode="M" horiz-adv-x="561" 
d="M172 754l107 -544h2l3 31l30 181l65 332h88l70 -754h-98l-18 281l-6 140l-2 99h-2l-17 -108l-78 -412h-69l-97 520h-2l-29 -520h-95l62 754h86z" />
    <glyph glyph-name="N" unicode="N" horiz-adv-x="472" 
d="M146 530l15 -253v-277h-100v754h96l176 -573l2 2l-24 302v269h100v-754h-93l-176 581l-2 -2z" />
    <glyph glyph-name="O" unicode="O" horiz-adv-x="476" 
d="M238 670q-30 0 -47.5 -23.5t-27 -63t-12.5 -93t-3 -113.5t3 -113.5t12.5 -93t27 -63t47.5 -23.5t47.5 23.5t27 63t12.5 93t3 113.5t-3 113.5t-12.5 93t-27 63t-47.5 23.5zM238 764q49 0 82 -19t55 -51t34 -72.5t17.5 -83.5t6.5 -85t1 -76t-1 -76t-6.5 -85t-17.5 -83.5
t-34 -72.5t-55.5 -51t-81.5 -19t-81.5 19t-55.5 51t-34 72.5t-17.5 83.5t-6.5 85t-1 76t1 76t6.5 85t17.5 83.5t34 72.5t55 51t82 19z" />
    <glyph glyph-name="P" unicode="P" horiz-adv-x="388" 
d="M161 669v-250q64 -5 87 28.5t23 96.5q0 25 -4.5 48t-15 40t-29.5 27t-47 10h-14zM61 0v754h120q32 0 67 -4.5t63.5 -24t47 -60t18.5 -113.5q0 -115 -49.5 -169t-166.5 -49v-334h-100z" />
    <glyph glyph-name="Q" unicode="Q" horiz-adv-x="479" 
d="M238 670q-30 0 -47.5 -23.5t-27 -63t-12.5 -93t-3 -113.5t3 -113.5t12.5 -93t27 -63t47.5 -23.5q26 0 41 16l-63 91l61 48l38 -54h2q5 46 8 94t3 98q0 60 -3 113.5t-12.5 93t-27 63t-47.5 23.5zM392 -58l-53 79q-21 -17 -46 -24t-55 -7q-48 0 -81.5 19t-55.5 51t-34 72.5
t-17.5 83.5t-6.5 85t-1 76t1 76t6.5 85t17.5 83.5t34 72.5t55 51t82 19t82 -19t55 -51t34 -72.5t17.5 -83.5t6.5 -85t1 -76q0 -32 -1.5 -70.5t-6 -77.5t-13.5 -77t-24 -70l68 -94z" />
    <glyph glyph-name="R" unicode="R" horiz-adv-x="416" 
d="M161 420q56 -4 78.5 29t22.5 90q0 27 -2.5 51t-11.5 42t-26 28t-45 9h-16v-249v0zM61 754h120q27 0 60 -3.5t61 -22t47 -57.5t19 -110q0 -27 -4.5 -58.5t-16.5 -59.5t-32 -49t-51 -27l139 -367h-104l-136 369h-2v-369h-100v754z" />
    <glyph glyph-name="S" unicode="S" horiz-adv-x="354" 
d="M293 638q-20 14 -39.5 23t-45.5 9q-42 0 -65.5 -29t-23.5 -68q0 -25 6.5 -43.5t21.5 -38.5l76 -83q25 -26 45 -49.5t34 -49t21 -55t7 -67.5q0 -40 -12 -75.5t-35 -62.5t-55.5 -43t-74.5 -16q-29 0 -58 8.5t-52 27.5v101q23 -17 46.5 -28t52.5 -11q46 0 67 31.5t21 73.5
q0 38 -15.5 66.5t-39 54t-51 50.5t-51 54.5t-39 66t-15.5 86.5q0 40 10.5 75t31.5 61t53 41.5t74 15.5q29 0 55.5 -5.5t50.5 -19.5z" />
    <glyph glyph-name="T" unicode="T" horiz-adv-x="323" 
d="M327 754v-87h-113v-667h-100v667h-118v87h331z" />
    <glyph glyph-name="U" unicode="U" horiz-adv-x="467" 
d="M161 754v-553q0 -36 5 -59t14.5 -36t22.5 -17.5t28 -4.5q26 0 41 8t22.5 22t10 33.5t2.5 42.5v564h100v-535q0 -37 -2.5 -77.5t-18.5 -74t-51.5 -55.5t-100.5 -22q-60 0 -94.5 19t-52 52t-22 77.5t-4.5 95.5v520h100z" />
    <glyph glyph-name="V" unicode="V" horiz-adv-x="387" 
d="M107 754l86 -567h2l5 47l40 254l46 266h95l-148 -754h-80l-146 754h100z" />
    <glyph glyph-name="W" unicode="W" horiz-adv-x="592" 
d="M100 754l71 -511l4 -56h2l30 253l52 314h78l82 -562h2l27 242l46 320h97l-132 -754h-80l-57 351l-23 190l-1 19h-2l-22 -203l-60 -357h-82l-130 754h98z" />
    <glyph glyph-name="X" unicode="X" horiz-adv-x="427" 
d="M132 754l48 -134q12 -34 23 -68.5t17 -69.5h2l27 104l53 168h102l-139 -371l139 -383h-102l-46 132q-13 37 -24.5 74t-16.5 76h-2q-1 -23 -6.5 -44.5t-12.5 -42.5l-62 -195h-108l143 383l-134 371h99z" />
    <glyph glyph-name="Y" unicode="Y" horiz-adv-x="392" 
d="M110 754l92 -349h2l16 97l64 252h107l-140 -429v-325h-100v325l-149 429h108z" />
    <glyph glyph-name="Z" unicode="Z" horiz-adv-x="393" 
d="M375 754l-227 -667h215v-87h-348l229 667h-202v87h333z" />
    <glyph glyph-name="bracketleft" unicode="[" horiz-adv-x="300" 
d="M257 754v-68h-133v-721h133v-68h-219v857h219z" />
    <glyph glyph-name="backslash" unicode="\" horiz-adv-x="250" 
d="M-29 830l387 -933h-81l-385 933h79z" />
    <glyph glyph-name="bracketright" unicode="]" horiz-adv-x="300" 
d="M262 754v-857h-219v68h133v721h-133v68h219z" />
    <glyph glyph-name="asciicircum" unicode="^" horiz-adv-x="500" 
d="M274 754l183 -417h-67l-141 324l-139 -324h-66l181 417h49z" />
    <glyph glyph-name="underscore" unicode="_" horiz-adv-x="500" 
d="M500 -75v-50h-500v50h500z" />
    <glyph glyph-name="grave" unicode="`" horiz-adv-x="280" 
d="M133 746l82 -149l-50 -29l-99 135z" />
    <glyph glyph-name="a" unicode="a" horiz-adv-x="380" 
d="M187 76q24 0 36 22t17 51.5t5.5 59t0.5 44.5t-0.5 44.5t-5.5 58.5t-17 51t-36 22q-26 0 -39 -21.5t-18 -51t-5 -59.5v-44v-46q0 -29 5 -58.5t18 -51t39 -21.5zM243 65h-2q-14 -33 -33.5 -53t-59.5 -20q-29 0 -49.5 14t-33.5 37t-20.5 52t-11 58.5t-4 57t-0.5 48.5t1 48
t4.5 55t11 55.5t21 48.5t34 34t50.5 13q33 0 55 -18t35 -46h2v56h94v-505h-94v65z" />
    <glyph glyph-name="b" unicode="b" horiz-adv-x="380" 
d="M193 76q26 0 39 22t18 51.5t5 58.5v45v44q0 30 -5 59.5t-18 51t-39 21.5q-24 0 -36 -22t-17 -51t-5.5 -58.5t-0.5 -44.5t0.5 -44.5t5.5 -58.5t17 -51.5t36 -22.5zM43 830h94v-381h2q14 29 34 46.5t56 17.5q30 0 50.5 -13t34 -34t21 -48.5t11 -55.5t4.5 -55t1 -48
q0 -20 -0.5 -48t-4 -57.5t-11 -58.5t-20.5 -52t-33.5 -37t-49.5 -14q-20 0 -34.5 5t-25 15t-18.5 23t-15 30h-2v-65h-94v830z" />
    <glyph glyph-name="c" unicode="c" horiz-adv-x="278" 
d="M254 401h-2q-15 23 -44 24q-30 0 -47 -19t-25 -45t-9.5 -55t-1.5 -49q0 -19 1.5 -49t9.5 -58.5t24 -49t46 -20.5q16 0 26.5 5.5t21.5 13.5v-87q-34 -20 -76 -20q-50 0 -79.5 26t-45 64.5t-20 83t-4.5 82.5q0 39 4 85.5t19 86t45 66.5t82 27q40 0 75 -17v-95z" />
    <glyph glyph-name="d" unicode="d" horiz-adv-x="380" 
d="M187 76q24 0 36 22t17 51.5t5.5 59t0.5 44.5t-0.5 44.5t-5.5 58.5t-17 51t-36 22q-26 0 -39 -21.5t-18 -51t-5 -59.5v-44v-46q0 -29 5 -58.5t18 -51t39 -21.5zM243 65h-2q-14 -33 -33.5 -53t-59.5 -20q-29 0 -49.5 14t-33.5 37t-20.5 52t-11 58.5t-4 57t-0.5 48.5t1 48
t4.5 55t11 55.5t21 48.5t34 34t50.5 13q36 0 56 -17.5t34 -46.5h2v381h94v-830h-94v65z" />
    <glyph glyph-name="e" unicode="e" horiz-adv-x="361" 
d="M237 301q0 15 -1 36.5t-6 42t-17 35t-33 14.5q-22 0 -33.5 -14.5t-16 -35t-5 -42t-0.5 -36.5h112zM125 234q0 -16 0.5 -42.5t6 -52t17.5 -44.5t35 -19q19 0 30.5 9t18 23t8.5 30.5t2 31.5h87q0 -35 -8 -67t-25.5 -57t-45.5 -39.5t-68 -14.5q-53 0 -83.5 25t-46.5 63.5
t-20 83.5t-4 85q0 26 1.5 55.5t6.5 59t15 56.5t27 47.5t41.5 33t59.5 12.5q51 0 81.5 -26.5t46.5 -66.5t20.5 -86t4.5 -85v-15h-208z" />
    <glyph glyph-name="f" unicode="f" horiz-adv-x="249" 
d="M68 505v163q0 32 3 62.5t14 54.5t34 38.5t63 14.5q18 0 32.5 -3.5t30.5 -10.5v-98q-10 5 -19 8.5t-20 3.5q-18 0 -27 -8t-13 -20t-4 -26v-27v-152h78v-74h-78v-431h-94v431h-47v74h47z" />
    <glyph glyph-name="g" unicode="g" horiz-adv-x="382" 
d="M245 250q0 15 -1 45t-6.5 60t-18 52t-35.5 22q-24 0 -36.5 -22t-17.5 -51.5t-5 -58.5v-42v-44t5.5 -60t18 -52.5t38.5 -22.5q25 0 37.5 21.5t17 50t4 58t-0.5 44.5zM339 -4q0 -68 -10 -109t-29.5 -64t-48.5 -30.5t-66 -7.5q-69 0 -109 37.5t-40 108.5v14h91
q-1 -14 2 -27.5t10 -24t18.5 -17.5t29.5 -7q24 0 35.5 10t16.5 26t5 35v36v84h-2q-10 -31 -32.5 -50.5t-57.5 -17.5q-45 0 -70 28t-36.5 68t-14 84.5t-2.5 76.5q0 20 0.5 47.5t3.5 57t10.5 58t20.5 51t34 36.5t52 14q38 0 57.5 -19t34.5 -49l2 2v58h95v-509z" />
    <glyph glyph-name="h" unicode="h" horiz-adv-x="388" 
d="M138 830v-383h2q16 31 40 48.5t62 17.5t59 -15t30.5 -39t11.5 -53.5t2 -58.5v-347h-94v349q0 13 -1.5 27t-7.5 26t-17 19.5t-30 7.5q-23 0 -35 -12t-17 -29t-5 -37v-36v-315h-94v830h94z" />
    <glyph glyph-name="i" unicode="i" horiz-adv-x="180" 
d="M91 595q-26 0 -44.5 18.5t-18.5 44.5t18.5 44t44.5 18q25 0 43.5 -18t18.5 -44t-18.5 -44.5t-43.5 -18.5zM137 0h-94v505h94v-505z" />
    <glyph glyph-name="j" unicode="j" horiz-adv-x="180" 
d="M91 595q-26 0 -44.5 18.5t-18.5 44.5t18.5 44t44.5 18q25 -1 43.5 -19t18.5 -44t-18.5 -44.5t-43.5 -17.5zM137 -207h-94v712h94v-712z" />
    <glyph glyph-name="k" unicode="k" horiz-adv-x="395" 
d="M138 830v-549h2l117 224h105l-129 -224l146 -281h-109l-130 268h-2v-268h-94v830h94z" />
    <glyph glyph-name="l" unicode="l" horiz-adv-x="180" 
d="M137 0h-94v830h94v-830z" />
    <glyph glyph-name="m" unicode="m" horiz-adv-x="590" 
d="M138 443h2q14 32 38.5 51t60.5 19q34 0 58.5 -18.5t32.5 -51.5h2q15 33 40.5 51.5t63.5 18.5q33 0 54.5 -9.5t34 -26t17.5 -39t5 -47.5v-391h-94v354q0 14 -1.5 27.5t-7 24t-15.5 17t-27 6.5q-25 0 -37.5 -10.5t-17.5 -26.5t-5 -35v-36v-321h-94v343q0 15 -1 30.5
t-6 27.5t-16 20t-31 8q-22 0 -33.5 -11t-16.5 -27t-5.5 -35t-1.5 -35v-321h-94v505h95v-62z" />
    <glyph glyph-name="n" unicode="n" horiz-adv-x="388" 
d="M138 447h2q16 31 40 48.5t62 17.5q37 0 58 -15t31 -39t12 -53.5t2 -58.5v-347h-94v349q0 13 -1.5 27t-7.5 26t-17 19.5t-30 7.5q-23 0 -35 -12t-17 -29t-5 -37v-36v-315h-94v505h94v-58z" />
    <glyph glyph-name="o" unicode="o" horiz-adv-x="375" 
d="M188 78q27 0 40 22t18.5 51t5 57.5t-0.5 42.5q0 15 0.5 44.5t-5 58.5t-18.5 51t-40 22t-40 -22t-18.5 -51t-5 -58.5t0.5 -44.5q0 -14 -0.5 -42.5t5 -57.5t18.5 -51t40 -22zM188 -8q-54 0 -85.5 25.5t-48 64t-21 84t-4.5 85.5q0 41 4.5 87t21 85t48 64.5t85.5 25.5
t85.5 -25.5t48 -64.5t21 -85t4.5 -87q0 -40 -4.5 -85.5t-21 -84t-48 -64t-85.5 -25.5z" />
    <glyph glyph-name="p" unicode="p" horiz-adv-x="380" 
d="M193 76q22 0 34.5 15.5t18.5 41t7.5 56.5t1.5 63v45t-5 59t-18 51t-39 22q-24 0 -36 -22t-17 -51t-5.5 -59t-0.5 -45t0.5 -44.5t5.5 -58.5t17 -51t36 -22zM137 440h2q14 32 34 52.5t59 20.5q29 0 49.5 -14t33.5 -36.5t20.5 -51.5t11 -58.5t4 -57.5t0.5 -48
q0 -32 -2.5 -76t-14 -83.5t-36 -67.5t-69.5 -28q-37 0 -56.5 17t-33.5 48h-2v-264h-94v712h94v-65z" />
    <glyph glyph-name="q" unicode="q" horiz-adv-x="380" 
d="M187 76q24 0 36 22t17 51t5.5 58.5t0.5 44.5t-0.5 45t-5.5 59t-17 51t-36 22q-26 0 -39 -22t-18 -51t-5 -59v-45v-45q0 -29 5 -58.5t18 -51t39 -21.5zM337 -207h-94v264h-2q-14 -31 -33.5 -48t-56.5 -17q-45 0 -69.5 28t-36 67.5t-14 83.5t-2.5 76q0 20 0.5 48t4 57.5
t11 58.5t20.5 51.5t33.5 36.5t49.5 14q39 0 59 -20t34 -53h2v65h94v-712z" />
    <glyph glyph-name="r" unicode="r" horiz-adv-x="269" 
d="M138 443h2q17 33 42.5 51.5t64.5 18.5v-93l-16 1q-53 0 -72.5 -27.5t-19.5 -75.5v-318h-95v505h94v-62z" />
    <glyph glyph-name="s" unicode="s" horiz-adv-x="276" 
d="M234 402q-14 12 -33.5 19.5t-36.5 7.5q-26 0 -45 -14t-19 -40q1 -21 12.5 -36.5t29 -29.5t38 -28.5t38 -33t29 -44t11.5 -61.5q0 -67 -38.5 -108.5t-106.5 -41.5q-25 0 -43 5.5t-39 18.5v92q18 -14 36 -23t42 -9q31 0 47 17.5t16 46.5q0 22 -11.5 38.5t-29.5 31t-38 29
t-38 33t-29.5 43.5t-11.5 60q0 30 10 55.5t27.5 43.5t42.5 28.5t55 10.5q24 0 44.5 -5t40.5 -17v-89z" />
    <glyph glyph-name="t" unicode="t" horiz-adv-x="221" 
d="M157 648v-143h50v-74h-50v-431h-94v431h-51v74h51v143h94z" />
    <glyph glyph-name="u" unicode="u" horiz-adv-x="389" 
d="M138 505v-316v-37q0 -19 5 -35.5t17 -27.5t36 -11t35.5 10t16 26t4.5 34v36v321h94v-341q0 -39 -6.5 -71t-23 -54.5t-45 -34.5t-71.5 -12q-51 0 -82 14t-47.5 39t-21.5 60.5t-5 78.5v321h94z" />
    <glyph glyph-name="v" unicode="v" horiz-adv-x="358" 
d="M113 505l68 -382h2l3 30l37 204l31 148h91l-133 -505h-62l-137 505h100z" />
    <glyph glyph-name="w" unicode="w" horiz-adv-x="487" 
d="M96 505l54 -352v-10h2l22 157l39 205h67l57 -352v-10h2l26 188l33 174h92l-119 -505h-64l-51 259l-10 112h-2l-22 -181l-37 -190h-65l-123 505h99z" />
    <glyph glyph-name="x" unicode="x" horiz-adv-x="395" 
d="M124 505l71 -173l24 75l41 98h98l-114 -238l138 -267h-111l-50 109l-19.5 47t-13.5 49h-2q-2 -29 -12.5 -56.5l-21.5 -54.5l-40 -94h-98l126 267l-126 238h110z" />
    <glyph glyph-name="y" unicode="y" horiz-adv-x="373" 
d="M109 505l74 -352h2l85 352h95l-206 -712h-99l78 248l-134 464h105z" />
    <glyph glyph-name="z" unicode="z" horiz-adv-x="335" 
d="M321 505l-169 -421h160v-84h-298l175 421h-162v84h294z" />
    <glyph glyph-name="braceleft" unicode="{" horiz-adv-x="258" 
d="M2 353q16 2 31.5 6t28.5 13t21 24t9 38v188q0 39 9.5 64.5t27 40.5t42 21t53.5 6h31v-57q-43 -4 -62 -22t-17 -65v-159q0 -24 -3.5 -44t-14 -35.5t-29 -26.5t-47.5 -17v-2q29 -6 47.5 -17t29 -26.5t14 -35.5t3.5 -44v-159q-2 -47 17 -65t62 -22v-57h-31q-29 0 -53.5 6
t-42 21t-27 40.5t-9.5 64.5v188q-1 23 -9 38t-21 24t-28.5 13t-31.5 6v52z" />
    <glyph glyph-name="bar" unicode="|" horiz-adv-x="250" 
d="M160 786v-1000h-70v1000h70z" />
    <glyph glyph-name="braceright" unicode="}" horiz-adv-x="258" 
d="M3 -43q43 4 62 22t17 65v159q0 24 3.5 44t14 35.5t29 26.5t47.5 17v2q-29 6 -47.5 17t-29 26.5t-14 35.5t-3.5 44v159q2 47 -17 65t-62 22v57h31q29 0 53.5 -6t42 -21t27 -40.5t9.5 -64.5v-188q1 -23 9 -38t21 -24t28.5 -13t31.5 -6v-52q-16 -2 -31.5 -6t-28.5 -13
t-21 -24t-9 -38v-188q0 -39 -9.5 -64.5t-27 -40.5t-42 -21t-53.5 -6h-31v57z" />
    <glyph glyph-name="asciitilde" unicode="~" horiz-adv-x="500" 
d="M161 331q22 0 47 -10.5t49 -24.5l47 -24t38 -11q14 0 26 8t22.5 20t18.5 26.5t14 28.5l34 -47q-9 -20 -20.5 -40t-26 -36t-31.5 -25.5t-38 -9.5q-11 0 -26 5t-30.5 12t-30 14.5l-24.5 12.5l-33.5 16.5t-35.5 8.5q-16 0 -28.5 -8.5t-22.5 -21.5t-17.5 -29l-14.5 -31
l-34 48q9 21 20.5 42t25.5 38t31.5 27.5t39.5 10.5z" />
    <glyph glyph-name="exclamdown" unicode="&#xa1;" horiz-adv-x="252" 
d="M126 557q25 0 42.5 -17.5t17.5 -41.5q0 -26 -17.5 -43.5t-42.5 -17.5t-42.5 17.5t-17.5 43.5q0 24 17.5 41.5t42.5 17.5zM77 368h100v-573h-100v573z" />
    <glyph glyph-name="cent" unicode="&#xa2;" 
d="M220 114q-44 12 -68.5 38t-36.5 61t-14.5 76t-2.5 83q0 35 3 77t15 80.5t36.5 67.5t67.5 38v70h47v-72l23 -4t23 -7v-89q-9 8 -18.5 10.5t-20.5 2.5q-28 0 -43 -19.5t-22 -46.5t-8 -56t-1 -48t1.5 -49t8.5 -58t22.5 -48t42.5 -20q10 0 19.5 3.5t18.5 7.5v-83
q-19 -12 -48 -13v-65h-45v63z" />
    <glyph glyph-name="sterling" unicode="&#xa3;" 
d="M129 124q20 35 20 74q0 26 -5.5 46t-14.5 43h-88v39h74q-27 58 -50 116t-23 123q0 90 48 144t140 54q70 0 111 -39.5t44 -108.5l-78 -38q1 20 -2.5 39t-12.5 33.5t-24 23t-39 8.5q-44 0 -67.5 -27.5t-23.5 -69.5q0 -33 7.5 -66t18.5 -66t24 -64.5l25 -61.5h97v-39h-91
q11 -33 11 -67q0 -31 -5.5 -60t-19.5 -55l33.5 -18t35.5 -10q15 0 23 10.5t13 23.5l82 -27q-13 -37 -38.5 -65t-68.5 -28q-24 0 -45 7.5t-40 16.5l-36 16.5t-32 7.5q-14 0 -22.5 -10.5t-11.5 -23.5l-77 31q2 17 10 33t20.5 28.5t28.5 20t34 7.5z" />
    <glyph glyph-name="currency" unicode="&#xa4;" 
d="M209 481q-35 1 -64 -12.5t-49.5 -38t-32 -58t-11.5 -72.5q0 -36 11.5 -68.5t31.5 -57t48 -38.5t60 -14q34 0 62.5 14t49.5 38.5t32.5 57.5t11.5 71q0 36 -11 68.5t-31 57t-47.5 39t-60.5 13.5zM23 152q-22 35 -32.5 70t-10.5 78q0 45 10 80t33 71l-39 43l47 53l39 -43
q31 26 66 37.5t73 11.5q37 0 69 -13t62 -36l40 43l47 -53l-38 -43q22 -37 32 -73.5t10 -82.5q0 -42 -11 -75t-31 -68l38 -42l-47 -53l-40 43q-61 -50 -139 -50q-38 0 -69.5 13.5t-61.5 36.5l-39 -43l-47 53z" />
    <glyph glyph-name="yen" unicode="&#xa5;" 
d="M168 0v264h-118v50h118v11l-26 71h-92v50h74l-113 308h108l98 -348h2l14 96l60 252h107l-95 -308h81v-50h-96l-22 -71v-11h118v-50h-118v-264h-100z" />
    <glyph glyph-name="brokenbar" unicode="&#xa6;" horiz-adv-x="250" 
d="M160 161v-250h-70v250h70zM160 661v-250h-70v250h70z" />
    <glyph glyph-name="section" unicode="&#xa7;" horiz-adv-x="415" 
d="M250 211q22 17 37 40t15 52q1 23 -7 39.5t-22.5 28.5t-33 21.5l-37.5 18.5l-24 12q-20 -17 -32 -37t-12 -48q0 -24 9 -41.5t23 -31t32 -24.5l36 -21zM268 598q-2 13 -4.5 27t-8 26t-16 19.5t-26.5 7.5q-21 0 -33 -9.5t-17 -22.5t-6 -27t-1 -22q0 -26 7.5 -43.5
t20.5 -30.5t31.5 -22t40.5 -17q76 -31 107.5 -73t34.5 -97q0 -45 -20.5 -89t-58.5 -70q31 -25 44 -56t13 -71q0 -76 -40 -121t-118 -45t-122 42t-44 120v19h102q0 -16 2 -32.5t8.5 -30.5t18 -23t31.5 -9q35 0 49.5 24t14.5 56q0 25 -9 43t-24 32.5t-33.5 25.5l-37.5 22
l-53 30.5t-42 33t-29 44.5t-12 66q0 46 19 82.5t60 59.5q-36 23 -48 60.5t-12 76.5q0 35 11 64.5t31 50.5t48.5 33t64.5 12q39 0 68 -12t48.5 -34t29.5 -52.5t12 -67.5h-102z" />
    <glyph glyph-name="dieresis" unicode="&#xa8;" horiz-adv-x="280" 
d="M61 604q-23 0 -40.5 15.5t-17.5 39.5t16 41t42 17q23 0 39 -16.5t16 -38.5q0 -23 -16 -40.5t-39 -17.5zM222 604q-23 0 -40.5 15.5t-17.5 39.5t16 41t42 17q23 0 39 -16.5t16 -38.5q0 -23 -15.5 -40.5t-39.5 -17.5z" />
    <glyph glyph-name="copyright" unicode="&#xa9;" horiz-adv-x="800" 
d="M598 307q-4 -35 -20 -62.5t-40 -47.5t-55 -30.5t-65 -10.5q-49 0 -89 17.5t-68 47.5t-43.5 71t-15.5 89t14.5 88.5t42.5 70.5t67 47t89 17q70 0 120.5 -39t62.5 -108h-65q-7 46 -40 70t-77 24q-38 0 -66 -13t-46.5 -35.5t-27.5 -53.5t-9 -67q0 -35 9.5 -66.5t28.5 -55
t47 -37.5t66 -14q44 0 77 25t38 73h65zM76 377q0 -69 25 -128.5t69 -103t103 -68t128 -24.5t128 24.5t102.5 68.5t68.5 103t25 128q0 68 -25 127t-68.5 103t-102.5 69t-128 25t-128 -25t-103 -69t-69 -103t-25 -127zM401 -10q-81 0 -151.5 30t-123 82.5t-83 123.5t-30.5 152
q0 80 30.5 150.5t83 123t123 82.5t151.5 30q80 0 150.5 -30t123 -82.5t83 -123t30.5 -150.5q0 -81 -30.5 -152t-83 -123.5t-123 -82.5t-150.5 -30z" />
    <glyph glyph-name="ordfeminine" unicode="&#xaa;" horiz-adv-x="172" 
d="M88 714q-17 0 -25.5 -13t-11.5 -30.5t-3 -35.5v-27v-27t3 -36t11.5 -31t25.5 -13q15 0 23 13.5t11.5 31t4 35.5t0.5 27t-0.5 26.5t-4 35.5t-11.5 31t-23 13zM186 759v-303h-61v39h-2q-9 -20 -21.5 -32t-38.5 -12q-29 0 -44.5 18t-22.5 43.5t-8.5 53t-1.5 46.5t1.5 45
t9 50t23.5 40.5t45 16.5q22 0 36 -10.5t23 -27.5h1v33h61z" />
    <glyph glyph-name="guillemotleft" unicode="&#xab;" horiz-adv-x="357" 
d="M155 482l45 -27l-115 -195l104 -199l-44 -25l-119 224zM274 482l45 -27l-115 -195l104 -199l-44 -25l-119 224z" />
    <glyph glyph-name="logicalnot" unicode="&#xac;" horiz-adv-x="500" 
d="M387 314h-343v70h413v-267h-70v197z" />
    <glyph glyph-name="registered" unicode="&#xae;" horiz-adv-x="800" 
d="M381 404h48t48.5 6.5t37 22.5t14.5 48q0 23 -9 36.5t-23.5 20.5t-33.5 9t-39 2h-117v-145h74zM584 161h-70l-123 196h-84v-196h-61v435h190q27 0 54 -3t51 -21q24 -14 37.5 -40t12.5 -53q0 -33 -11 -56t-29.5 -37.5t-43.5 -21t-53 -7.5zM401 53q69 0 128 24.5t102.5 68.5
t68.5 103t25 128q0 68 -25 127t-68.5 103t-102.5 69t-128 25t-128 -25t-103 -69t-69 -103t-25 -127q0 -69 25 -128.5t69 -103t103 -68t128 -24.5zM401 -10q-81 0 -151.5 30t-123 82.5t-83 123.5t-30.5 152q0 80 30.5 150.5t83 123t123 82.5t151.5 30q80 0 150.5 -30
t123 -82.5t83 -123t30.5 -150.5q0 -81 -30.5 -152t-83 -123.5t-123 -82.5t-150.5 -30z" />
    <glyph glyph-name="macron" unicode="&#xaf;" horiz-adv-x="280" 
d="M-16 657v58h313v-58h-313z" />
    <glyph glyph-name="macron" unicode="&#x2c9;" horiz-adv-x="280" 
d="M-16 657v58h313v-58h-313z" />
    <glyph glyph-name="degree" unicode="&#xb0;" horiz-adv-x="400" 
d="M200 692q-18 0 -34 -7t-28 -19t-19 -28t-7 -34q0 -37 26 -62.5t62 -25.5t62 25.5t26 62.5q0 18 -7 34t-19 28t-28 19t-34 7zM200 754q31 0 58 -12t47.5 -32.5t32.5 -47.5t12 -58t-12 -58.5t-32.5 -47.5t-47.5 -32t-58 -12t-58 12t-47.5 32t-32.5 47.5t-12 58.5t12 58
t32.5 47.5t47.5 32.5t58 12z" />
    <glyph glyph-name="plusminus" unicode="&#xb1;" horiz-adv-x="500" 
d="M44 72h413v-70h-413v70zM215 507h70v-156h172v-70h-172v-159h-70v159h-171v70h171v156z" />
    <glyph glyph-name="twosuperior" unicode="&#xb2;" horiz-adv-x="247" 
d="M126 763q63 0 88 -29.5t25 -82.5q0 -26 -8.5 -55t-21 -58.5t-27.5 -57.5t-28 -50l-42 -69h122v-56h-219l8 23l107 209q14 28 24.5 57.5t10.5 60.5q0 18 -8 35t-31 17q-15 0 -22.5 -10.5t-10.5 -25t-2.5 -28.5t0.5 -21v-12h-73v17q0 27 3 51.5t14 43.5t32.5 30t58.5 11z
" />
    <glyph glyph-name="threesuperior" unicode="&#xb3;" horiz-adv-x="247" 
d="M171 537q21 -4 33.5 -14.5t19 -24.5t8.5 -31t2 -33q0 -28 -5 -52.5t-18 -43t-35.5 -29t-56.5 -10.5q-59 0 -83 27t-24 78v14h69v-15q-1 -19 8 -33.5t30 -14.5q16 0 24.5 9t12.5 22t4.5 27.5t0.5 25.5q0 14 -2 28t-8 24.5t-17.5 16.5t-30.5 6h-19v54h8q42 0 54.5 15.5
t12.5 53.5q0 9 -0.5 21t-3.5 23t-10 18.5t-19 7.5t-19 -5.5t-10.5 -14t-5 -18.5t-1.5 -19v-13h-69l4 4q-2 25 0.5 47.5t13 39t30.5 26t55 9.5q31 0 51.5 -9t32.5 -25t16.5 -37t4.5 -46q0 -16 -1.5 -32.5t-7.5 -31t-17.5 -26t-31.5 -17.5v-2z" />
    <glyph glyph-name="acute" unicode="&#xb4;" horiz-adv-x="280" 
d="M116 568l-50 29l82 149l67 -43z" />
    <glyph glyph-name="mu" unicode="&#xb5;" horiz-adv-x="388" 
d="M345 505v-347q0 -29 -2 -58.5t-11.5 -53.5t-30.5 -39t-59 -15t-62 17.5t-40 48.5h-2v-262h-94v709h94v-315v-36t5 -37t17 -29t35 -12q19 0 30 7.5t17 19.5t7.5 26t1.5 27v349h94z" />
    <glyph glyph-name="mu" unicode="&#x3bc;" horiz-adv-x="388" 
d="M345 505v-347q0 -29 -2 -58.5t-11.5 -53.5t-30.5 -39t-59 -15t-62 17.5t-40 48.5h-2v-262h-94v709h94v-315v-36t5 -37t17 -29t35 -12q19 0 30 7.5t17 19.5t7.5 26t1.5 27v349h94z" />
    <glyph glyph-name="paragraph" unicode="&#xb6;" horiz-adv-x="440" 
d="M157 370q-31 0 -59.5 15t-50 41t-34.5 60.5t-13 73.5q0 42 13.5 80.5t38.5 65.5q15 16 30 25.5t31 14.5t33.5 6.5t36.5 1.5h208v-866h-79v799h-76v-799h-79v482z" />
    <glyph glyph-name="periodcentered" unicode="&#xb7;" horiz-adv-x="205" 
d="M103 195q-25 0 -42.5 17.5t-17.5 43.5q0 24 17.5 41.5t42.5 17.5t42.5 -17.5t17.5 -41.5q0 -26 -17.5 -43.5t-42.5 -17.5z" />
    <glyph glyph-name="periodcentered" unicode="&#x2219;" horiz-adv-x="205" 
d="M103 195q-25 0 -42.5 17.5t-17.5 43.5q0 24 17.5 41.5t42.5 17.5t42.5 -17.5t17.5 -41.5q0 -26 -17.5 -43.5t-42.5 -17.5z" />
    <glyph glyph-name="cedilla" unicode="&#xb8;" horiz-adv-x="280" 
d="M204 -83l-85 -133l-43 23l62 142z" />
    <glyph glyph-name="onesuperior" unicode="&#xb9;" horiz-adv-x="247" 
d="M164 758v-453h-72v399h-48v54h120z" />
    <glyph glyph-name="ordmasculine" unicode="&#xba;" horiz-adv-x="172" 
d="M87 712q-17 0 -25.5 -13t-11.5 -31t-3 -36v-26v-26t3 -34.5t11.5 -30t25.5 -12.5q16 0 24 13t11 30t3 34v26v26q0 18 -3 36t-11 31t-24 13zM86 451q-35 0 -55 15t-31 38t-14 50t-3 52t3 52.5t13.5 51t31 39t55.5 15.5t55.5 -15.5t31 -39t13.5 -51t3 -52.5t-3 -52t-14 -50
t-31.5 -38t-54.5 -15z" />
    <glyph glyph-name="guillemotright" unicode="&#xbb;" horiz-adv-x="357" 
d="M212 36l-44 25l104 199l-115 195l45 27l129 -222zM93 36l-44 25l104 199l-115 195l45 27l129 -222z" />
    <glyph glyph-name="onequarter" unicode="&#xbc;" horiz-adv-x="616" 
d="M491 360h-2l-79 -190h81v190zM164 758v-453h-72v399h-48v54h120zM527 754l-374 -754h-62l374 754h62zM561 170h31v-48h-31v-122h-70v122h-140v54l132 277h78v-283z" />
    <glyph glyph-name="onehalf" unicode="&#xbd;" horiz-adv-x="616" 
d="M152 758v-453h-72v395h-48v58h120zM495 754l-374 -754h-62l374 754h62zM360 0l8 23l107 209q14 28 24.5 57.5t10.5 60.5q0 18 -8 35t-31 17q-15 0 -22.5 -10.5t-10.5 -25t-2.5 -28.5t0.5 -21v-12h-73v17q0 27 3 51.5t14 43.5t32.5 30t58.5 11q63 0 88 -29.5t25 -82.5
q0 -26 -8.5 -55t-21 -58.5t-27.5 -57.5t-28 -50l-42 -69h122v-56h-219z" />
    <glyph glyph-name="threequarters" unicode="&#xbe;" horiz-adv-x="616" 
d="M487 360h-2l-79 -190h81v190zM547 754l-374 -754h-62l374 754h62zM134 763q31 0 51.5 -9t32.5 -25t16.5 -37t4.5 -46q0 -16 -1.5 -32.5t-7.5 -31t-17.5 -26t-31.5 -17.5v-2q21 -4 33.5 -14.5t19 -24.5t8.5 -31t2 -33q0 -28 -5 -52.5t-18 -43t-35.5 -29t-56.5 -10.5
q-59 0 -83 27t-24 78v14h69v-15q-1 -19 8 -33.5t30 -14.5q16 0 24.5 9t12.5 21.5t4.5 27t0.5 26.5q0 14 -2 28t-8 24.5t-17.5 16.5t-30.5 6h-19v54h8q42 0 54.5 15.5t12.5 53.5q0 9 -0.5 21t-3.5 23t-10 18.5t-19 7.5t-19 -5.5t-10.5 -14t-5 -18.5t-1.5 -19v-13h-69l4 4
q-2 25 0.5 47.5t13 39t30.5 26t55 9.5zM347 122v54l132 277h78v-283h31v-48h-31v-122h-70v122h-140z" />
    <glyph glyph-name="questiondown" unicode="&#xbf;" horiz-adv-x="341" 
d="M183 557q25 0 42.5 -17.5t17.5 -41.5q0 -26 -17.5 -43.5t-42.5 -17.5t-42.5 17.5t-17.5 43.5q0 24 17.5 41.5t42.5 17.5zM226 368v-227l-22 1q-28 0 -43 -10t-22 -27t-8 -39t-1 -46q0 -12 -0.5 -37t3.5 -50t14.5 -43.5t33.5 -18.5q17 0 25.5 10t12 24t3.5 30v28v18h94
v-14q-1 -36 -5 -69t-17.5 -58t-39.5 -40t-72 -15q-53 0 -82.5 19t-44 50.5t-18 71.5t-3.5 83q0 28 1.5 63t11.5 65.5t31 51t60 19.5v160h88z" />
    <glyph glyph-name="Agrave" unicode="&#xc0;" horiz-adv-x="414" 
d="M185 965l82 -149l-50 -29l-99 135zM245 334l-38 274h-2l-60 -383h120zM247 754l162 -754h-101l-28 147h-150l-28 -147h-98l164 754h79z" />
    <glyph glyph-name="Aacute" unicode="&#xc1;" horiz-adv-x="414" 
d="M198 787l-50 29l82 149l67 -43zM245 334l-38 274h-2l-60 -383h120zM247 754l162 -754h-101l-28 147h-150l-28 -147h-98l164 754h79z" />
    <glyph glyph-name="Acircumflex" unicode="&#xc2;" horiz-adv-x="414" 
d="M332 829l-47 -38l-78 83l-72 -83l-52 38l126 140zM245 334l-38 274h-2l-60 -383h120zM247 754l162 -754h-101l-28 147h-150l-28 -147h-98l164 754h79z" />
    <glyph glyph-name="Atilde" unicode="&#xc3;" horiz-adv-x="414" 
d="M333 936q0 -18 -3.5 -36t-12 -32t-23 -22.5t-35.5 -8.5q-14 0 -26.5 5t-24 11t-22.5 11t-21 5q-13 0 -18 -8t-4 -20h-61q0 18 4 35.5t13 32t23 23t35 8.5q17 0 30.5 -5t25.5 -11.5t22.5 -11.5t22.5 -5t15 10t4 19h56zM245 334l-38 274h-2l-60 -383h120zM247 754l162 -754
h-101l-28 147h-150l-28 -147h-98l164 754h79z" />
    <glyph glyph-name="Adieresis" unicode="&#xc4;" horiz-adv-x="414" 
d="M128 823q-23 0 -40.5 15.5t-17.5 39.5t16 41t42 17q23 0 39 -16.5t16 -38.5q0 -23 -16 -40.5t-39 -17.5zM289 823q-23 0 -40.5 15.5t-17.5 39.5t16 41t42 17q23 0 39 -16.5t16 -38.5q0 -23 -15.5 -40.5t-39.5 -17.5zM245 334l-38 274h-2l-60 -383h120zM247 754l162 -754
h-101l-28 147h-150l-28 -147h-98l164 754h79z" />
    <glyph glyph-name="Aring" unicode="&#xc5;" horiz-adv-x="414" 
d="M209 829q14 0 23.5 10t9.5 23q0 14 -9 25t-26 11q-16 0 -25 -11t-9 -25t11 -23.5t25 -9.5zM209 782q-33 0 -58 22t-25 57t23 59.5t58 24.5t58.5 -24.5t23.5 -59.5q0 -16 -6.5 -30t-17.5 -25t-25.5 -17.5t-30.5 -6.5zM245 334l-38 274h-2l-60 -383h120zM247 754l162 -754
h-101l-28 147h-150l-28 -147h-98l164 754h79z" />
    <glyph glyph-name="AE" unicode="&#xc6;" horiz-adv-x="566" 
d="M235 384l-32 227h-2l-60 -386h127zM410 754l19 -87h-164l52 -239h149l19 -87h-149l58 -254h161l20 -87h-262l-30 147h-157l-28 -147h-98l160 754h250z" />
    <glyph glyph-name="Ccedilla" unicode="&#xc7;" horiz-adv-x="369" 
d="M279 -83l-85 -133l-43 23l62 142zM353 651q-15 8 -31 13.5t-33 5.5q-35 0 -59 -15.5t-39.5 -41t-24.5 -57.5t-13 -65t-4.5 -64.5t-0.5 -54.5q0 -38 3.5 -87.5t17.5 -94t43.5 -75.5t80.5 -31q31 0 60 15v-88q-19 -12 -38.5 -16.5t-41.5 -4.5q-51 0 -88 17t-62.5 45.5
t-41.5 66t-24.5 79t-11.5 84.5t-3 83q0 38 2.5 82t10 88.5t22.5 85.5t40 73t61.5 51t87.5 19q26 0 45.5 -4.5t41.5 -17.5v-91z" />
    <glyph glyph-name="Egrave" unicode="&#xc8;" horiz-adv-x="347" 
d="M167 965l82 -149l-50 -29l-99 135zM330 754v-87h-169v-237h151v-87h-151v-256h169v-87h-269v754h269z" />
    <glyph glyph-name="Eacute" unicode="&#xc9;" horiz-adv-x="347" 
d="M195 787l-50 29l82 149l67 -43zM330 754v-87h-169v-237h151v-87h-151v-256h169v-87h-269v754h269z" />
    <glyph glyph-name="Ecircumflex" unicode="&#xca;" horiz-adv-x="347" 
d="M311 829l-47 -38l-78 83l-72 -83l-52 38l126 140zM330 754v-87h-169v-237h151v-87h-151v-256h169v-87h-269v754h269z" />
    <glyph glyph-name="Edieresis" unicode="&#xcb;" horiz-adv-x="347" 
d="M110 823q-23 0 -40.5 15.5t-17.5 39.5t16 41t42 17q23 0 39 -16.5t16 -38.5q0 -23 -16 -40.5t-39 -17.5zM271 823q-23 0 -40.5 15.5t-17.5 39.5t16 41t42 17q23 0 39 -16.5t16 -38.5q0 -23 -15.5 -40.5t-39.5 -17.5zM330 754v-87h-169v-237h151v-87h-151v-256h169v-87
h-269v754h269z" />
    <glyph glyph-name="Igrave" unicode="&#xcc;" horiz-adv-x="222" 
d="M89 965l82 -149l-50 -29l-99 135zM161 0h-100v754h100v-754z" />
    <glyph glyph-name="Iacute" unicode="&#xcd;" horiz-adv-x="222" 
d="M102 787l-50 29l82 149l67 -43zM161 0h-100v754h100v-754z" />
    <glyph glyph-name="Icircumflex" unicode="&#xce;" horiz-adv-x="222" 
d="M236 829l-47 -38l-78 83l-72 -83l-52 38l126 140zM161 0h-100v754h100v-754z" />
    <glyph glyph-name="Idieresis" unicode="&#xcf;" horiz-adv-x="222" 
d="M32 823q-23 0 -40.5 15.5t-17.5 39.5t16 41t42 17q23 0 39 -16.5t16 -38.5q0 -23 -16 -40.5t-39 -17.5zM193 823q-23 0 -40.5 15.5t-17.5 39.5t16 41t42 17q23 0 39 -16.5t16 -38.5q0 -23 -15.5 -40.5t-39.5 -17.5zM161 0h-100v754h100v-754z" />
    <glyph glyph-name="Eth" unicode="&#xd0;" horiz-adv-x="466" 
d="M161 430h70v-87h-70v-258q59 -2 91 21t47 62t17.5 90t2.5 106q0 56 -2.5 112t-17.5 100.5t-47 70.5t-91 22v-239zM61 754h112q33 0 64.5 -3t59.5 -15.5t51.5 -37.5t40.5 -68.5t26.5 -108.5t9.5 -157q0 -88 -10.5 -149.5t-29 -102t-45.5 -63t-59.5 -33.5t-70.5 -13.5
t-80 -2.5h-69v343h-70v87h70v324z" />
    <glyph glyph-name="Ntilde" unicode="&#xd1;" horiz-adv-x="472" 
d="M362 936q0 -18 -3.5 -36t-12 -32t-23 -22.5t-35.5 -8.5q-14 0 -26.5 5t-24 11t-22.5 11t-21 5q-13 0 -18 -8t-4 -20h-61q0 18 4 35.5t13 32t23 23t35 8.5q17 0 30.5 -5t25.5 -11.5t22.5 -11.5t22.5 -5t15 10t4 19h56zM146 530l15 -253v-277h-100v754h96l176 -573l2 2
l-24 302v269h100v-754h-93l-176 581l-2 -2z" />
    <glyph glyph-name="Ograve" unicode="&#xd2;" horiz-adv-x="476" 
d="M206 965l82 -149l-50 -29l-99 135zM238 670q-30 0 -47.5 -23.5t-27 -63t-12.5 -93t-3 -113.5t3 -113.5t12.5 -93t27 -63t47.5 -23.5t47.5 23.5t27 63t12.5 93t3 113.5t-3 113.5t-12.5 93t-27 63t-47.5 23.5zM238 764q49 0 82 -19t55 -51t34 -72.5t17.5 -83.5t6.5 -85
t1 -76t-1 -76t-6.5 -85t-17.5 -83.5t-34 -72.5t-55.5 -51t-81.5 -19t-81.5 19t-55.5 51t-34 72.5t-17.5 83.5t-6.5 85t-1 76t1 76t6.5 85t17.5 83.5t34 72.5t55 51t82 19z" />
    <glyph glyph-name="Oacute" unicode="&#xd3;" horiz-adv-x="476" 
d="M239 787l-50 29l82 149l67 -43zM238 670q-30 0 -47.5 -23.5t-27 -63t-12.5 -93t-3 -113.5t3 -113.5t12.5 -93t27 -63t47.5 -23.5t47.5 23.5t27 63t12.5 93t3 113.5t-3 113.5t-12.5 93t-27 63t-47.5 23.5zM238 764q49 0 82 -19t55 -51t34 -72.5t17.5 -83.5t6.5 -85t1 -76
t-1 -76t-6.5 -85t-17.5 -83.5t-34 -72.5t-55.5 -51t-81.5 -19t-81.5 19t-55.5 51t-34 72.5t-17.5 83.5t-6.5 85t-1 76t1 76t6.5 85t17.5 83.5t34 72.5t55 51t82 19z" />
    <glyph glyph-name="Ocircumflex" unicode="&#xd4;" horiz-adv-x="476" 
d="M363 829l-47 -38l-78 83l-72 -83l-52 38l126 140zM238 670q-30 0 -47.5 -23.5t-27 -63t-12.5 -93t-3 -113.5t3 -113.5t12.5 -93t27 -63t47.5 -23.5t47.5 23.5t27 63t12.5 93t3 113.5t-3 113.5t-12.5 93t-27 63t-47.5 23.5zM238 764q49 0 82 -19t55 -51t34 -72.5
t17.5 -83.5t6.5 -85t1 -76t-1 -76t-6.5 -85t-17.5 -83.5t-34 -72.5t-55.5 -51t-81.5 -19t-81.5 19t-55.5 51t-34 72.5t-17.5 83.5t-6.5 85t-1 76t1 76t6.5 85t17.5 83.5t34 72.5t55 51t82 19z" />
    <glyph glyph-name="Otilde" unicode="&#xd5;" horiz-adv-x="476" 
d="M364 936q0 -18 -3.5 -36t-12 -32t-23 -22.5t-35.5 -8.5q-14 0 -26.5 5t-24 11t-22.5 11t-21 5q-13 0 -18 -8t-4 -20h-61q0 18 4 35.5t13 32t23 23t35 8.5q17 0 30.5 -5t25.5 -11.5t22.5 -11.5t22.5 -5t15 10t4 19h56zM238 670q-30 0 -47.5 -23.5t-27 -63t-12.5 -93
t-3 -113.5t3 -113.5t12.5 -93t27 -63t47.5 -23.5t47.5 23.5t27 63t12.5 93t3 113.5t-3 113.5t-12.5 93t-27 63t-47.5 23.5zM238 764q49 0 82 -19t55 -51t34 -72.5t17.5 -83.5t6.5 -85t1 -76t-1 -76t-6.5 -85t-17.5 -83.5t-34 -72.5t-55.5 -51t-81.5 -19t-81.5 19t-55.5 51
t-34 72.5t-17.5 83.5t-6.5 85t-1 76t1 76t6.5 85t17.5 83.5t34 72.5t55 51t82 19z" />
    <glyph glyph-name="Odieresis" unicode="&#xd6;" horiz-adv-x="476" 
d="M159 823q-23 0 -40.5 15.5t-17.5 39.5t16 41t42 17q23 0 39 -16.5t16 -38.5q0 -23 -16 -40.5t-39 -17.5zM320 823q-23 0 -40.5 15.5t-17.5 39.5t16 41t42 17q23 0 39 -16.5t16 -38.5q0 -23 -15.5 -40.5t-39.5 -17.5zM238 670q-30 0 -47.5 -23.5t-27 -63t-12.5 -93
t-3 -113.5t3 -113.5t12.5 -93t27 -63t47.5 -23.5t47.5 23.5t27 63t12.5 93t3 113.5t-3 113.5t-12.5 93t-27 63t-47.5 23.5zM238 764q49 0 82 -19t55 -51t34 -72.5t17.5 -83.5t6.5 -85t1 -76t-1 -76t-6.5 -85t-17.5 -83.5t-34 -72.5t-55.5 -51t-81.5 -19t-81.5 19t-55.5 51
t-34 72.5t-17.5 83.5t-6.5 85t-1 76t1 76t6.5 85t17.5 83.5t34 72.5t55 51t82 19z" />
    <glyph glyph-name="multiply" unicode="&#xd7;" horiz-adv-x="500" 
d="M44 411l50 49l156 -157l158 158l49 -50l-157 -157l157 -157l-50 -49l-157 157l-158 -157l-48 49l157 157z" />
    <glyph glyph-name="Oslash" unicode="&#xd8;" horiz-adv-x="476" 
d="M166 162q10 -37 27 -57.5t45 -20.5q30 0 47.5 23.5t27 63t12.5 93t3 113.5q0 57 -3 108zM312 585q-10 40 -27.5 62.5t-46.5 22.5q-30 0 -47.5 -23.5t-27 -63t-12.5 -93t-3 -113.5q0 -63 3 -117zM76 108q-12 31 -19 66.5t-10.5 71t-4 69.5t-0.5 62q0 34 1 76t6.5 85
t17.5 83.5t34 72.5t55 51t82 19q45 0 77 -17t54 -46l36 72l50 -23l-53 -109q12 -31 18.5 -65.5t9.5 -69.5t3.5 -68t0.5 -61q0 -34 -1 -76t-6.5 -85t-17.5 -83.5t-34 -72.5t-55.5 -51t-81.5 -19q-45 0 -76.5 16.5t-51.5 42.5l-38 -76l-51 23z" />
    <glyph glyph-name="Ugrave" unicode="&#xd9;" horiz-adv-x="467" 
d="M197 965l82 -149l-50 -29l-99 135zM161 754v-553q0 -36 5 -59t14.5 -36t22.5 -17.5t28 -4.5q26 0 41 8t22.5 22t10 33.5t2.5 42.5v564h100v-535q0 -37 -2.5 -77.5t-18.5 -74t-51.5 -55.5t-100.5 -22q-60 0 -94.5 19t-52 52t-22 77.5t-4.5 95.5v520h100z" />
    <glyph glyph-name="Uacute" unicode="&#xda;" horiz-adv-x="467" 
d="M240 787l-50 29l82 149l67 -43zM161 754v-553q0 -36 5 -59t14.5 -36t22.5 -17.5t28 -4.5q26 0 41 8t22.5 22t10 33.5t2.5 42.5v564h100v-535q0 -37 -2.5 -77.5t-18.5 -74t-51.5 -55.5t-100.5 -22q-60 0 -94.5 19t-52 52t-22 77.5t-4.5 95.5v520h100z" />
    <glyph glyph-name="Ucircumflex" unicode="&#xdb;" horiz-adv-x="467" 
d="M359 829l-47 -38l-78 83l-72 -83l-52 38l126 140zM161 754v-553q0 -36 5 -59t14.5 -36t22.5 -17.5t28 -4.5q26 0 41 8t22.5 22t10 33.5t2.5 42.5v564h100v-535q0 -37 -2.5 -77.5t-18.5 -74t-51.5 -55.5t-100.5 -22q-60 0 -94.5 19t-52 52t-22 77.5t-4.5 95.5v520h100z
" />
    <glyph glyph-name="Udieresis" unicode="&#xdc;" horiz-adv-x="467" 
d="M155 823q-23 0 -40.5 15.5t-17.5 39.5t16 41t42 17q23 0 39 -16.5t16 -38.5q0 -23 -16 -40.5t-39 -17.5zM316 823q-23 0 -40.5 15.5t-17.5 39.5t16 41t42 17q23 0 39 -16.5t16 -38.5q0 -23 -15.5 -40.5t-39.5 -17.5zM161 754v-553q0 -36 5 -59t14.5 -36t22.5 -17.5
t28 -4.5q26 0 41 8t22.5 22t10 33.5t2.5 42.5v564h100v-535q0 -37 -2.5 -77.5t-18.5 -74t-51.5 -55.5t-100.5 -22q-60 0 -94.5 19t-52 52t-22 77.5t-4.5 95.5v520h100z" />
    <glyph glyph-name="Yacute" unicode="&#xdd;" horiz-adv-x="392" 
d="M212 787l-50 29l82 149l67 -43zM110 754l92 -349h2l16 97l64 252h107l-140 -429v-325h-100v325l-149 429h108z" />
    <glyph glyph-name="Thorn" unicode="&#xde;" horiz-adv-x="396" 
d="M161 519v-250q64 -5 87 28.5t23 96.5q0 25 -4.5 48t-15 40t-29.5 27t-47 10h-14zM161 604q40 0 78.5 -4.5t69 -24t49.5 -60t19 -113.5q0 -115 -49.5 -169t-166.5 -49v-184h-100v754h100v-150z" />
    <glyph glyph-name="germandbls" unicode="&#xdf;" horiz-adv-x="425" 
d="M64 647q0 41 5.5 76t21 60.5t44.5 40t77 14.5q90 0 125.5 -44t35.5 -129q0 -18 -2 -40.5t-9.5 -44t-21.5 -39t-38 -24.5v-2q34 -9 52 -35.5t26 -61t9 -72.5t1 -69q0 -69 -4 -121t-19.5 -86.5t-46.5 -52t-85 -17.5h-33v84h14q30 0 45.5 12t23 35.5t8.5 58.5t1 81
q0 30 -1 65.5t-10 66t-30 50.5t-61 19v84q28 -2 45 5.5t26 22t11.5 34t2.5 43.5q0 12 -2 28t-8 30.5t-18 24.5t-33 10q-24 0 -36 -13.5t-17 -32t-5 -38.5v-32v-638h-94v431h-43v74h43v142z" />
    <glyph glyph-name="agrave" unicode="&#xe0;" horiz-adv-x="380" 
d="M163 746l82 -149l-50 -29l-99 135zM187 76q24 0 36 22t17 51.5t5.5 59t0.5 44.5t-0.5 44.5t-5.5 58.5t-17 51t-36 22q-26 0 -39 -21.5t-18 -51t-5 -59.5v-44v-46q0 -29 5 -58.5t18 -51t39 -21.5zM243 65h-2q-14 -33 -33.5 -53t-59.5 -20q-29 0 -49.5 14t-33.5 37
t-20.5 52t-11 58.5t-4 57t-0.5 48.5t1 48t4.5 55t11 55.5t21 48.5t34 34t50.5 13q33 0 55 -18t35 -46h2v56h94v-505h-94v65z" />
    <glyph glyph-name="aacute" unicode="&#xe1;" horiz-adv-x="380" 
d="M196 568l-50 29l82 149l67 -43zM187 76q24 0 36 22t17 51.5t5.5 59t0.5 44.5t-0.5 44.5t-5.5 58.5t-17 51t-36 22q-26 0 -39 -21.5t-18 -51t-5 -59.5v-44v-46q0 -29 5 -58.5t18 -51t39 -21.5zM243 65h-2q-14 -33 -33.5 -53t-59.5 -20q-29 0 -49.5 14t-33.5 37t-20.5 52
t-11 58.5t-4 57t-0.5 48.5t1 48t4.5 55t11 55.5t21 48.5t34 34t50.5 13q33 0 55 -18t35 -46h2v56h94v-505h-94v65z" />
    <glyph glyph-name="acircumflex" unicode="&#xe2;" horiz-adv-x="380" 
d="M315 610l-47 -38l-78 83l-72 -83l-52 38l126 140zM187 76q24 0 36 22t17 51.5t5.5 59t0.5 44.5t-0.5 44.5t-5.5 58.5t-17 51t-36 22q-26 0 -39 -21.5t-18 -51t-5 -59.5v-44v-46q0 -29 5 -58.5t18 -51t39 -21.5zM243 65h-2q-14 -33 -33.5 -53t-59.5 -20q-29 0 -49.5 14
t-33.5 37t-20.5 52t-11 58.5t-4 57t-0.5 48.5t1 48t4.5 55t11 55.5t21 48.5t34 34t50.5 13q33 0 55 -18t35 -46h2v56h94v-505h-94v65z" />
    <glyph glyph-name="atilde" unicode="&#xe3;" horiz-adv-x="380" 
d="M316 717q0 -18 -3.5 -36t-12 -32t-23 -22.5t-35.5 -8.5q-14 0 -26.5 5t-24 11t-22.5 11t-21 5q-13 0 -18 -8t-4 -20h-61q0 18 4 35.5t13 32t23 23t35 8.5q17 0 30.5 -5t25.5 -11.5t22.5 -11.5t22.5 -5t15 10t4 19h56zM187 76q24 0 36 22t17 51.5t5.5 59t0.5 44.5
t-0.5 44.5t-5.5 58.5t-17 51t-36 22q-26 0 -39 -21.5t-18 -51t-5 -59.5v-44v-46q0 -29 5 -58.5t18 -51t39 -21.5zM243 65h-2q-14 -33 -33.5 -53t-59.5 -20q-29 0 -49.5 14t-33.5 37t-20.5 52t-11 58.5t-4 57t-0.5 48.5t1 48t4.5 55t11 55.5t21 48.5t34 34t50.5 13
q33 0 55 -18t35 -46h2v56h94v-505h-94v65z" />
    <glyph glyph-name="adieresis" unicode="&#xe4;" horiz-adv-x="380" 
d="M111 604q-23 0 -40.5 15.5t-17.5 39.5t16 41t42 17q23 0 39 -16.5t16 -38.5q0 -23 -16 -40.5t-39 -17.5zM272 604q-23 0 -40.5 15.5t-17.5 39.5t16 41t42 17q23 0 39 -16.5t16 -38.5q0 -23 -15.5 -40.5t-39.5 -17.5zM187 76q24 0 36 22t17 51.5t5.5 59t0.5 44.5
t-0.5 44.5t-5.5 58.5t-17 51t-36 22q-26 0 -39 -21.5t-18 -51t-5 -59.5v-44v-46q0 -29 5 -58.5t18 -51t39 -21.5zM243 65h-2q-14 -33 -33.5 -53t-59.5 -20q-29 0 -49.5 14t-33.5 37t-20.5 52t-11 58.5t-4 57t-0.5 48.5t1 48t4.5 55t11 55.5t21 48.5t34 34t50.5 13
q33 0 55 -18t35 -46h2v56h94v-505h-94v65z" />
    <glyph glyph-name="aring" unicode="&#xe5;" horiz-adv-x="380" 
d="M192 630q14 0 23.5 10t9.5 23q0 14 -9 25t-26 11q-16 0 -25 -11t-9 -25t11 -23.5t25 -9.5zM192 583q-33 0 -58 22t-25 57t23 59.5t58 24.5t58.5 -24.5t23.5 -59.5q0 -16 -6.5 -30t-17.5 -25t-25.5 -17.5t-30.5 -6.5zM187 76q24 0 36 22t17 51.5t5.5 59t0.5 44.5
t-0.5 44.5t-5.5 58.5t-17 51t-36 22q-26 0 -39 -21.5t-18 -51t-5 -59.5v-44v-46q0 -29 5 -58.5t18 -51t39 -21.5zM243 65h-2q-14 -33 -33.5 -53t-59.5 -20q-29 0 -49.5 14t-33.5 37t-20.5 52t-11 58.5t-4 57t-0.5 48.5t1 48t4.5 55t11 55.5t21 48.5t34 34t50.5 13
q33 0 55 -18t35 -46h2v56h94v-505h-94v65z" />
    <glyph glyph-name="ae" unicode="&#xe6;" horiz-adv-x="561" 
d="M439 323q0 13 -1.5 32t-7.5 36t-17 29.5t-30 12.5q-20 0 -31.5 -12t-17.5 -29t-7.5 -36t-1.5 -33v-22h114v22zM179 252q-18 0 -29 -8.5t-17 -21t-8 -28t-2 -30.5t1.5 -32t7.5 -31.5t17.5 -24t30.5 -9.5t30.5 9t18 23t8.5 30.5t2 31.5t-2 31.5t-8.5 29.5t-18.5 21.5
t-31 8.5zM324 233q1 -18 1 -45t5.5 -53t18 -44.5t39.5 -18.5q16 0 27 8.5t17.5 21.5t8.5 27t2 26v18h89q-1 -35 -8 -68t-23.5 -58t-44 -40t-67.5 -15q-44 0 -76 18.5t-47 60.5q-14 -38 -41 -58.5t-70 -20.5q-36 0 -60 12.5t-38.5 34t-21 50t-6.5 60.5q0 30 5 61.5t19 57
t37.5 42t61.5 16.5q22 0 44 -7.5t35 -25.5l2 2v43q-3 40 -19.5 62.5t-63.5 22.5q-28 0 -50.5 -7.5t-45.5 -21.5v93q26 14 50 20t53 6q38 0 70 -14.5t48 -50.5q34 65 107 65q49 0 79 -24.5t46 -61t21 -80t5 -81.5v-33h-209z" />
    <glyph glyph-name="ccedilla" unicode="&#xe7;" horiz-adv-x="278" 
d="M218 -83l-85 -133l-43 23l62 142zM254 401h-2q-15 23 -44 24q-30 0 -47 -19t-25 -45t-9.5 -55t-1.5 -49q0 -19 1.5 -49t9.5 -58.5t24 -49t46 -20.5q16 0 26.5 5.5t21.5 13.5v-87q-34 -20 -76 -20q-50 0 -79.5 26t-45 64.5t-20 83t-4.5 82.5q0 39 4 85.5t19 86t45 66.5
t82 27q40 0 75 -17v-95z" />
    <glyph glyph-name="egrave" unicode="&#xe8;" horiz-adv-x="361" 
d="M144 746l82 -149l-50 -29l-99 135zM237 301q0 15 -1 36.5t-6 42t-17 35t-33 14.5q-22 0 -33.5 -14.5t-16 -35t-5 -42t-0.5 -36.5h112zM125 234q0 -16 0.5 -42.5t6 -52t17.5 -44.5t35 -19q19 0 30.5 9t18 23t8.5 30.5t2 31.5h87q0 -35 -8 -67t-25.5 -57t-45.5 -39.5
t-68 -14.5q-53 0 -83.5 25t-46.5 63.5t-20 83.5t-4 85q0 26 1.5 55.5t6.5 59t15 56.5t27 47.5t41.5 33t59.5 12.5q51 0 81.5 -26.5t46.5 -66.5t20.5 -86t4.5 -85v-15h-208z" />
    <glyph glyph-name="eacute" unicode="&#xe9;" horiz-adv-x="361" 
d="M187 568l-50 29l82 149l67 -43zM237 301q0 15 -1 36.5t-6 42t-17 35t-33 14.5q-22 0 -33.5 -14.5t-16 -35t-5 -42t-0.5 -36.5h112zM125 234q0 -16 0.5 -42.5t6 -52t17.5 -44.5t35 -19q19 0 30.5 9t18 23t8.5 30.5t2 31.5h87q0 -35 -8 -67t-25.5 -57t-45.5 -39.5
t-68 -14.5q-53 0 -83.5 25t-46.5 63.5t-20 83.5t-4 85q0 26 1.5 55.5t6.5 59t15 56.5t27 47.5t41.5 33t59.5 12.5q51 0 81.5 -26.5t46.5 -66.5t20.5 -86t4.5 -85v-15h-208z" />
    <glyph glyph-name="ecircumflex" unicode="&#xea;" horiz-adv-x="361" 
d="M237 301q0 15 -1 36.5t-6 42t-17 35t-33 14.5q-22 0 -33.5 -14.5t-16 -35t-5 -42t-0.5 -36.5h112zM306 610l-47 -38l-78 83l-72 -83l-52 38l126 140zM125 234q0 -16 0.5 -42.5t6 -52t17.5 -44.5t35 -19q19 0 30.5 9t18 23t8.5 30.5t2 31.5h87q0 -35 -8 -67t-25.5 -57
t-45.5 -39.5t-68 -14.5q-53 0 -83.5 25t-46.5 63.5t-20 83.5t-4 85q0 26 1.5 55.5t6.5 59t15 56.5t27 47.5t41.5 33t59.5 12.5q51 0 81.5 -26.5t46.5 -66.5t20.5 -86t4.5 -85v-15h-208z" />
    <glyph glyph-name="edieresis" unicode="&#xeb;" horiz-adv-x="361" 
d="M102 604q-23 0 -40.5 15.5t-17.5 39.5t16 41t42 17q23 0 39 -16.5t16 -38.5q0 -23 -16 -40.5t-39 -17.5zM263 604q-23 0 -40.5 15.5t-17.5 39.5t16 41t42 17q23 0 39 -16.5t16 -38.5q0 -23 -15.5 -40.5t-39.5 -17.5zM237 301q0 15 -1 36.5t-6 42t-17 35t-33 14.5
q-22 0 -33.5 -14.5t-16 -35t-5 -42t-0.5 -36.5h112zM125 234q0 -16 0.5 -42.5t6 -52t17.5 -44.5t35 -19q19 0 30.5 9t18 23t8.5 30.5t2 31.5h87q0 -35 -8 -67t-25.5 -57t-45.5 -39.5t-68 -14.5q-53 0 -83.5 25t-46.5 63.5t-20 83.5t-4 85q0 26 1.5 55.5t6.5 59t15 56.5
t27 47.5t41.5 33t59.5 12.5q51 0 81.5 -26.5t46.5 -66.5t20.5 -86t4.5 -85v-15h-208z" />
    <glyph glyph-name="igrave" unicode="&#xec;" horiz-adv-x="180" 
d="M68 746l82 -149l-50 -29l-99 135zM137 505v-505h-94v505h94z" />
    <glyph glyph-name="iacute" unicode="&#xed;" horiz-adv-x="180" 
d="M81 568l-50 29l82 149l67 -43zM137 505v-505h-94v505h94z" />
    <glyph glyph-name="icircumflex" unicode="&#xee;" horiz-adv-x="180" 
d="M215 610l-47 -38l-78 83l-72 -83l-52 38l126 140zM137 505v-505h-94v505h94z" />
    <glyph glyph-name="idieresis" unicode="&#xef;" horiz-adv-x="180" 
d="M11 604q-23 0 -40.5 15.5t-17.5 39.5t16 41t42 17q23 0 39 -16.5t16 -38.5q0 -23 -16 -40.5t-39 -17.5zM172 604q-23 0 -40.5 15.5t-17.5 39.5t16 41t42 17q23 0 39 -16.5t16 -38.5q0 -23 -15.5 -40.5t-39.5 -17.5zM137 505v-505h-94v505h94z" />
    <glyph glyph-name="eth" unicode="&#xf0;" horiz-adv-x="375" 
d="M125 251q0 -36 1.5 -68t8 -55t19 -36.5t34.5 -13.5q24 0 36.5 15.5t18.5 40t7 55.5t1 62q0 30 -1 61t-7 57t-18.5 42.5t-36.5 16.5q-23 0 -35.5 -16t-18.5 -41.5t-7.5 -57t-1.5 -62.5zM63 640l77 36q-26 42 -50.5 77t-41.5 57l75 28q27 -34 48.5 -64.5l41.5 -61.5l73 38
l32 -50l-76 -38q57 -93 81 -196.5t24 -203.5q0 -49 -4.5 -97t-21 -86.5t-48 -62.5t-85.5 -24t-85.5 25t-48 63t-21 84t-4.5 87q0 38 4.5 81t20.5 79t46.5 60t83.5 24q13 0 24 -1.5t25 -9.5q-12 39 -27 71.5t-38 70.5l-74 -36z" />
    <glyph glyph-name="ntilde" unicode="&#xf1;" horiz-adv-x="388" 
d="M314 717q0 -18 -3.5 -36t-12 -32t-23 -22.5t-35.5 -8.5q-14 0 -26.5 5t-24 11t-22.5 11t-21 5q-13 0 -18 -8t-4 -20h-61q0 18 4 35.5t13 32t23 23t35 8.5q17 0 30.5 -5t25.5 -11.5t22.5 -11.5t22.5 -5t15 10t4 19h56zM138 447h2q16 31 40 48.5t62 17.5q37 0 58 -15
t31 -39t12 -53.5t2 -58.5v-347h-94v349q0 13 -1.5 27t-7.5 26t-17 19.5t-30 7.5q-23 0 -35 -12t-17 -29t-5 -37v-36v-315h-94v505h94v-58z" />
    <glyph glyph-name="ograve" unicode="&#xf2;" horiz-adv-x="375" 
d="M166 746l82 -149l-50 -29l-99 135zM188 78q27 0 40 22t18.5 51t5 57.5t-0.5 42.5q0 15 0.5 44.5t-5 58.5t-18.5 51t-40 22t-40 -22t-18.5 -51t-5 -58.5t0.5 -44.5q0 -14 -0.5 -42.5t5 -57.5t18.5 -51t40 -22zM188 -8q-54 0 -85.5 25.5t-48 64t-21 84t-4.5 85.5
q0 41 4.5 87t21 85t48 64.5t85.5 25.5t85.5 -25.5t48 -64.5t21 -85t4.5 -87q0 -40 -4.5 -85.5t-21 -84t-48 -64t-85.5 -25.5z" />
    <glyph glyph-name="oacute" unicode="&#xf3;" horiz-adv-x="375" 
d="M179 568l-50 29l82 149l67 -43zM188 78q27 0 40 22t18.5 51t5 57.5t-0.5 42.5q0 15 0.5 44.5t-5 58.5t-18.5 51t-40 22t-40 -22t-18.5 -51t-5 -58.5t0.5 -44.5q0 -14 -0.5 -42.5t5 -57.5t18.5 -51t40 -22zM188 -8q-54 0 -85.5 25.5t-48 64t-21 84t-4.5 85.5q0 41 4.5 87
t21 85t48 64.5t85.5 25.5t85.5 -25.5t48 -64.5t21 -85t4.5 -87q0 -40 -4.5 -85.5t-21 -84t-48 -64t-85.5 -25.5z" />
    <glyph glyph-name="ocircumflex" unicode="&#xf4;" horiz-adv-x="375" 
d="M313 610l-47 -38l-78 83l-72 -83l-52 38l126 140zM188 78q27 0 40 22t18.5 51t5 57.5t-0.5 42.5q0 15 0.5 44.5t-5 58.5t-18.5 51t-40 22t-40 -22t-18.5 -51t-5 -58.5t0.5 -44.5q0 -14 -0.5 -42.5t5 -57.5t18.5 -51t40 -22zM188 -8q-54 0 -85.5 25.5t-48 64t-21 84
t-4.5 85.5q0 41 4.5 87t21 85t48 64.5t85.5 25.5t85.5 -25.5t48 -64.5t21 -85t4.5 -87q0 -40 -4.5 -85.5t-21 -84t-48 -64t-85.5 -25.5z" />
    <glyph glyph-name="otilde" unicode="&#xf5;" horiz-adv-x="375" 
d="M314 717q0 -18 -3.5 -36t-12 -32t-23 -22.5t-35.5 -8.5q-14 0 -26.5 5t-24 11t-22.5 11t-21 5q-13 0 -18 -8t-4 -20h-61q0 18 4 35.5t13 32t23 23t35 8.5q17 0 30.5 -5t25.5 -11.5t22.5 -11.5t22.5 -5t15 10t4 19h56zM188 78q27 0 40 22t18.5 51t5 57.5t-0.5 42.5
q0 15 0.5 44.5t-5 58.5t-18.5 51t-40 22t-40 -22t-18.5 -51t-5 -58.5t0.5 -44.5q0 -14 -0.5 -42.5t5 -57.5t18.5 -51t40 -22zM188 -8q-54 0 -85.5 25.5t-48 64t-21 84t-4.5 85.5q0 41 4.5 87t21 85t48 64.5t85.5 25.5t85.5 -25.5t48 -64.5t21 -85t4.5 -87q0 -40 -4.5 -85.5
t-21 -84t-48 -64t-85.5 -25.5z" />
    <glyph glyph-name="odieresis" unicode="&#xf6;" horiz-adv-x="375" 
d="M109 604q-23 0 -40.5 15.5t-17.5 39.5t16 41t42 17q23 0 39 -16.5t16 -38.5q0 -23 -16 -40.5t-39 -17.5zM270 604q-23 0 -40.5 15.5t-17.5 39.5t16 41t42 17q23 0 39 -16.5t16 -38.5q0 -23 -15.5 -40.5t-39.5 -17.5zM188 78q27 0 40 22t18.5 51t5 57.5t-0.5 42.5
q0 15 0.5 44.5t-5 58.5t-18.5 51t-40 22t-40 -22t-18.5 -51t-5 -58.5t0.5 -44.5q0 -14 -0.5 -42.5t5 -57.5t18.5 -51t40 -22zM188 -8q-54 0 -85.5 25.5t-48 64t-21 84t-4.5 85.5q0 41 4.5 87t21 85t48 64.5t85.5 25.5t85.5 -25.5t48 -64.5t21 -85t4.5 -87q0 -40 -4.5 -85.5
t-21 -84t-48 -64t-85.5 -25.5z" />
    <glyph glyph-name="divide" unicode="&#xf7;" horiz-adv-x="500" 
d="M210 407v100h79v-100h-79zM210 5v100h79v-100h-79zM44 291h413v-70h-413v70z" />
    <glyph glyph-name="oslash" unicode="&#xf8;" horiz-adv-x="375" 
d="M140 119q6 -19 18 -32t33 -13q25 0 38 19.5t17.5 46.5t4.5 54v43l-1 72h-2l-108 -190v0zM237 386q-7 21 -17 33t-33 12q-24 0 -37 -19t-18.5 -45t-6 -52t-0.5 -41l3 -77h2l107 189v0zM58 -9l-39 25l39 62q-20 43 -24.5 90.5t-4.5 93.5q0 40 5 84.5t21 81.5t47 61t83 24
q32 0 58.5 -9t48.5 -32l32 51l40 -24l-44 -72q18 -44 22.5 -91.5t4.5 -94.5q0 -41 -5 -85t-22 -80.5t-48.5 -60t-83.5 -23.5q-31 0 -57 9.5t-48 31.5z" />
    <glyph glyph-name="ugrave" unicode="&#xf9;" horiz-adv-x="389" 
d="M158 746l82 -149l-50 -29l-99 135zM138 505v-316v-37q0 -19 5 -35.5t17 -27.5t36 -11t35.5 10t16 26t4.5 34v36v321h94v-341q0 -39 -6.5 -71t-23 -54.5t-45 -34.5t-71.5 -12q-51 0 -82 14t-47.5 39t-21.5 60.5t-5 78.5v321h94z" />
    <glyph glyph-name="uacute" unicode="&#xfa;" horiz-adv-x="389" 
d="M201 568l-50 29l82 149l67 -43zM138 505v-316v-37q0 -19 5 -35.5t17 -27.5t36 -11t35.5 10t16 26t4.5 34v36v321h94v-341q0 -39 -6.5 -71t-23 -54.5t-45 -34.5t-71.5 -12q-51 0 -82 14t-47.5 39t-21.5 60.5t-5 78.5v321h94z" />
    <glyph glyph-name="ucircumflex" unicode="&#xfb;" horiz-adv-x="389" 
d="M320 610l-47 -38l-78 83l-72 -83l-52 38l126 140zM138 505v-316v-37q0 -19 5 -35.5t17 -27.5t36 -11t35.5 10t16 26t4.5 34v36v321h94v-341q0 -39 -6.5 -71t-23 -54.5t-45 -34.5t-71.5 -12q-51 0 -82 14t-47.5 39t-21.5 60.5t-5 78.5v321h94z" />
    <glyph glyph-name="udieresis" unicode="&#xfc;" horiz-adv-x="389" 
d="M116 604q-23 0 -40.5 15.5t-17.5 39.5t16 41t42 17q23 0 39 -16.5t16 -38.5q0 -23 -16 -40.5t-39 -17.5zM277 604q-23 0 -40.5 15.5t-17.5 39.5t16 41t42 17q23 0 39 -16.5t16 -38.5q0 -23 -15.5 -40.5t-39.5 -17.5zM138 505v-316v-37q0 -19 5 -35.5t17 -27.5t36 -11
t35.5 10t16 26t4.5 34v36v321h94v-341q0 -39 -6.5 -71t-23 -54.5t-45 -34.5t-71.5 -12q-51 0 -82 14t-47.5 39t-21.5 60.5t-5 78.5v321h94z" />
    <glyph glyph-name="yacute" unicode="&#xfd;" horiz-adv-x="373" 
d="M203 568l-50 29l82 149l67 -43zM109 505l74 -352h2l85 352h95l-206 -712h-99l78 248l-134 464h105z" />
    <glyph glyph-name="thorn" unicode="&#xfe;" horiz-adv-x="380" 
d="M193 76q22 0 34.5 15.5t18.5 41t7.5 56.5t1.5 63v45t-5 59t-18 51t-39 22q-24 0 -36 -22t-17 -51t-5.5 -59t-0.5 -45t0.5 -44.5t5.5 -58.5t17 -51t36 -22zM137 440h2q14 32 34 52.5t59 20.5q29 0 49.5 -14t33.5 -36.5t20.5 -51.5t11 -58.5t4 -57.5t0.5 -48
q0 -32 -2.5 -76t-14 -83.5t-36 -67.5t-69.5 -28q-37 0 -56.5 17t-33.5 48h-2v-264h-94v902h94v-255z" />
    <glyph glyph-name="ydieresis" unicode="&#xff;" horiz-adv-x="373" 
d="M108 604q-23 0 -40.5 15.5t-17.5 39.5t16 41t42 17q23 0 39 -16.5t16 -38.5q0 -23 -16 -40.5t-39 -17.5zM269 604q-23 0 -40.5 15.5t-17.5 39.5t16 41t42 17q23 0 39 -16.5t16 -38.5q0 -23 -15.5 -40.5t-39.5 -17.5zM109 505l74 -352h2l85 352h95l-206 -712h-99l78 248
l-134 464h105z" />
    <glyph glyph-name="dotlessi" unicode="&#x131;" horiz-adv-x="180" 
d="M137 505v-505h-94v505h94z" />
    <glyph glyph-name="Lslash" unicode="&#x141;" horiz-adv-x="331" 
d="M61 754h100v-296l92 60v-88l-92 -60v-283h168v-87h-268v301l-72 -48v88l72 49v364z" />
    <glyph glyph-name="lslash" unicode="&#x142;" horiz-adv-x="180" 
d="M43 390l-68 -58v76l68 54v368h94v-291l68 59v-76l-68 -57v-465h-94v390z" />
    <glyph glyph-name="OE" unicode="&#x152;" horiz-adv-x="598" 
d="M149 379q0 -14 -0.5 -41t1 -60t6 -67t14.5 -62t26.5 -46t41.5 -18q37 0 56 28.5t26 72t7 95.5v98q0 16 1.5 44t1 60.5t-4.5 66t-14 61t-27.5 45t-45.5 17.5q-25 0 -42 -15t-27.5 -49.5t-15 -90.5t-4.5 -139zM423 431h154v-87h-154v-257h172v-87h-262v60h-2
q-33 -70 -114 -70q-44 0 -74 20t-49 53t-29.5 74.5t-15.5 84t-5.5 82.5t-0.5 69q0 31 0.5 71.5t4.5 84t14 85.5t29.5 75.5t50 54t76.5 20.5q38 0 66 -17t42 -52h2v59h262v-87h-167v-236z" />
    <glyph glyph-name="oe" unicode="&#x153;" horiz-adv-x="581" 
d="M342 299h115q0 15 -1 38t-6.5 44.5t-17.5 36.5t-34 15q-23 0 -34.5 -14t-16.5 -34t-5 -42v-36v-8zM125 252q0 -14 0.5 -43t6 -58t18.5 -51t38 -22q24 0 37 22t18 51.5t5.5 58t0.5 42.5t-0.5 43.5t-5.5 59t-18 51.5t-37 22q-26 0 -39 -22.5t-18.5 -52t-5.5 -58.5v-43z
M340 234l1 -6q1 -15 2 -40.5t7 -50t19 -42t36 -17.5q19 0 30.5 9t18 22.5t9 30t2.5 31.5h86q-1 -36 -9.5 -68.5t-26.5 -57t-46.5 -39t-67.5 -14.5q-39 2 -65 22t-43 58q-17 -40 -42.5 -59t-67.5 -21q-54 0 -84.5 27t-46 68t-19.5 88t-4 88q0 40 5.5 84.5t22 81t47.5 60.5
t83 24q35 0 65 -20.5t42 -57.5h2q12 38 41 58t64 20q52 0 82.5 -26.5t46 -66t19.5 -85.5t4 -86v-15h-213z" />
    <glyph glyph-name="Scaron" unicode="&#x160;" horiz-adv-x="354" 
d="M53 930l52 39l72 -83l78 83l47 -39l-123 -139zM293 638q-20 14 -39.5 23t-45.5 9q-42 0 -65.5 -29t-23.5 -68q0 -25 6.5 -43.5t21.5 -38.5l76 -83q25 -26 45 -49.5t34 -49t21 -55t7 -67.5q0 -40 -12 -75.5t-35 -62.5t-55.5 -43t-74.5 -16q-29 0 -58 8.5t-52 27.5v101
q23 -17 46.5 -28t52.5 -11q46 0 67 31.5t21 73.5q0 38 -15.5 66.5t-39 54t-51 50.5t-51 54.5t-39 66t-15.5 86.5q0 40 10.5 75t31.5 61t53 41.5t74 15.5q29 0 55.5 -5.5t50.5 -19.5z" />
    <glyph glyph-name="scaron" unicode="&#x161;" horiz-adv-x="276" 
d="M14 711l52 39l72 -83l78 83l47 -39l-123 -139zM234 402q-14 12 -33.5 19.5t-36.5 7.5q-26 0 -45 -14t-19 -40q1 -21 12.5 -36.5t29 -29.5t38 -28.5t38 -33t29 -44t11.5 -61.5q0 -67 -38.5 -108.5t-106.5 -41.5q-25 0 -43 5.5t-39 18.5v92q18 -14 36 -23t42 -9
q31 0 47 17.5t16 46.5q0 22 -11.5 38.5t-29.5 31t-38 29t-38 33t-29.5 43.5t-11.5 60q0 30 10 55.5t27.5 43.5t42.5 28.5t55 10.5q24 0 44.5 -5t40.5 -17v-89z" />
    <glyph glyph-name="Ydieresis" unicode="&#x178;" horiz-adv-x="392" 
d="M117 823q-23 0 -40.5 15.5t-17.5 39.5t16 41t42 17q23 0 39 -16.5t16 -38.5q0 -23 -16 -40.5t-39 -17.5zM278 823q-23 0 -40.5 15.5t-17.5 39.5t16 41t42 17q23 0 39 -16.5t16 -38.5q0 -23 -15.5 -40.5t-39.5 -17.5zM110 754l92 -349h2l16 97l64 252h107l-140 -429v-325
h-100v325l-149 429h108z" />
    <glyph glyph-name="Zcaron" unicode="&#x17d;" horiz-adv-x="393" 
d="M81 930l52 39l72 -83l78 83l47 -39l-123 -139zM375 754l-227 -667h215v-87h-348l229 667h-202v87h333z" />
    <glyph glyph-name="zcaron" unicode="&#x17e;" horiz-adv-x="335" 
d="M44 711l52 39l72 -83l78 83l47 -39l-123 -139zM321 505l-169 -421h160v-84h-298l175 421h-162v84h294z" />
    <glyph glyph-name="florin" unicode="&#x192;" 
d="M415 508l-9 -74h-131l-55 -300l-8.5 -49t-11.5 -52.5t-16 -51t-22 -43.5q-15 -23 -37.5 -39.5t-48 -27t-53 -15.5t-54.5 -5h-24l15 84h19q38 4 63.5 16t45.5 46q6 11 12 28t11 35.5t8.5 36.5t6.5 32l53 305h-65l9 74h70l21 121q7 44 20 82t35.5 65.5t56.5 43.5t85 16
q33 0 60 -7l-16 -84q-18 7 -41 7q-25 0 -44 -7.5t-32 -30.5q-12 -21 -18.5 -46.5t-11.5 -49.5l-22 -110h129z" />
    <glyph glyph-name="circumflex" unicode="&#x2c6;" horiz-adv-x="280" 
d="M265 610l-47 -38l-78 83l-72 -83l-52 38l126 140z" />
    <glyph glyph-name="caron" unicode="&#x2c7;" horiz-adv-x="280" 
d="M16 711l52 39l72 -83l78 83l47 -39l-123 -139z" />
    <glyph glyph-name="breve" unicode="&#x2d8;" horiz-adv-x="280" 
d="M35 765q9 -42 37 -59.5t69 -17.5q42 0 68.5 17t36.5 60h49q-3 -71 -47 -103.5t-111 -32.5q-31 0 -58 8t-47 24.5t-32.5 42t-13.5 61.5h49z" />
    <glyph glyph-name="dotaccent" unicode="&#x2d9;" horiz-adv-x="280" 
d="M143 604q-23 0 -41 15t-18 40t16.5 41.5t41.5 16.5q23 0 39 -16.5t16 -38.5q0 -23 -15.5 -40.5t-38.5 -17.5z" />
    <glyph glyph-name="ring" unicode="&#x2da;" horiz-adv-x="280" 
d="M142 630q14 0 23.5 10t9.5 23q0 14 -9 25t-26 11q-16 0 -25 -11t-9 -25t11 -23.5t25 -9.5zM142 583q-33 0 -58 22t-25 57t23 59.5t58 24.5t58.5 -24.5t23.5 -59.5q0 -16 -6.5 -30t-17.5 -25t-25.5 -17.5t-30.5 -6.5z" />
    <glyph glyph-name="ogonek" unicode="&#x2db;" horiz-adv-x="280" 
d="M141 13q-5 -8 -10 -18.5t-8.5 -22.5t-6 -23.5t-2.5 -20.5q0 -26 18 -38t47 -10q16 -1 27 1.5t19.5 6.5t14.5 9.5t13 10.5v-79q-43 -20 -84 -20q-22 0 -44.5 5.5t-40.5 17.5t-29 30.5t-10 44.5q0 24 9.5 54t19.5 52h67z" />
    <glyph glyph-name="tilde" unicode="&#x2dc;" horiz-adv-x="280" 
d="M266 717q0 -18 -3.5 -36t-12 -32t-23 -22.5t-35.5 -8.5q-14 0 -26.5 5t-24 11t-22.5 11t-21 5q-13 0 -18 -8t-4 -20h-61q0 18 4 35.5t13 32t23 23t35 8.5q17 0 30.5 -5t25.5 -11.5t22.5 -11.5t22.5 -5t15 10t4 19h56z" />
    <glyph glyph-name="hungarumlaut" unicode="&#x2dd;" horiz-adv-x="280" 
d="M290 703l-99 -135l-50 29l82 149zM140 703l-99 -135l-50 29l82 149z" />
    <glyph glyph-name="endash" unicode="&#x2013;" horiz-adv-x="500" 
d="M500 296v-74h-500v74h500z" />
    <glyph glyph-name="emdash" unicode="&#x2014;" horiz-adv-x="1000" 
d="M870 296v-74h-740v74h740z" />
    <glyph glyph-name="quoteleft" unicode="&#x2018;" horiz-adv-x="213" 
d="M27 498l96 266l52 -15l-67 -275z" />
    <glyph glyph-name="quoteright" unicode="&#x2019;" horiz-adv-x="213" 
d="M186 740l-97 -265l-51 14l67 275z" />
    <glyph glyph-name="quotesinglbase" unicode="&#x201a;" horiz-adv-x="213" 
d="M186 81l-97 -265l-51 14l67 276z" />
    <glyph glyph-name="quotedblleft" unicode="&#x201c;" horiz-adv-x="344" 
d="M21 498l96 266l52 -15l-67 -275zM158 498l96 266l52 -15l-67 -275z" />
    <glyph glyph-name="quotedblright" unicode="&#x201d;" horiz-adv-x="344" 
d="M323 740l-97 -265l-51 14l67 275zM186 740l-97 -265l-51 14l67 275z" />
    <glyph glyph-name="quotedblbase" unicode="&#x201e;" horiz-adv-x="344" 
d="M323 81l-97 -265l-51 14l67 276zM186 81l-97 -265l-51 14l67 276z" />
    <glyph glyph-name="dagger" unicode="&#x2020;" horiz-adv-x="359" 
d="M227 754v-249h103v-82h-103v-560h-94v560h-104v82h104v249h94z" />
    <glyph glyph-name="daggerdbl" unicode="&#x2021;" horiz-adv-x="359" 
d="M227 754v-229h103v-82h-103v-184h103v-82h-103v-314h-94v314h-104v82h104v184h-104v82h104v229h94z" />
    <glyph glyph-name="bullet" unicode="&#x2022;" horiz-adv-x="400" 
d="M12 377q0 39 14.5 73t40 60t59.5 41t73 15q40 0 74.5 -15t60 -41t40.5 -60t15 -73q0 -38 -15 -72.5t-40.5 -60t-60 -40.5t-74.5 -15q-39 0 -73 15t-59.5 40.5t-40 60t-14.5 72.5z" />
    <glyph glyph-name="ellipsis" unicode="&#x2026;" horiz-adv-x="1000" 
d="M500 -10q-25 0 -42.5 17.5t-17.5 43.5q0 24 17.5 41.5t42.5 17.5t42.5 -17.5t17.5 -41.5q0 -26 -17.5 -43.5t-42.5 -17.5zM833 -10q-25 0 -42.5 17.5t-17.5 43.5q0 24 17.5 41.5t42.5 17.5t42.5 -17.5t17.5 -41.5q0 -26 -17.5 -43.5t-42.5 -17.5zM167 -10
q-25 0 -42.5 17.5t-17.5 43.5q0 24 17.5 41.5t42.5 17.5t42.5 -17.5t17.5 -41.5q0 -26 -17.5 -43.5t-42.5 -17.5z" />
    <glyph glyph-name="perthousand" unicode="&#x2030;" horiz-adv-x="817" 
d="M667 51q17 0 25.5 15t11.5 35t3 39v30v29t-3 40t-11.5 35t-25.5 15t-25.5 -15t-11.5 -35t-3 -40v-29v-30q0 -19 3 -39t11.5 -35t25.5 -15zM403 51q17 0 25.5 15t11.5 35t3 39v30v29t-3 40t-11.5 35t-25.5 15t-25.5 -15t-11.5 -35t-3 -40v-29v-30q0 -19 3 -39t11.5 -35
t25.5 -15zM149 465q17 0 25.5 15t11.5 35t3 39v30v29t-3 40t-11.5 35t-25.5 15t-25.5 -15t-11.5 -35t-3 -40v-29v-30q0 -19 3 -39t11.5 -35t25.5 -15zM494 754l-374 -754h-62l374 754h62zM667 349q37 0 58.5 -17.5t32 -44.5t13.5 -58.5t3 -58.5t-3 -58.5t-13.5 -58
t-32 -44.5t-58.5 -18t-58.5 18t-32 44.5t-13.5 58t-3 58.5t3 58.5t13.5 58.5t32 44.5t58.5 17.5zM403 349q37 0 58.5 -17.5t32 -44.5t13.5 -58.5t3 -58.5t-3 -58.5t-13.5 -58t-32 -44.5t-58.5 -18t-58.5 18t-32 44.5t-13.5 58t-3 58.5t3 58.5t13.5 58.5t32 44.5t58.5 17.5z
M149 405q-37 0 -58.5 18t-32 44.5t-13.5 58t-3 58.5t3 58.5t13.5 58.5t32 44.5t58.5 17.5t58.5 -17.5t32 -44.5t13.5 -58.5t3 -58.5t-3 -58.5t-13.5 -58t-32 -44.5t-58.5 -18z" />
    <glyph glyph-name="guilsinglleft" unicode="&#x2039;" horiz-adv-x="238" 
d="M155 482l45 -27l-115 -195l104 -199l-44 -25l-119 224z" />
    <glyph glyph-name="guilsinglright" unicode="&#x203a;" horiz-adv-x="238" 
d="M93 36l-44 25l104 199l-115 195l45 27l129 -222z" />
    <glyph glyph-name="fraction" unicode="&#x2044;" horiz-adv-x="122" 
d="M279 754l-374 -754h-62l374 754h62z" />
    <glyph glyph-name="fraction" unicode="&#x2215;" horiz-adv-x="122" 
d="M279 754l-374 -754h-62l374 754h62z" />
    <glyph glyph-name="Euro" unicode="&#x20ac;" 
d="M387 658q-16 6 -32 10.5t-33 4.5q-47 0 -77 -20.5t-48 -52t-26.5 -70t-11.5 -74.5h205l-6 -50h-201v-34v-23t1 -25h191l-6 -50h-181q4 -35 14.5 -69.5t29 -62t48 -45t73.5 -17.5q17 0 31.5 3t28.5 8v-85q-18 -9 -37 -12.5t-40 -3.5q-68 0 -113 25t-73 65t-41.5 91
t-18.5 103h-44l6 50h34v82h-40l6 50h37q4 53 17 107.5t40 99t71 72.5t112 28q28 0 49.5 -4.5t44.5 -17.5z" />
    <glyph glyph-name="trademark" unicode="&#x2122;" horiz-adv-x="750" 
d="M280 694h-109v-361h-61v361h-110v60h280v-60zM719 333h-55v361h-2l-118 -361h-32l-115 361h-2v-361h-55v421h89l98 -297h2l102 297h88v-421z" />
    <glyph glyph-name="minus" unicode="&#x2212;" horiz-adv-x="500" 
d="M44 291h413v-70h-413v70z" />
    <glyph glyph-name="fi" unicode="&#xfb01;" horiz-adv-x="459" 
d="M352 595q-26 0 -44.5 18.5t-18.5 44.5t18.5 44t44.5 18q25 0 43.5 -18t18.5 -44t-18.5 -44.5t-43.5 -18.5zM402 0h-94v505h94v-505zM68 505v163q0 32 3 62.5t14 54.5t34 38.5t63 14.5q18 0 32.5 -3.5t30.5 -10.5v-98q-10 5 -19 8.5t-20 3.5q-18 0 -27 -8t-13 -20t-4 -26
v-27v-152h78v-74h-78v-431h-94v431h-47v74h47z" />
    <glyph glyph-name="fl" unicode="&#xfb02;" horiz-adv-x="445" 
d="M402 0h-94v830h94v-830zM68 505v163q0 32 3 62.5t14 54.5t34 38.5t63 14.5q18 0 32.5 -3.5t30.5 -10.5v-98q-10 5 -19 8.5t-20 3.5q-18 0 -27 -8t-13 -20t-4 -26v-27v-152h78v-74h-78v-431h-94v431h-47v74h47z" />
    <glyph glyph-name="nonbreakingspace" horiz-adv-x="205" 
 />
    </font>
</defs>
</svg>
