<?xml version="1.0" standalone="no"?>
<!DOCTYPE svg PUBLIC "-//W3C//DTD SVG 1.1//EN" "http://www.w3.org/Graphics/SVG/1.1/DTD/svg11.dtd" >
<svg xmlns="http://www.w3.org/2000/svg">
<metadata>
This is a custom SVG webfont generated by Font Squirrel.
Copyright   : Copyright c 2005 by Frantisek Storm wwwstormtypecom All rights reserved
Designer    : Frantisek Storm
Foundry     : Frantisek Storm wwwstormtypecom
Foundry URL : wwwstormtypecom
</metadata>
<defs>
<font id="EtelkaLightProBoldItalic" horiz-adv-x="1204" >
<font-face units-per-em="2048" ascent="1638" descent="-410" />
<missing-glyph horiz-adv-x="544" />
<glyph unicode=" "  horiz-adv-x="544" />
<glyph unicode="&#x09;" horiz-adv-x="544" />
<glyph unicode="&#xa0;" horiz-adv-x="544" />
<glyph unicode="!" horiz-adv-x="679" d="M99 67.5q-1 30.5 10 82.5q10 47 24 74.5t35.5 43t53.5 20.5t77 5t76 -5t47 -20.5t18 -43t-8 -74.5q-10 -51 -25.5 -82t-39 -48.5t-56 -23.5t-78.5 -6q-45 0 -73.5 6t-44 23.5t-16.5 48zM240 457l143 970h313l-270 -970h-186z" />
<glyph unicode="&#x22;" horiz-adv-x="757" d="M211 936l82 491h229l-143 -491h-168zM557 936l86 491h223l-143 -491h-166z" />
<glyph unicode="#" horiz-adv-x="1458" d="M25 362l57 203h260l90 326h-264l57 205h264l93 331h237l-94 -331h283l94 331h235l-92 -331h281l-58 -205h-280l-90 -326h284l-57 -203h-283l-100 -362h-235l98 362h-283l-98 -362h-238l101 362h-262zM578 565h282l92 326h-282z" />
<glyph unicode="$" horiz-adv-x="1273" d="M55 63l109 228q53 -20 146 -32.5t184 -16.5l77 368q-98 12 -170.5 37t-116.5 68t-58.5 106.5t3.5 149.5q43 201 170 301t338 125l64 293h180l-59 -283q100 -2 201.5 -16.5t172.5 -38.5l-108 -226q-23 10 -57.5 18.5t-77.5 14.5t-90.5 10.5t-92.5 4.5l-73 -351 q205 -29 288.5 -122t44.5 -271q-43 -203 -166.5 -297t-338.5 -117l-64 -297h-180l63 291q-106 2 -211.5 15t-177.5 38zM487 999q-14 -70 12.5 -102.5t121.5 -48.5l67 317q-86 -14 -135.5 -53t-65.5 -113zM674 250q84 14 135 51t68 115q14 70 -10.5 109.5t-121.5 58.5z" />
<glyph unicode="%" horiz-adv-x="1964" d="M155 777q-1 91 27 229q29 135 69 224t95 140t131 71.5t174 20.5t165 -20.5t100.5 -71.5t36.5 -140t-25 -224q-29 -137 -70 -228.5t-97 -145.5t-132 -77t-174 -23t-165 23t-100.5 77t-34.5 145zM317 0l1180 1427h240l-1182 -1427h-238zM382 858q-5 -55 6 -88t37 -44 t69 -11t73.5 11t54 44t43 88t37.5 146q18 90 23.5 144t-4.5 84t-37 40t-70 10t-73.5 -10t-54 -40t-43 -84t-37.5 -144q-19 -91 -24 -146zM1111 216q-1 91 28 228q29 135 68.5 223.5t95 139.5t131 71.5t174.5 20.5q98 0 164.5 -20.5t100.5 -71.5t37 -139t-26 -224 q-29 -137 -69.5 -228t-97 -145.5t-132.5 -77t-174 -22.5t-164.5 22.5t-100.5 77t-35 145.5zM1337 296q-4 -56 6.5 -89t36 -44t68.5 -11t73.5 11t55.5 44t43 89t37 146q18 90 23.5 144.5t-5 84t-37 39t-69.5 9.5t-74 -9.5t-54.5 -39t-43 -84t-37.5 -144.5q-19 -90 -23 -146z " />
<glyph unicode="&#x26;" horiz-adv-x="1630" d="M66.5 181q-13.5 77 11.5 192q35 162 144.5 260t316.5 108q-94 8 -145.5 36t-72 72t-17.5 102.5t20 129.5q18 92 57 164t105.5 120t167 72.5t245.5 24.5q139 0 230.5 -20.5t139.5 -64.5t59 -111.5t-9 -161.5q-14 -72 -42 -130.5t-75 -102.5t-115.5 -71.5t-166.5 -35.5 q66 -6 135 -63.5t151 -194.5q53 66 92 142.5t58 162.5h272q-29 -135 -107.5 -261t-193.5 -235q39 -68 76 -145.5t80 -169.5h-307q-16 41 -34 80t-36 74q-72 -47 -138.5 -81t-135 -56.5t-141.5 -34t-159 -11.5q-145 0 -243.5 19.5t-153.5 66.5t-68.5 124zM362.5 308 q2.5 -42 26 -67.5t69.5 -36.5t120 -11q63 0 117.5 7t105.5 24.5t100 44t105 67.5q-78 147 -153 227t-167 80q-137 0 -212 -53t-101 -178q-13 -62 -10.5 -104zM590 1055q-23 -111 14 -156t154 -45q115 0 185.5 44t92.5 155q23 106 -20 145t-164 39t-180 -38t-82 -144z" />
<glyph unicode="'" horiz-adv-x="413" d="M211 936l82 491h229l-143 -491h-168z" />
<glyph unicode="(" horiz-adv-x="620" d="M89 86q3 180 54 424t125 424t162 307t187.5 206t201.5 122l78 -191q-70 -31 -136.5 -88t-129 -158.5t-118.5 -253t-101 -368.5q-45 -215 -53.5 -366.5t10 -253t60.5 -160t97 -88.5l-155 -191q-86 43 -151.5 122t-99.5 206t-31 307z" />
<glyph unicode=")" horiz-adv-x="620" d="M-266 -358q68 31 134 88t127.5 158.5t117 253t102.5 368.5q45 215 54.5 366.5t-9 253t-60.5 160t-98 88.5l158 191q86 -43 151.5 -122t99.5 -206t30 -307t-56 -424q-51 -244 -124.5 -424t-160.5 -307t-185.5 -206t-200.5 -122z" />
<glyph unicode="*" horiz-adv-x="1011" d="M166 981l45 205h264l-84 231l203 103l82 -230l180 230l162 -103l-184 -231h266l-45 -205h-267l84 -231l-200 -101l-84 225l-178 -225l-160 103l180 229h-264z" />
<glyph unicode="+" horiz-adv-x="1191" d="M127 621l51 241h375l80 377h244l-80 -377h377l-52 -241h-377l-79 -377h-244l80 377h-375z" />
<glyph unicode="," horiz-adv-x="583" d="M-150 -326l271 537h303l-348 -537h-226z" />
<glyph unicode="-" horiz-adv-x="622" d="M53 455l51 241h504l-51 -241h-504z" />
<glyph unicode="." horiz-adv-x="583" d="M50 67.5q-1 30.5 9 82.5q10 47 24.5 74.5t36 43t52.5 20.5t76 5q47 0 77.5 -5t46 -20.5t17.5 -43t-8 -74.5q-10 -51 -25.5 -82t-38 -48.5t-55.5 -23.5t-80 -6q-45 0 -73.5 6t-43 23.5t-15.5 48z" />
<glyph unicode="/" horiz-adv-x="956" d="M-72 0l1033 1427h274l-1032 -1427h-275z" />
<glyph unicode="0" horiz-adv-x="1282" d="M114 367.5q-3 146.5 44 365.5q45 217 109.5 357.5t148.5 223.5t191.5 115.5t240.5 32.5t226 -32.5t143.5 -115.5t54.5 -223.5t-41 -357.5q-47 -219 -111.5 -365.5t-150.5 -234.5t-194.5 -125t-242.5 -37q-133 0 -225 37t-141 125t-52 234.5zM384 470q-9 -101 9.5 -157.5 t65.5 -77t125 -20.5q80 0 135 20.5t98 77t77 157.5t69 263q33 162 41 259.5t-11.5 148.5t-67.5 66.5t-128 15.5q-78 0 -133.5 -15.5t-96.5 -66.5t-73.5 -148.5t-65.5 -259.5q-35 -162 -44 -263z" />
<glyph unicode="1" horiz-adv-x="1282" d="M336 1223l717 264l-316 -1487h-264l242 1139l-350 -138z" />
<glyph unicode="2" horiz-adv-x="1282" d="M-6 0l45 217q205 135 350.5 232.5t244.5 169t157.5 124t92.5 96.5t49 86t28 95q27 117 -24.5 158t-197.5 41q-47 0 -101 -4.5t-106.5 -12.5t-99.5 -17t-80 -22l-8 234q96 29 221 47t248 18q133 0 228.5 -19.5t150.5 -66.5t71.5 -129t-10.5 -205q-16 -74 -37.5 -133 t-60.5 -116.5t-98.5 -113.5t-147.5 -121.5t-211 -144.5t-288 -180h669l-49 -233h-1036z" />
<glyph unicode="3" horiz-adv-x="1282" d="M4 23l100 233q33 -10 77 -17.5t92.5 -12.5t97.5 -8t90 -3q102 0 169.5 10.5t109.5 35t63.5 64.5t34.5 97q27 121 -22.5 167t-186.5 46h-203l49 229h197q131 0 193.5 39t84.5 144q10 49 5 81.5t-34.5 53t-88 30t-152.5 9.5q-41 0 -91 -3.5t-100.5 -9.5t-96.5 -14t-79 -18 l-4 233q98 20 224 36.5t249 16.5q154 0 253.5 -20.5t152.5 -64.5t65.5 -113.5t-8.5 -165.5q-14 -72 -38.5 -130.5t-67.5 -103.5t-108.5 -72.5t-162.5 -35.5q100 -4 159.5 -33t86.5 -77t27 -114.5t-19 -146.5q-25 -117 -74 -195.5t-128.5 -127t-192.5 -70t-264 -21.5 q-55 0 -116.5 4.5t-122 11.5t-118 16.5t-102.5 19.5z" />
<glyph unicode="4" horiz-adv-x="1273" d="M10 367l17 84q78 100 179 228t211.5 260t221.5 260t207 228h360l-178 -837h191l-48 -223h-190l-78 -367h-258l78 367h-713zM385 590h385l127 604q-66 -68 -138.5 -150.5t-142 -165.5t-131 -159t-100.5 -129z" />
<glyph unicode="5" horiz-adv-x="1282" d="M33 23l102 233q31 -10 73 -17.5t88 -12.5t93 -8t88 -3q98 0 163 9t104.5 34t61 66t36.5 102q14 68 12 112t-29.5 69.5t-85 36.5t-155.5 11q-84 0 -183.5 -7t-173.5 -21l170 800h885l-51 -233h-629l-67 -317q41 4 85 6t87 2q150 0 246 -24.5t145 -78t56 -138.5t-17 -204 q-29 -135 -78 -226t-128 -144.5t-189.5 -76t-264.5 -22.5q-51 0 -111.5 4.5t-120 11.5t-114.5 16.5t-98 19.5z" />
<glyph unicode="6" horiz-adv-x="1282" d="M113 360.5q2 145.5 49 364.5q45 219 111.5 361.5t161.5 226.5t224 116.5t304 32.5q47 0 98 -4t102 -11t98.5 -17.5t86.5 -22.5l-111 -238q-53 23 -140 35.5t-186 12.5q-82 0 -149.5 -13.5t-121.5 -51.5t-94 -107.5t-67 -182.5q63 10 139 16.5t136 6.5q150 0 246 -24.5 t146 -78t58 -138.5t-16 -204q-29 -135 -77 -226t-123 -144.5t-181.5 -76t-253.5 -22.5q-152 0 -250 36t-145 122t-45 231.5zM399 419q0 -83 22.5 -128t69 -60.5t113.5 -15.5q78 0 130 11.5t86 36t52.5 64.5t30.5 99q12 61 12 104t-22.5 71t-69.5 41t-127 13q-78 0 -147.5 -6 t-122.5 -14q-27 -133 -27 -216z" />
<glyph unicode="7" horiz-adv-x="1282" d="M207 0q88 154 194.5 325t216 332.5t215 302t191.5 234.5h-737l51 233h1096l-19 -81q-63 -76 -139 -177.5t-159 -217t-167 -241.5t-163.5 -250t-150.5 -242t-124 -218h-305z" />
<glyph unicode="8" horiz-adv-x="1282" d="M70.5 191.5q-13.5 78.5 11.5 193.5q18 80 46 146.5t76 114.5t118.5 77t173.5 33q-94 8 -147.5 35.5t-77 72.5t-22.5 103.5t15 130.5q20 94 58 162.5t105 113.5t169 66.5t252 21.5t243 -21.5t140 -66.5t56 -113.5t-11 -162.5q-14 -72 -38 -130.5t-67 -103.5t-107.5 -72.5 t-162.5 -35.5q100 -4 159.5 -33t86.5 -77t27 -114.5t-19 -146.5q-25 -115 -70 -193.5t-118.5 -128t-180 -71t-254.5 -21.5q-145 0 -243.5 21.5t-151.5 71t-66.5 128zM371 412q-27 -123 16 -171t191 -48q74 0 125 11t86.5 36.5t57 67.5t34.5 104q27 125 -18.5 178t-188.5 53 t-209.5 -53t-93.5 -178zM528 1055q-23 -111 22.5 -156t168.5 -45t187.5 45t86.5 156q23 106 -20 144t-172 38t-189.5 -38t-83.5 -144z" />
<glyph unicode="9" horiz-adv-x="1282" d="M192.5 776q-8.5 82 16.5 203q29 135 77 228t123.5 149.5t183 81t255.5 24.5q162 0 262 -22.5t150.5 -79.5t54.5 -152.5t-27 -238.5q-33 -154 -101.5 -287t-162.5 -253t-206.5 -225.5t-233.5 -203.5h-336q172 135 324.5 276.5t254.5 282.5q-18 -2 -43.5 -4t-52 -3 t-49.5 -2t-37 -1q-152 0 -248 22.5t-146 72.5t-58.5 132zM481 884q2 -42 26.5 -65.5t77 -32t138.5 -8.5q55 0 113.5 3t111.5 12q33 70 49 147q20 92 19.5 148.5t-25 85t-73 38t-121.5 9.5q-80 0 -132.5 -13.5t-86 -41t-53 -71.5t-31.5 -104q-15 -65 -13 -107z" />
<glyph unicode=":" horiz-adv-x="583" d="M50 67.5q-1 30.5 9 82.5q10 47 24.5 74.5t36 43t52.5 20.5t76 5q47 0 77.5 -5t46 -20.5t17.5 -43t-8 -74.5q-10 -51 -25.5 -82t-38 -48.5t-55.5 -23.5t-80 -6q-45 0 -73.5 6t-43 23.5t-15.5 48zM212 827.5q-1 30.5 9 81.5q10 47 24.5 76t36 44t52.5 20.5t76 5.5 q47 0 77.5 -5.5t46 -20.5t17.5 -44t-8 -76q-10 -51 -24.5 -81.5t-37 -48t-55.5 -22.5t-80 -5q-45 0 -73.5 5t-44 22.5t-16.5 48z" />
<glyph unicode=";" horiz-adv-x="583" d="M-150 -326l271 537h303l-348 -537h-226zM212 827.5q-1 30.5 9 81.5q10 47 24.5 76t36 44t52.5 20.5t76 5.5q47 0 77.5 -5.5t46 -20.5t17.5 -44t-8 -76q-10 -51 -24.5 -81.5t-37 -48t-55.5 -22.5t-80 -5q-45 0 -73.5 5t-44 22.5t-16.5 48z" />
<glyph unicode="&#x3c;" horiz-adv-x="1191" d="M213 676l27 125l868 581l98 -180l-647 -461l451 -465l-172 -184z" />
<glyph unicode="=" horiz-adv-x="1191" d="M68 344l51 242h995l-51 -242h-995zM184 891l52 242h995l-51 -242h-996z" />
<glyph unicode="&#x3e;" horiz-adv-x="1191" d="M129 274l647 461l-450 467l172 182l624 -583l-26 -125l-871 -582z" />
<glyph unicode="?" horiz-adv-x="1009" d="M243 67.5q-1 30.5 9 82.5q10 47 24.5 74.5t36 43t52 20.5t75.5 5q47 0 78 -5t46.5 -20.5t17.5 -43t-9 -74.5q-10 -51 -24 -82t-37 -48.5t-55.5 -22.5t-79.5 -5q-45 0 -74 5t-44 22.5t-16 48zM252 1411q37 10 85 19.5t100 16.5t103.5 11t92.5 4q287 0 387 -104.5 t55 -308.5q-37 -174 -158.5 -316.5t-312.5 -292.5h-266q94 82 165.5 155t125 143.5t87.5 143t52 156.5q8 43 4 76t-27.5 55.5t-68.5 35t-117 12.5q-90 0 -169 -11.5t-134 -31.5z" />
<glyph unicode="@" horiz-adv-x="1923" d="M93.5 172q-17.5 147 29.5 373q47 223 130 368.5t197.5 229.5t263 116.5t328.5 32.5q141 0 235.5 -20.5t145 -82t55.5 -173t-34 -293.5q-37 -172 -81 -275.5t-108.5 -160t-155.5 -74.5t-222 -18q-119 0 -196 15t-117 54t-47 106.5t15 170.5q23 109 59 175t89 103t128 49.5 t177 12.5q68 0 139.5 -5.5t112.5 -15.5q12 63 8 106.5t-30.5 69t-78 35.5t-130.5 10q-154 0 -259.5 -19.5t-179 -75.5t-122 -160.5t-85.5 -276.5t-31.5 -279.5t61.5 -169t170 -84t296 -22.5t308 27.5t212 98t140.5 190.5t93.5 306q29 131 38 228.5t-1 154.5h231 q6 -68 -3 -164t-38 -227q-51 -240 -134 -398.5t-207 -253.5t-293 -135t-390 -40q-225 0 -378.5 34.5t-238.5 122t-102.5 234.5zM773 469q3 -31 21.5 -48.5t55.5 -24.5t96 -7q53 0 91 8.5t65.5 31t46 61t31.5 100.5l20 96q-39 8 -94 11t-96 3q-55 0 -94 -5t-66 -20.5t-43 -46 t-27 -79.5q-10 -49 -7 -80z" />
<glyph unicode="A" horiz-adv-x="1396" d="M-121 0q84 160 185.5 343t209 370.5t216 371t208.5 342.5h424q18 -172 42 -363.5t51.5 -379.5t57.5 -364.5t60 -319.5h-299q-16 78 -31.5 168t-31.5 188h-625q-51 -96 -97 -185t-87 -171h-283zM469 588h475q-23 160 -40 315.5t-30 294.5h-55q-84 -139 -172 -293.5 t-178 -316.5z" />
<glyph unicode="B" horiz-adv-x="1458" d="M78 0l303 1427h768q106 0 169.5 -24.5t92.5 -68.5q30 -46 30 -115q0 -61 -16 -134q-14 -72 -36.5 -128t-63.5 -98t-104.5 -68.5t-161.5 -34.5q100 -4 158.5 -32t84.5 -75q25 -45 24 -107q0 -65 -17 -151q-45 -211 -161 -301t-290 -90h-780zM395 227h451q74 0 117 51.5 t63 149.5q11 49 11 87q0 41 -13 70q-25 54 -98 54h-443zM530 858h439q68 0 104.5 46t52.5 126q9 44 10 77q0 31 -9 50q-17 41 -87 41h-438z" />
<glyph unicode="C" horiz-adv-x="1212" d="M124 364q-2 28 -2 58q0 128 38 305q47 219 117.5 361.5t172 225.5t233.5 115.5t302 32.5q49 0 103.5 -4t106.5 -11t101.5 -16.5t87.5 -21.5l-110 -238q-25 10 -60.5 18.5t-75.5 14.5t-80 9.5t-77 3.5q-117 0 -202 -15.5t-146.5 -67t-105.5 -148.5t-78 -261 q-34 -159 -34 -258q0 -105 41 -160q40 -53 117.5 -70.5t194.5 -17.5q37 0 79 3t84 9.5t81 14.5t69 18l9 -241q-43 -12 -96.5 -21.5t-109 -15.5t-110.5 -10.5t-104 -4.5q-170 0 -288 36t-182.5 124.5t-75.5 232.5z" />
<glyph unicode="D" horiz-adv-x="1507" d="M78 0l303 1427h545q170 0 289.5 -32.5t186 -113.5t79.5 -217q3 -29 2 -62q0 -119 -35 -283q-43 -207 -114.5 -345t-173 -221t-234.5 -118t-303 -35h-545zM397 233h248q119 0 202 18.5t141.5 72t98 147.5t72.5 246q33 158 33 252t-37 144t-112.5 65.5t-194.5 15.5h-248z " />
<glyph unicode="E" horiz-adv-x="1269" d="M78 0l303 1427h1036l-51 -233h-766l-70 -330h547l-49 -231h-547l-84 -400h766l-49 -233h-1036z" />
<glyph unicode="F" horiz-adv-x="1196" d="M78 0l303 1427h1016l-51 -233h-746l-84 -403h547l-49 -232h-547l-119 -559h-270z" />
<glyph unicode="G" horiz-adv-x="1433" d="M124 364q-2 28 -2 58q0 128 38 305q47 219 122.5 361.5t182 225.5t246 115.5t313.5 32.5q49 0 105.5 -4t113.5 -11t109.5 -16.5t91.5 -21.5l-107 -235q-27 10 -69.5 18t-92 13t-97.5 8.5t-85 3.5q-121 0 -209 -15.5t-150.5 -67t-106.5 -148.5t-78 -261q-34 -159 -34 -258 q0 -105 41 -161q40 -54 117.5 -71.5t194.5 -17.5q51 0 102.5 6t85.5 15l78 368h-311l49 228h588l-170 -801q-47 -14 -110.5 -25.5t-134.5 -19.5t-142.5 -12.5t-132.5 -4.5q-170 0 -288 36t-182.5 124.5t-75.5 232.5z" />
<glyph unicode="H" horiz-adv-x="1507" d="M78 0l303 1427h270l-116 -544h610l117 544h266l-303 -1427h-267l134 633h-611l-133 -633h-270z" />
<glyph unicode="I" horiz-adv-x="630" d="M78 0l303 1427h270l-303 -1427h-270z" />
<glyph unicode="J" horiz-adv-x="944" d="M-86 27l104 241q47 -20 108.5 -31.5t127.5 -11.5q39 0 75 9.5t65.5 32t53 61.5t35.5 100l213 999h273l-219 -1034q-27 -127 -81.5 -209t-125 -129t-152.5 -65.5t-164 -18.5q-88 0 -169 15.5t-144 40.5z" />
<glyph unicode="K" horiz-adv-x="1355" d="M78 0l303 1427h270l-303 -1427h-270zM510 754q37 25 105.5 81t158.5 142t201.5 198.5t234.5 251.5h328q-258 -279 -436 -444.5t-242 -210.5q23 -18 65 -74.5t98 -151.5t121.5 -231.5t135.5 -314.5h-332q-70 178 -136.5 313.5t-124.5 228.5t-104 146.5t-73 65.5z" />
<glyph unicode="L" horiz-adv-x="1128" d="M78 0l303 1427h270l-254 -1191h674l-49 -236h-944z" />
<glyph unicode="M" horiz-adv-x="1875" d="M78 0l303 1427h369q29 -104 56.5 -217.5t54 -231.5t51 -235.5t44.5 -228.5q66 113 139.5 230.5t149.5 235.5t153 231.5t148 215.5h350l-303 -1427h-264l225 1063q-72 -106 -149.5 -226t-154 -242t-151.5 -240.5t-141 -223.5h-210q-18 104 -41 225t-46.5 244t-48 242 t-49.5 221l-225 -1063h-260z" />
<glyph unicode="N" horiz-adv-x="1585" d="M78 0l303 1427h354q104 -246 199.5 -507t181.5 -523l219 1030h269l-304 -1427h-329q-90 268 -190.5 537.5t-211.5 537.5l-227 -1075h-264z" />
<glyph unicode="O" horiz-adv-x="1576" d="M124 360q-2 28 -2 59q0 129 38 308q45 217 117.5 359.5t176 225.5t237.5 116.5t304 33.5t290 -33.5t187.5 -116.5t78.5 -226q2 -28 3 -59q0 -126 -36 -300q-47 -221 -120 -366.5t-176.5 -232.5t-237.5 -122t-304 -35t-291 35t-187.5 122t-77.5 232zM410 462q0 -11 -1 -22 q0 -84 28 -133q32 -55 104.5 -73.5t189.5 -18.5t197 18.5t136 73.5t94 154.5t73 261.5q33 162 37 260v21q0 83 -29 130q-33 52 -105.5 68.5t-189.5 16.5t-196.5 -16.5t-135 -69t-93.5 -150.5t-70 -260q-35 -162 -39 -261z" />
<glyph unicode="P" horiz-adv-x="1378" d="M78 0l303 1427h743q113 0 181.5 -36.5t100.5 -103.5q33 -69 33 -163q0 -86 -22 -186q-20 -92 -61 -177t-102.5 -149.5t-143.5 -102.5t-184 -38h-480l-98 -471h-270zM496 696h397q174 0 227 244q14 63 14 111q0 147 -128 147h-404z" />
<glyph unicode="Q" horiz-adv-x="1603" d="M138 362q-2 28 -2 59q0 129 38 306q45 217 118 359.5t175 225.5t236.5 116.5t304.5 33.5t289.5 -33.5t187 -116.5t80.5 -226q3 -30 2 -64q0 -124 -35 -295q-37 -170 -88 -293t-119 -206t-153 -131t-187 -66q63 -18 146 -119.5t188 -304.5h-315q-80 182 -165 269t-151 95 q-170 0 -288.5 36t-184.5 123t-77 232zM424 462q0 -11 -1 -22q0 -84 29 -133q32 -55 103.5 -73.5t187.5 -18.5q119 0 199 18.5t136.5 73.5t94 154.5t72.5 261.5q33 162 37 260q0 11 1 21q0 83 -30 130q-33 52 -105.5 68.5t-191.5 16.5q-117 0 -196.5 -16.5t-134 -69 t-92 -150.5t-70.5 -260q-35 -162 -39 -261z" />
<glyph unicode="R" horiz-adv-x="1445" d="M78 0l303 1427h743q113 0 182.5 -32.5t103.5 -89t38 -131.5q1 -14 1 -28q0 -64 -15 -134q-16 -78 -50 -146.5t-89.5 -122t-134.5 -86t-185 -36.5q33 -12 68.5 -52.5t77.5 -114t90.5 -186t109.5 -268.5h-334q-53 147 -99 250.5t-86 169t-77 95.5t-72 30h-190l-115 -545 h-270zM510 768h403q78 0 133.5 52t77.5 157q10 49 10 86q0 50 -17 81q-30 54 -105 54h-410z" />
<glyph unicode="S" horiz-adv-x="1273" d="M23 35l108 233q63 -23 164.5 -37t206.5 -14q170 0 258 39t112 150q5 24 5 45q0 14 -1 26q-5 33 -36 58.5t-91.5 42t-160.5 26.5q-117 12 -198 38t-128 72t-60 115q-5 27 -6 60q0 49 13 108q53 252 230 358.5t476 106.5q117 0 232 -17.5t192 -45.5l-110 -234 q-55 23 -155.5 37.5t-209.5 14.5q-170 0 -255 -41t-107 -146q-5 -23 -5 -43q0 -15 3 -28q6 -30 35.5 -51t87 -36.5t153.5 -23.5q244 -27 338 -126q65 -68 65 -185q0 -53 -14 -117q-27 -127 -83 -212t-144 -138.5t-209 -76t-274 -22.5q-119 0 -235.5 17.5t-196.5 46.5z" />
<glyph unicode="T" horiz-adv-x="1247" d="M156 1194l51 233h1235l-51 -233h-482l-252 -1194h-272l252 1194h-481z" />
<glyph unicode="U" horiz-adv-x="1519" d="M139 202q-10 38 -9 84q0 64 17 146l213 995h273l-203 -954q-11 -50 -11 -88q0 -17 2 -32q7 -48 39 -77.5t91 -43t151 -13.5q86 0 152 11.5t112 40t75.5 77.5t45.5 125l203 954h269l-211 -995q-31 -141 -90.5 -230t-147.5 -140.5t-203.5 -71t-255.5 -19.5 q-139 0 -246.5 19.5t-175 71t-90.5 140.5z" />
<glyph unicode="V" horiz-adv-x="1327" d="M162 1427h299q23 -117 47 -261t45.5 -297.5t40 -307t29.5 -287.5q80 131 165.5 278.5t168.5 298t161 298t144 278.5h284q-84 -160 -185 -343t-210 -370.5t-219.5 -370.5t-210.5 -343h-346q-16 170 -40 360.5t-51.5 380t-58 366.5t-63.5 320z" />
<glyph unicode="W" horiz-adv-x="1996" d="M197 1427h295q14 -117 26 -250t21.5 -273t15.5 -284.5t10 -283.5q55 106 125 245.5t141.5 288t138 294t115.5 263.5h250q8 -115 16.5 -258t16.5 -291.5t12 -289.5q3 -94 3 -175q0 -40 -1 -77q147 274 280.5 549.5t250.5 541.5h278q-74 -160 -161.5 -343t-182 -370.5 t-189.5 -370.5t-183 -343h-345q2 123 2.5 251t-2 254t-6.5 246.5t-10 227.5q-47 -113 -103.5 -235.5t-118 -248.5t-123.5 -252t-124 -243h-342q-6 170 -16.5 360.5t-23.5 380t-29.5 366.5t-36.5 320z" />
<glyph unicode="X" horiz-adv-x="1380" d="M-111 0q68 66 149 148.5t171 176t185 193.5t192 203q-104 199 -204.5 383t-180.5 323h346q57 -100 121.5 -218.5t136.5 -252.5q117 125 225.5 245t202.5 226h332q-143 -160 -307 -338t-336 -362q102 -199 197 -389.5t165 -337.5h-336q-53 111 -115.5 235.5t-127.5 258.5 q-129 -133 -250 -257t-234 -237h-332z" />
<glyph unicode="Y" horiz-adv-x="1306" d="M123 1427h352q66 -115 138.5 -255t142.5 -289q139 145 266 285.5t227 258.5h328q-164 -186 -357.5 -396t-392.5 -415l-129 -616h-270l129 614q-53 109 -110.5 220.5t-112.5 217t-109.5 201.5t-101.5 174z" />
<glyph unicode="Z" horiz-adv-x="1271" d="M-68 0l13 66q119 125 256 274t274 301t265 295t227 258h-738l52 233h1157l-15 -61q-102 -123 -236 -277.5t-273.5 -310t-273.5 -299t-239 -246.5h768l-49 -233h-1188z" />
<glyph unicode="[" horiz-adv-x="698" d="M-33 -532l443 2078h553l-48 -221h-288l-348 -1638h288l-47 -219h-553z" />
<glyph unicode="\" horiz-adv-x="956" d="M141 1427h275l426 -1427h-275z" />
<glyph unicode="]" horiz-adv-x="698" d="M-254 -532l47 219h287l348 1638h-289l47 221h553l-442 -2078h-551z" />
<glyph unicode="^" horiz-adv-x="1087" d="M51 606l570 821h243l221 -821h-274l-131 545l-361 -545h-268z" />
<glyph unicode="_" horiz-adv-x="962" d="M-115 -340l49 242h844l-51 -242h-842z" />
<glyph unicode="`" horiz-adv-x="985" d="M391 1427h271l192 -264h-225z" />
<glyph unicode="a" d="M84 283q0 94 29 233q33 160 85 267.5t126.5 172t175 91t229.5 26.5q57 0 118.5 -5t120 -15.5t110.5 -24.5t91 -33l-145 -676q-10 -47 -10 -81q0 -82 61 -150l-217 -125q-41 16 -70.5 54t-37.5 77q-53 -53 -136.5 -86t-179.5 -33q-84 0 -149.5 15.5t-110.5 50.5 t-67.5 94.5t-22.5 147.5zM350 348q0 -90 45 -121.5t144 -31.5q86 0 153.5 32.5t79.5 91.5l109 510q-41 16 -94.5 25.5t-100.5 9.5q-68 0 -116 -12t-83.5 -49t-62.5 -104.5t-49 -178.5q-25 -109 -25 -172z" />
<glyph unicode="b" d="M47 47l305 1432h254l-100 -475q47 27 121.5 48t163.5 21q109 0 184.5 -25.5t115 -88t44.5 -167.5v-25q0 -99 -29 -239q-35 -160 -86 -267t-127 -171.5t-175.5 -91.5t-228.5 -27q-57 0 -118.5 5.5t-119.5 15.5t-111.5 24.5t-92.5 30.5zM338 213q41 -16 93 -24.5t101 -8.5 q68 0 116 12.5t84 49.5t62.5 104.5t51.5 177.5q20 96 22 160q0 6 1 12q0 55 -18 88q-19 37 -61 51.5t-110 14.5q-86 0 -151.5 -25.5t-75.5 -72.5z" />
<glyph unicode="c" horiz-adv-x="962" d="M92 259q-4 31 -4 67q0 87 25 200q33 160 92 265.5t140 168t181.5 88t218.5 25.5q37 0 80 -4t84 -10t79 -15.5t65 -19.5l-105 -217q-45 18 -106.5 31.5t-124.5 13.5q-70 0 -123 -11.5t-94 -46t-72 -99t-53 -173.5q-20 -92 -20 -153v-16q3 -65 29 -100.5t74 -47.5t117 -12 q66 0 133.5 14t120.5 35l11 -217q-33 -12 -75 -22.5t-86 -16.5t-87 -10.5t-80 -4.5q-119 0 -209 27t-143.5 90t-67.5 171z" />
<glyph unicode="d" d="M85 256q-1 18 -1 38q0 96 29 228q33 158 87 264.5t125.5 170t162 90t194.5 26.5q90 0 145.5 -18.5t92.5 -40.5l98 465h254l-305 -1432q-45 -16 -103.5 -30.5t-121 -24.5t-126 -15.5t-118.5 -5.5q-129 0 -218.5 26t-138.5 89.5t-56 169.5zM350 353v-12q0 -58 19 -91 q20 -37 63 -49.5t111 -12.5q53 0 108.5 8.5t98.5 22.5l114 539q2 8 2 14q0 37 -45 59q-53 27 -139 27q-68 0 -116 -15.5t-84 -53t-61.5 -101t-45.5 -162.5q-23 -106 -25 -173z" />
<glyph unicode="e" horiz-adv-x="1130" d="M92 259q-4 31 -4 67q0 87 25 200q33 156 88 261.5t132 169t172 90t210 26.5q123 0 207 -25.5t125 -94.5q40 -67 39 -182q0 -121 -48 -316h-673q-12 -64 -13 -110q0 -14 1 -27q5 -52 33 -81.5t76 -40t116 -10.5q27 0 65.5 3.5t79.5 9.5t82 13t74 17l-2 -200 q-41 -12 -90.5 -23.5t-99.5 -18.5t-98 -11.5t-87 -4.5q-113 0 -201 27t-141.5 90t-67.5 171zM408 649h438q10 56 10 95q0 10 -1 18q-3 43 -22.5 67.5t-55.5 33.5t-91 9q-59 0 -103 -10t-76 -36.5t-55.5 -70t-43.5 -106.5z" />
<glyph unicode="f" horiz-adv-x="770" d="M82 0l174 821h-174l47 221h174l14 70q25 113 70 185.5t105.5 113.5t132 56.5t149.5 15.5q72 0 146.5 -12.5t132.5 -32.5l-101 -201q-35 12 -85 20.5t-97 8.5q-76 0 -128 -34t-75 -134l-10 -56h338l-47 -221h-338l-174 -821h-254z" />
<glyph unicode="g" d="M-41 -356l94 204q68 -23 148 -37t153 -14q72 0 131.5 11.5t104.5 39t75.5 75.5t47.5 120q-49 -27 -119 -47.5t-160 -20.5q-109 0 -184.5 26t-118.5 87.5t-49 165.5q-1 16 -1 33q0 96 30 231q33 160 86 266.5t128.5 171t176 91t229.5 26.5q55 0 116.5 -5t120 -15.5 t110.5 -24.5t91 -33l-194 -915q-33 -154 -94.5 -250t-146.5 -151.5t-192.5 -76t-230.5 -20.5q-45 0 -94 5t-96 13.5t-89 20t-73 23.5zM350 359v-11q0 -54 18 -88q19 -37 61 -51t110 -14q84 0 150.5 25.5t76.5 72.5l115 536q-41 16 -94.5 25.5t-100.5 9.5q-68 0 -116 -12 t-83.5 -49t-62.5 -104.5t-51 -178.5q-21 -99 -23 -161z" />
<glyph unicode="h" horiz-adv-x="1193" d="M39 0l313 1479h254l-102 -478q57 27 140 49.5t163 22.5q92 0 157.5 -19.5t102.5 -71.5t42 -144q1 -13 1 -28q0 -86 -27 -210l-127 -600h-254l123 580q14 63 14 112q0 50 -15 84q-30 68 -152 68q-39 0 -77 -6.5t-67.5 -17.5t-50 -28.5t-24.5 -39.5l-160 -752h-254z" />
<glyph unicode="i" horiz-adv-x="536" d="M39 0l221 1042h254l-221 -1042h-254zM307 1352q8 41 20.5 65.5t33 37.5t49 17.5t71.5 4.5q41 0 69 -4.5t41 -17.5t15 -38q0 -5 1 -10q0 -22 -7 -55q-10 -45 -23.5 -73t-33 -43t-49 -20.5t-70.5 -5.5q-84 0 -111 26q-15 14 -15 50q0 27 9 66z" />
<glyph unicode="j" horiz-adv-x="536" d="M-223 -416l45 211q86 0 137 36t72 140l229 1071h254l-227 -1065q-25 -117 -68 -192.5t-106.5 -119.5t-146.5 -62.5t-189 -18.5zM307 1352q8 41 20.5 65.5t33 37.5t49 17.5t71.5 4.5q41 0 69 -4.5t41 -17.5t15 -38q0 -5 1 -10q0 -22 -7 -55q-10 -45 -23.5 -73t-33 -43 t-49 -20.5t-70.5 -5.5q-84 0 -111 26q-15 14 -15 50q0 27 9 66z" />
<glyph unicode="k" horiz-adv-x="1128" d="M39 0l313 1479h254l-313 -1479h-254zM410 551q51 35 180 159t328 332h301q-195 -205 -324 -322.5t-176 -150.5q35 -25 115.5 -166t193.5 -403h-299q-247 516 -319 551z" />
<glyph unicode="l" horiz-adv-x="548" d="M85 90q-4 24 -4 53q0 61 17 140l254 1196h254l-252 -1186q-12 -55 -12 -100q0 -17 2 -32q6 -56 37 -114l-244 -96q-41 61 -52 139z" />
<glyph unicode="m" horiz-adv-x="1804" d="M39 0l209 983q51 18 112.5 34.5t127 29t132 19.5t128.5 7q176 0 251 -69q92 31 193.5 50t191.5 19q111 0 183.5 -24.5t109.5 -81t40 -150.5q0 -9 1 -17q0 -90 -28 -218l-123 -582h-254l117 555q18 86 21 142v18q0 44 -13 71q-16 33 -54 45.5t-102 12.5q-39 0 -97.5 -6.5 t-111.5 -22.5q3 -24 3 -51q0 -80 -23 -182l-123 -582h-254l117 555q18 86 21 142q0 9 1 18q0 44 -14 71q-16 33 -54 45.5t-102 12.5q-41 0 -89 -7.5t-89 -17.5l-174 -819h-254z" />
<glyph unicode="n" horiz-adv-x="1193" d="M39 0l209 983q51 18 114.5 34.5t131 29t136 19.5t130.5 7q111 0 185.5 -24.5t114.5 -81t45 -150.5q1 -13 1 -28q0 -87 -27 -207l-123 -582h-254l117 555q18 86 21 142v12q0 48 -16 77q-17 33 -58 45.5t-109 12.5q-96 0 -190 -25l-174 -819h-254z" />
<glyph unicode="o" d="M87 259q-2 23 -2 47q0 94 28 220q33 160 87 265.5t128.5 168t174 88t222.5 25.5q125 0 213 -25.5t137 -88t58 -167.5q2 -21 1 -45q0 -93 -26 -221q-35 -160 -88 -267t-128 -170.5t-175.5 -90.5t-224.5 -27q-125 0 -212 27t-135.5 90t-57.5 171zM349 346v-19q0 -54 16 -86 q18 -38 60 -51.5t110 -13.5t116.5 13.5t83.5 51.5t61.5 105.5t49.5 175.5q25 113 27 180q0 9 1 18q0 55 -18 87q-20 37 -63 49t-111 12t-115 -12t-81.5 -49t-60.5 -104.5t-50 -180.5q-23 -108 -26 -176z" />
<glyph unicode="p" d="M-45 -393l295 1388q45 18 103.5 32.5t122 25t127 15.5t120.5 5q129 0 218 -26.5t136 -89t55 -169.5q1 -19 1 -39q0 -95 -27 -227q-35 -160 -88 -265t-126 -168.5t-162 -90.5t-193 -27q-90 0 -144.5 18.5t-93.5 41.5l-90 -424h-254zM352 287q-2 -7 -1 -15q0 -37 46 -59 q55 -27 140 -27q68 0 115.5 15.5t83.5 53.5t61.5 101.5t46.5 159.5q23 106 24 173q0 6 1 12q0 58 -19 92q-20 37 -63.5 49t-110.5 12q-53 0 -109.5 -7t-99.5 -24z" />
<glyph unicode="q" d="M81 254q-1 13 -1 28q0 97 31 236q33 160 86 266.5t128.5 171t176 91t229.5 26.5q55 0 116.5 -5t120 -15.5t110.5 -24.5t91 -33l-295 -1388h-253l92 434q-49 -27 -122 -48.5t-163 -21.5q-109 0 -184.5 26t-116.5 89.5t-46 167.5zM350 359v-11q0 -54 18 -88q19 -37 61 -51 t110 -14q84 0 150.5 25.5t76.5 72.5l115 536q-41 16 -94.5 25.5t-100.5 9.5q-68 0 -116 -12t-83.5 -49t-62.5 -104.5t-51 -178.5q-21 -99 -23 -161z" />
<glyph unicode="r" horiz-adv-x="776" d="M39 0l221 1042h254l-16 -77q37 43 106.5 75.5t181.5 32.5q51 0 105 -6l-51 -242q-27 6 -61 10.5t-68 4.5q-47 0 -92.5 -7.5t-82 -22.5t-60 -36.5t-30.5 -50.5l-153 -723h-254z" />
<glyph unicode="s" horiz-adv-x="1005" d="M2 27l96 200q27 -10 62 -19t74.5 -15.5t81.5 -10.5t81 -4q104 0 159.5 22.5t72.5 104.5q6 27 1 48.5t-26.5 35.5t-62.5 24.5t-109 16.5q-84 6 -146.5 23.5t-99 51.5t-48.5 88q-5 22 -4 48q0 38 9 86q20 100 67.5 168t115 106.5t153.5 55t185 16.5q82 0 174 -15.5 t163 -41.5l-98 -199q-57 20 -136 34.5t-157 14.5q-47 0 -82.5 -4t-62.5 -16t-43 -36t-25 -65q-3 -13 -3 -23q0 -35 30 -53q39 -24 164 -36q92 -10 155.5 -30.5t100.5 -57.5t47 -92q4 -21 4 -46q0 -39 -10 -88q-23 -102 -69 -168.5t-113.5 -106.5t-152.5 -56.5t-185 -16.5 q-41 0 -90.5 4.5t-98.5 11.5t-94 17.5t-80 22.5z" />
<glyph unicode="t" horiz-adv-x="849" d="M92 821l47 221h174l37 177l277 104l-60 -281h346l-47 -221h-346l-96 -448q-10 -46 -10 -80q0 -39 13 -61q24 -42 116 -42q51 0 97 8.5t87 20.5l2 -201q-59 -20 -139 -33.5t-156 -13.5q-88 0 -149.5 15.5t-96 57.5t-41.5 116q-1 15 -1 31q0 66 20 159l100 471h-174z" />
<glyph unicode="u" horiz-adv-x="1193" d="M103 225q-1 13 0 28q0 87 26 208l125 581h254l-119 -555q-18 -86 -20 -142q0 -6 -1 -12q0 -48 16 -77q17 -33 57 -45t108 -12q100 0 194 26l175 817h253l-208 -983q-53 -18 -117 -34.5t-131.5 -28.5t-136 -19.5t-129.5 -7.5q-111 0 -186 24.5t-115 81t-45 150.5z" />
<glyph unicode="v" horiz-adv-x="1046" d="M119 1042h264q31 -176 54.5 -379.5t35.5 -406.5q117 197 225.5 393.5t200.5 392.5h258q-129 -256 -282.5 -521t-313.5 -521h-313q-20 274 -51 540t-78 502z" />
<glyph unicode="w" horiz-adv-x="1699" d="M119 1042h268q29 -174 46.5 -376.5t23.5 -405.5q43 78 98 184.5t110.5 216t104.5 211t80 170.5h248q8 -76 16 -176t14.5 -206.5t9.5 -211t3 -188.5q113 197 217 391.5t192 390.5h258q-125 -254 -274.5 -524t-302.5 -518h-316q0 80 -1 175t-3 191.5t-6 183.5t-10 148 q-37 -82 -81 -174t-90 -185t-92 -181t-85 -158h-314q-18 274 -45.5 537t-68.5 505z" />
<glyph unicode="x" horiz-adv-x="1067" d="M-90 0q104 98 239.5 235.5t274.5 284.5q-74 147 -150.5 285.5t-140.5 236.5h303q39 -66 83 -147.5t89 -171.5q86 92 157 173t126 146h283q-94 -106 -217 -240t-252 -274q70 -139 134 -276t115 -252h-286q-29 72 -68 156t-82 174q-90 -94 -172 -177t-153 -153h-283z" />
<glyph unicode="y" horiz-adv-x="1046" d="M12 -393q57 74 121 165t121 177q-8 139 -21.5 283.5t-31 285.5t-39 274.5t-43.5 249.5h264q33 -174 55.5 -380.5t34.5 -409.5q117 197 225.5 396.5t200.5 393.5h258q-135 -268 -295 -542.5t-332 -542.5q-55 -88 -117.5 -180t-117.5 -170h-283z" />
<glyph unicode="z" horiz-adv-x="1017" d="M-66 0l11 51q94 94 197.5 202.5t199.5 214t177 198t134 155.5h-510l47 221h900l-13 -51q-74 -90 -168 -196.5t-190 -212t-186.5 -200.5t-155.5 -161h522l-45 -221h-920z" />
<glyph unicode="{" horiz-adv-x="692" d="M45 403l45 211q45 0 90 18.5t86 64.5t76 126t61 203q27 131 76 224t109.5 158t130 102.5t137.5 60.5l80 -191q-53 -18 -98 -44.5t-83 -76t-69 -125t-55 -190.5q-25 -121 -60.5 -201.5t-73.5 -130t-75 -72t-64 -30.5q25 -8 51.5 -31.5t43 -74t18.5 -131t-25 -201.5 q-25 -115 -26.5 -191t15 -124t50 -75.5t80.5 -46.5l-162 -188q-59 20 -111 60t-85 104.5t-42 158t19 224.5q27 123 26 202.5t-22.5 126t-58.5 65t-82 18.5z" />
<glyph unicode="|" horiz-adv-x="759" d="M31 -524l440 2070h268l-440 -2070h-268z" />
<glyph unicode="}" horiz-adv-x="692" d="M-231 -360q53 18 97 44.5t81 76t67.5 125t55.5 190.5q27 121 62.5 200.5t73.5 129t73.5 73t62.5 31.5q-23 8 -49.5 31.5t-43 74t-18.5 131t25 201.5q25 115 27 190.5t-14.5 124t-50.5 75t-81 44.5q41 47 81 94.5t81 94.5q59 -23 111.5 -60.5t85 -102.5t41 -158 t-18.5 -224q-27 -123 -25.5 -203t23 -126t58 -64.5t81.5 -18.5l-10 -53l-33 -155q-45 0 -90 -18.5t-86 -65t-75.5 -126t-61.5 -202.5q-29 -131 -77 -224.5t-108.5 -158t-129 -103t-136.5 -59.5q-20 47 -38 95.5t-41 95.5z" />
<glyph unicode="~" horiz-adv-x="1191" d="M131 741q72 90 148.5 144.5t175.5 54.5q66 0 123 -26.5t108 -58.5t97 -58.5t91 -26.5q47 0 85 29.5t85 111.5l138 -129q-59 -98 -153.5 -166.5t-211.5 -68.5q-59 0 -112.5 27.5t-103.5 60.5t-98 60.5t-95 27.5q-37 0 -74 -25.5t-84 -97.5z" />
<glyph unicode="&#xa1;" horiz-adv-x="679" d="M4 -365l270 971h185l-140 -971h-315zM260 838.5q-2 27.5 8 74.5q10 51 25.5 82t38 48.5t54.5 23.5t79 6q45 0 73.5 -6t44 -23.5t16.5 -48t-9 -82.5q-10 -47 -24.5 -74.5t-36 -43t-53.5 -20.5t-77 -5q-47 0 -76.5 5t-45 20.5t-17.5 43z" />
<glyph unicode="&#xa2;" horiz-adv-x="937" d="M144.5 544.5q-7.5 98.5 23.5 239.5q29 139 78 236.5t113.5 160t145.5 96.5t173 44l45 217h201l-45 -213q53 -4 111.5 -15.5t99.5 -27.5l-101 -201q-31 16 -73 23.5t-82 9.5l-144 -672q43 4 88 12.5t82 24.5l17 -196q-49 -20 -113 -32.5t-117 -17.5l-53 -247h-201l53 247 q-90 12 -155.5 47t-102 100.5t-44 164zM401.5 562.5q22.5 -68.5 94.5 -91.5l131 616q-41 -10 -73 -30.5t-58.5 -56t-48 -90t-37.5 -132.5q-31 -147 -8.5 -215.5z" />
<glyph unicode="&#xa3;" horiz-adv-x="1249" d="M92 0l127 600h-121l45 215h121l35 162q51 242 212 362.5t462 120.5q117 0 230.5 -17.5t191.5 -45.5l-109 -232q-55 20 -155.5 34.5t-208.5 14.5q-170 0 -247 -53t-102 -168l-38 -178h403l-45 -215h-404l-77 -367h694l-49 -233h-965z" />
<glyph unicode="&#xa4;" horiz-adv-x="1380" d="M39 154l209 211q-43 125 8 362q49 225 137 344l-114 209l266 147l102 -190q47 18 101.5 26.5t117.5 8.5q61 0 112.5 -7.5t90.5 -23.5l166 186l203 -145l-183 -199q43 -125 -4 -356q-27 -123 -63.5 -211t-85.5 -151l106 -211l-260 -154l-102 201q-92 -31 -213 -31 q-133 0 -205 35l-207 -205zM482 546.5q-1 -65.5 20.5 -100t65.5 -47t112 -12.5t118 12.5t87 47t63.5 100t48.5 174.5q25 113 26 179.5t-20.5 100t-67.5 44t-114 10.5t-116 -10.5t-83.5 -44t-63.5 -100t-52 -179.5q-23 -109 -24 -174.5z" />
<glyph unicode="&#xa5;" horiz-adv-x="1306" d="M109 221l41 189h364l35 159h-365l39 189h262q-92 186 -186 360t-176 309h352q66 -115 138.5 -255t142.5 -289q139 145 266 285.5t227 258.5h328q-137 -156 -293 -325.5t-321 -343.5h245l-39 -189h-350l-35 -159h351l-41 -189h-351l-45 -221h-270l45 221h-364z" />
<glyph unicode="&#xa6;" horiz-adv-x="759" d="M31 -524l159 751h269l-160 -751h-268zM311 795l160 751h268l-159 -751h-269z" />
<glyph unicode="&#xa7;" horiz-adv-x="1273" d="M-23 -354l103 221q53 -23 149.5 -36t200.5 -13q166 0 247 41t101 137q8 37 2 64.5t-34.5 48t-84 34t-147.5 21.5q-117 12 -203 38.5t-138 74t-69.5 116t2.5 160.5q16 72 52.5 134.5t89.5 115.5q-51 76 -23 215q49 233 229.5 338.5t467.5 105.5q111 0 219 -16t182 -45 l-102 -221q-53 20 -149.5 34.5t-201.5 14.5q-164 0 -245.5 -41t-104.5 -139q-8 -37 -2 -65t36 -47t86 -32.5t148 -21.5q233 -25 340 -115t68 -276q-16 -68 -55 -130.5t-92 -113.5q57 -78 26 -221q-49 -233 -230 -338t-466 -105q-111 0 -219.5 16.5t-182.5 45.5zM379 499.5 q8 -28.5 42 -49t97.5 -35t167.5 -22.5q53 -4 96 -12t76 -21q23 23 38 50.5t24 66.5q8 39 0.5 68.5t-41 50t-98 34t-169.5 21.5q-53 4 -95 11.5t-77 21.5q-20 -23 -35.5 -50.5t-25.5 -66.5q-8 -39 0 -67.5z" />
<glyph unicode="&#xa8;" horiz-adv-x="946" d="M293 1282q8 37 18.5 59.5t26.5 33.5t39.5 15.5t58.5 4.5q70 0 93.5 -19.5t7.5 -93.5q-10 -41 -21.5 -65.5t-29 -39t-42 -18.5t-59.5 -4q-70 0 -90 22.5t-2 104.5zM729 1282q8 37 18.5 59.5t27 33.5t41 15.5t58.5 4.5q68 0 91.5 -19.5t7.5 -93.5q-10 -41 -21.5 -65.5 t-29 -39t-42 -18.5t-57.5 -4q-72 0 -92 22.5t-2 104.5z" />
<glyph unicode="&#xa9;" horiz-adv-x="1714" d="M142.5 360.5q-15.5 145.5 31.5 366.5q45 217 122 359.5t187.5 225.5t254 116.5t325.5 33.5t312 -33.5t205 -116.5t91.5 -225.5t-29.5 -359.5q-47 -221 -124.5 -366.5t-188 -232.5t-255 -122t-326.5 -35t-312.5 35t-204 122t-89 232.5zM363.5 436.5q3.5 -110.5 50.5 -172 t139 -83t233 -21.5t244 21.5t175.5 83t122.5 172t89 288.5q37 178 34 285.5t-51 166t-141.5 78t-234.5 19.5t-242.5 -19.5t-173 -78t-122 -166t-87.5 -285.5q-39 -178 -35.5 -288.5zM505 502q-7 86 21 221q29 135 73 220t106.5 134t147.5 67.5t194 18.5q70 0 140 -11 t118 -28l-86 -184q-37 16 -93.5 24.5t-107.5 8.5q-57 0 -99 -8.5t-72 -35t-51.5 -76.5t-39.5 -132q-16 -78 -15.5 -128t19 -78t56.5 -38t95 -10q53 0 111.5 10t103.5 27l9 -182q-59 -20 -134 -33t-143 -13q-109 0 -185.5 19.5t-118.5 70t-49 136.5z" />
<glyph unicode="&#xaa;" horiz-adv-x="890" d="M207 809q-6 47 10 121q16 78 48 126t75 73.5t97.5 33.5t117.5 8q92 0 176 -20q10 49 9 80t-18 48t-51 23.5t-89 6.5q-59 0 -119 -8.5t-109 -24.5v147q59 14 139 26.5t160 12.5t138.5 -13t91 -46t42 -86t-9.5 -135l-94 -441q-37 -12 -82 -23t-91 -18.5t-92 -11.5t-85 -4 q-86 0 -142.5 11.5t-86 39t-35.5 74.5zM408 938q-14 -66 7 -91.5t101 -25.5q39 0 78 7.5t72 17.5l39 182q-29 8 -64 11t-76 3q-66 0 -104.5 -17t-52.5 -87z" />
<glyph unicode="&#xab;" horiz-adv-x="1368" d="M88 639l674 571l115 -149l-451 -418l270 -426l-176 -154zM647 639l674 571l115 -149l-451 -418l270 -426l-176 -154z" />
<glyph unicode="&#xac;" horiz-adv-x="1062" d="M92 637l49 240h936l-184 -877h-268l135 637h-668z" />
<glyph unicode="&#xad;" horiz-adv-x="622" d="M53 455l51 241h504l-51 -241h-504z" />
<glyph unicode="&#xae;" horiz-adv-x="1169" d="M174 709.5q-8 97.5 23 244.5q31 150 82 247t122.5 154.5t169 81t220.5 23.5q125 0 212 -23.5t135 -81t57 -154.5t-21 -247q-31 -147 -82.5 -244.5t-124 -156.5t-170 -84t-222.5 -25t-212 25t-134 84t-55 156.5zM346 777.5q2 -68.5 31 -108.5t86 -55.5t145 -15.5 q90 0 154.5 15.5t111 55.5t78 108.5t54.5 176.5q25 115 22.5 185.5t-32 108.5t-88 50.5t-148.5 12.5q-88 0 -151.5 -12.5t-109.5 -50.5t-77 -108.5t-55 -185.5q-23 -108 -21 -176.5zM403 684l117 545h334q78 0 100.5 -53.5t6.5 -126.5q-20 -94 -64.5 -129t-110.5 -35 q33 -16 57.5 -60.5t24.5 -140.5h-174q0 27 -4 55.5t-12 50t-18.5 36t-22.5 14.5h-39l-35 -156h-160zM627 979h110q25 0 38 16.5t18 44.5q6 25 -0.5 41.5t-30.5 16.5h-111z" />
<glyph unicode="&#xaf;" horiz-adv-x="1064" d="M399 1180l39 184h570l-39 -184h-570z" />
<glyph unicode="&#x2c9;" horiz-adv-x="1064" d="M399 1180l39 184h570l-39 -184h-570z" />
<glyph unicode="&#xb0;" horiz-adv-x="888" d="M155 777q-1 91 27 229q29 135 69 224t95 140t131 71.5t174 20.5t165 -20.5t100.5 -71.5t36.5 -140t-25 -224q-29 -137 -70 -228.5t-97 -145.5t-132 -77t-174 -23t-165 23t-100.5 77t-34.5 145zM382 858q-5 -55 6 -88t37 -44t69 -11t73.5 11t54 44t43 88t37.5 146 q18 90 23.5 144t-4.5 84t-37 40t-70 10t-73.5 -10t-54 -40t-43 -84t-37.5 -144q-19 -91 -24 -146z" />
<glyph unicode="&#xb1;" horiz-adv-x="1191" d="M4 39l51 242h996l-52 -242h-995zM160 778l51 242h375l80 377h243l-80 -377h377l-51 -242h-377l-80 -377h-243l80 377h-375z" />
<glyph unicode="&#xb2;" horiz-adv-x="878" d="M90 561q29 102 64.5 175t83 124t106.5 87t135 65q90 33 144.5 67.5t66.5 91.5q10 53 -21.5 74t-127.5 21q-29 0 -63 -3t-67.5 -7.5t-64.5 -11.5t-51 -13l6 190q57 16 138 27.5t159 11.5q190 0 270 -60.5t47 -211.5q-20 -92 -76.5 -167t-168.5 -112q-63 -20 -111.5 -36.5 t-83.5 -35t-57.5 -40t-34.5 -54.5h440l-39 -182h-694z" />
<glyph unicode="&#xb3;" horiz-adv-x="866" d="M104 571l70 174q41 -12 103.5 -20t117.5 -8t92 5t59.5 17.5t36 33t19.5 50.5q14 66 -14.5 86.5t-118.5 20.5h-107l37 170h103q84 0 116.5 20.5t45.5 75.5q6 25 3 42t-19.5 26.5t-49.5 13.5t-84 4q-135 0 -225 -29l4 174q61 14 138 23.5t155 9.5q193 0 268.5 -51 t50.5 -174q-10 -47 -26.5 -84t-44 -64.5t-69.5 -44t-101 -20.5q123 -6 156.5 -65.5t10.5 -163.5q-31 -143 -141 -199.5t-301 -56.5q-70 0 -148 9t-137 25z" />
<glyph unicode="&#xb4;" horiz-adv-x="985" d="M334 1163l305 264h272l-354 -264h-223z" />
<glyph unicode="&#xb5;" horiz-adv-x="1193" d="M-63 -393l188 829l129 606h254l-119 -555q-14 -68 -18 -122t11 -90.5t55 -56t112 -19.5q96 0 194 26l175 817h253l-208 -983q-53 -18 -116 -34.5t-130.5 -27.5t-136 -18.5t-129.5 -7.5q-59 0 -106.5 7.5t-82.5 25.5l-78 -397h-247z" />
<glyph unicode="&#x3bc;" horiz-adv-x="1193" d="M-63 -393l188 829l129 606h254l-119 -555q-14 -68 -18 -122t11 -90.5t55 -56t112 -19.5q96 0 194 26l175 817h253l-208 -983q-53 -18 -116 -34.5t-130.5 -27.5t-136 -18.5t-129.5 -7.5q-59 0 -106.5 7.5t-82.5 25.5l-78 -397h-247z" />
<glyph unicode="&#xb6;" horiz-adv-x="1378" d="M137 761q-4 85 17 177q23 104 60.5 193.5t98 156t144.5 103t196 36.5h744l-303 -1427h-238l98 471h-176l-98 -471h-240l99 471h-95q-104 0 -169.5 38t-99.5 102.5t-38 149.5z" />
<glyph unicode="&#xb7;" horiz-adv-x="608" d="M149.5 531.5q-2.5 33.5 10.5 89.5q10 49 25.5 79.5t39 48t57 22.5t80.5 5q51 0 84 -5t49.5 -22.5t18.5 -48t-8 -79.5q-12 -55 -27.5 -89t-40 -52.5t-59.5 -24.5t-86 -6q-47 0 -79 6t-47 24.5t-17.5 52z" />
<glyph unicode="&#x2219;" horiz-adv-x="608" d="M149.5 531.5q-2.5 33.5 10.5 89.5q10 49 25.5 79.5t39 48t57 22.5t80.5 5q51 0 84 -5t49.5 -22.5t18.5 -48t-8 -79.5q-12 -55 -27.5 -89t-40 -52.5t-59.5 -24.5t-86 -6q-47 0 -79 6t-47 24.5t-17.5 52z" />
<glyph unicode="&#xb8;" horiz-adv-x="1312" d="M336 -383l67 111q23 -12 61 -18.5t81 -6.5q47 0 67.5 11.5t26.5 41.5q10 39 -29 49.5t-151 4.5l114 190h101l-19 -86q121 0 166 -34t25 -126q-20 -96 -92 -133t-226 -37q-72 0 -114.5 8.5t-77.5 24.5z" />
<glyph unicode="&#xb9;" horiz-adv-x="772" d="M248 1292l504 193l-195 -916h-213l133 627l-213 -84z" />
<glyph unicode="&#xba;" horiz-adv-x="942" d="M218 875.5q-7 76.5 18 189.5t63.5 189.5t94 122.5t126 65.5t156.5 19.5q88 0 151.5 -19.5t99.5 -65.5t43 -122.5t-18 -189.5t-63.5 -189.5t-95 -123.5t-128 -67.5t-159.5 -20.5q-86 0 -148.5 20.5t-97.5 67.5t-42 123.5zM416 943q-2 -46 10 -71.5t41 -36t74 -10.5 t78.5 10.5t58 36t42 71.5t34.5 120q16 76 18 123t-12.5 72.5t-44 33.5t-74.5 8t-77 -8t-55.5 -33.5t-40.5 -72.5t-34 -123q-16 -74 -18 -120z" />
<glyph unicode="&#xbb;" horiz-adv-x="1368" d="M-2 215l451 418l-271 428l174 151l436 -573l-675 -573zM557 215l451 418l-271 428l174 151l437 -573l-676 -573z" />
<glyph unicode="&#xbc;" horiz-adv-x="1761" d="M121 0l1184 1427h249l-1183 -1427h-250zM217 1292l506 193l-195 -916h-215l133 627l-210 -84zM815 201l19 88q57 74 124.5 152.5t136 156.5t136 151.5t127.5 135.5h280l-104 -498h117l-41 -186h-117l-41 -201h-211l41 201h-467zM1098 387h225l70 330q-86 -84 -161 -168 t-134 -162z" />
<glyph unicode="&#xbd;" horiz-adv-x="1761" d="M113 0l1183 1427h250l-1184 -1427h-249zM209 1292l506 193l-195 -916h-215l133 627l-211 -84zM905 0q29 102 65 175t83 124t105.5 87t133.5 65q92 33 146.5 67.5t66.5 91.5q10 53 -21.5 74t-127.5 21q-29 0 -62.5 -3.5t-67.5 -7.5t-65 -11t-51 -13l6 190q57 16 138 27.5 t159 11.5q190 0 269 -60.5t49 -211.5q-20 -92 -77 -167t-169 -112q-63 -20 -111.5 -36.5t-84.5 -35t-58.5 -40t-34.5 -54.5h440l-37 -182h-694z" />
<glyph unicode="&#xbe;" horiz-adv-x="1761" d="M68 571l69 174q41 -12 103.5 -20t117.5 -8t92 5t59.5 17.5t36 33t19.5 50.5q14 66 -14.5 86.5t-118.5 20.5h-106l36 170h103q84 0 116.5 20.5t45.5 75.5q6 25 3 42t-19.5 26.5t-49.5 13.5t-84 4q-135 0 -225 -29l4 174q61 14 138 23.5t155 9.5q193 0 268.5 -51t50.5 -174 q-10 -47 -26.5 -84t-44 -64.5t-69.5 -44t-101 -20.5q123 -6 156.5 -65.5t11.5 -163.5q-31 -143 -141.5 -199.5t-301.5 -56.5q-70 0 -147.5 9t-136.5 25zM250 0l1186 1427h250l-1186 -1427h-250zM844 201l18 88q59 74 126 152.5t136.5 156.5t137 151.5t127.5 135.5h278 l-104 -498h118l-41 -186h-118l-41 -201h-211l41 201h-467zM1126 387h226l69 330q-84 -84 -160 -168t-135 -162z" />
<glyph unicode="&#xbf;" horiz-adv-x="1009" d="M-54.5 -164q-13.5 78 9.5 180q18 86 59 164t100.5 152t138.5 146.5t173 146.5h266q-92 -82 -164.5 -155t-126 -143.5t-87 -144t-52.5 -155.5q-8 -43 -3 -76t28.5 -55.5t68.5 -35t117 -12.5q90 0 168 11.5t133 31.5l6 -237q-37 -10 -86 -19.5t-101 -16.5t-103.5 -11 t-92.5 -4q-143 0 -238.5 25.5t-147.5 77.5t-65.5 130zM451 840.5q-2 27.5 8 74.5q10 51 24.5 82t37 47.5t55 22.5t79.5 6q45 0 74 -6t44 -22.5t16.5 -47t-9.5 -82.5q-10 -47 -24.5 -74.5t-36 -43t-52 -20.5t-75.5 -5q-47 0 -78 5t-46 20.5t-17 43z" />
<glyph unicode="&#xc0;" horiz-adv-x="1396" d="M-121 0q84 160 185.5 343t209 370.5t216 371t208.5 342.5h424q18 -172 42 -363.5t51.5 -379.5t57.5 -364.5t60 -319.5h-299q-16 78 -31.5 168t-31.5 188h-625q-51 -96 -97 -185t-87 -171h-283zM469 588h475q-23 160 -40 315.5t-30 294.5h-55q-84 -139 -172 -293.5 t-178 -316.5zM614 1794h281l219 -264h-233z" />
<glyph unicode="&#xc1;" horiz-adv-x="1396" d="M-121 0q84 160 185.5 343t209 370.5t216 371t208.5 342.5h424q18 -172 42 -363.5t51.5 -379.5t57.5 -364.5t60 -319.5h-299q-16 78 -31.5 168t-31.5 188h-625q-51 -96 -97 -185t-87 -171h-283zM469 588h475q-23 160 -40 315.5t-30 294.5h-55q-84 -139 -172 -293.5 t-178 -316.5zM729 1530l322 264h280l-381 -264h-221z" />
<glyph unicode="&#xc2;" horiz-adv-x="1396" d="M-121 0q84 160 185.5 343t209 370.5t216 371t208.5 342.5h424q18 -172 42 -363.5t51.5 -379.5t57.5 -364.5t60 -319.5h-299q-16 78 -31.5 168t-31.5 188h-625q-51 -96 -97 -185t-87 -171h-283zM469 588h475q-23 160 -40 315.5t-30 294.5h-55q-84 -139 -172 -293.5 t-178 -316.5zM545 1530l307 264h250l201 -264h-238l-113 160l-178 -160h-229z" />
<glyph unicode="&#xc3;" horiz-adv-x="1396" d="M-121 0q84 160 185.5 343t209 370.5t216 371t208.5 342.5h424q18 -172 42 -363.5t51.5 -379.5t57.5 -364.5t60 -319.5h-299q-16 78 -31.5 168t-31.5 188h-625q-51 -96 -97 -185t-87 -171h-283zM469 588h475q-23 160 -40 315.5t-30 294.5h-55q-84 -139 -172 -293.5 t-178 -316.5zM555 1628q57 72 117.5 117t136.5 45q51 0 89 -16.5t68.5 -37t59.5 -37t64 -16.5t65.5 25t69.5 92l104 -102q-47 -80 -120.5 -135.5t-166.5 -55.5q-45 0 -79.5 17.5t-64.5 38t-59.5 38t-66.5 17.5q-31 0 -60.5 -21.5t-64.5 -80.5z" />
<glyph unicode="&#xc4;" horiz-adv-x="1396" d="M-121 0q84 160 185.5 343t209 370.5t216 371t208.5 342.5h424q18 -172 42 -363.5t51.5 -379.5t57.5 -364.5t60 -319.5h-299q-16 78 -31.5 168t-31.5 188h-625q-51 -96 -97 -185t-87 -171h-283zM469 588h475q-23 160 -40 315.5t-30 294.5h-55q-84 -139 -172 -293.5 t-178 -316.5zM602 1655q16 74 47 94t101 20t91 -20t5 -94q-8 -41 -19.5 -64.5t-29 -38t-41 -18.5t-58.5 -4q-70 0 -91 22.5t-5 102.5zM1038 1655q8 37 18.5 59.5t28 34.5t42 16t59.5 4q70 0 91 -20t5 -94q-8 -41 -19.5 -64.5t-28.5 -38t-41 -18.5t-58 -4q-72 0 -92.5 22.5 t-4.5 102.5z" />
<glyph unicode="&#xc5;" horiz-adv-x="1396" d="M-121 0q84 160 185.5 343t209 370.5t216 371t208.5 342.5h424q18 -172 42 -363.5t51.5 -379.5t57.5 -364.5t60 -319.5h-299q-16 78 -31.5 168t-31.5 188h-625q-51 -96 -97 -185t-87 -171h-283zM469 588h475q-23 160 -40 315.5t-30 294.5h-55q-84 -139 -172 -293.5 t-178 -316.5zM702 1622q23 111 90.5 156t198.5 45q123 0 173 -45t28 -156q-23 -111 -93.5 -156t-193.5 -45t-174.5 45t-28.5 156zM846 1620q-10 -45 4 -66.5t78 -21.5q63 0 87.5 21.5t35.5 66.5q10 47 -5.5 67.5t-78.5 20.5t-87 -21.5t-34 -66.5z" />
<glyph unicode="&#xc6;" horiz-adv-x="1984" d="M-397 0q137 160 301 343t335 370.5t342 371t326 342.5h1223l-51 -233h-766l-70 -330h455l-49 -229h-455l-84 -402h766l-49 -233h-1034l73 356h-637q-84 -96 -159.5 -185t-143.5 -171h-323zM432 588h486l129 610h-58q-129 -139 -271.5 -293.5t-285.5 -316.5z" />
<glyph unicode="&#xc7;" horiz-adv-x="1212" d="M124 363.5q-11 144.5 36 363.5t117.5 361.5t172 225.5t233.5 115.5t302 32.5q49 0 103.5 -4t106.5 -11t101.5 -16.5t87.5 -21.5l-110 -238q-25 10 -60.5 18.5t-75.5 14.5t-80 9.5t-77 3.5q-117 0 -202 -15.5t-146.5 -67t-105.5 -148.5t-78 -261q-35 -164 -34 -264.5 t41 -153.5t117.5 -70.5t194.5 -17.5q37 0 79 3t84 9.5t81 14.5t69 18l9 -241q-43 -12 -96.5 -21.5t-109 -15.5t-110.5 -10.5t-104 -4.5q-170 0 -288 36t-182.5 124t-75.5 232.5zM350 -383l68 111q23 -12 60.5 -18.5t80.5 -6.5q47 0 67.5 11.5t26.5 41.5q10 39 -28.5 49.5 t-151.5 4.5l115 190h100l-18 -86q121 0 166 -34t24 -126q-20 -96 -92 -133t-225 -37q-72 0 -115 8.5t-78 24.5z" />
<glyph unicode="&#xc8;" horiz-adv-x="1269" d="M78 0l303 1427h1036l-51 -233h-766l-70 -330h547l-49 -231h-547l-84 -400h766l-49 -233h-1036zM690 1794h281l219 -264h-234z" />
<glyph unicode="&#xc9;" horiz-adv-x="1269" d="M78 0l303 1427h1036l-51 -233h-766l-70 -330h547l-49 -231h-547l-84 -400h766l-49 -233h-1036zM737 1530l322 264h280l-381 -264h-221z" />
<glyph unicode="&#xca;" horiz-adv-x="1269" d="M78 0l303 1427h1036l-51 -233h-766l-70 -330h547l-49 -231h-547l-84 -400h766l-49 -233h-1036zM559 1530l307 264h250l201 -264h-238l-112 160l-179 -160h-229z" />
<glyph unicode="&#xcb;" horiz-adv-x="1269" d="M78 0l303 1427h1036l-51 -233h-766l-70 -330h547l-49 -231h-547l-84 -400h766l-49 -233h-1036zM618 1655q16 74 47 94t101 20t91.5 -20t4.5 -94q-8 -41 -19.5 -64.5t-28.5 -38t-40.5 -18.5t-58.5 -4q-70 0 -91.5 22.5t-5.5 102.5zM1055 1655q8 37 18 59.5t27.5 34.5 t42 16t59.5 4q70 0 91.5 -20t4.5 -94q-8 -41 -19 -64.5t-28.5 -38t-41 -18.5t-58.5 -4q-72 0 -92 22.5t-4 102.5z" />
<glyph unicode="&#xcc;" horiz-adv-x="630" d="M78 0l303 1427h270l-303 -1427h-270zM217 1794h281l219 -264h-234z" />
<glyph unicode="&#xcd;" horiz-adv-x="630" d="M78 0l303 1427h270l-303 -1427h-270zM365 1530l321 264h281l-381 -264h-221z" />
<glyph unicode="&#xce;" horiz-adv-x="630" d="M78 0l303 1427h270l-303 -1427h-270zM160 1530l307 264h250l201 -264h-238l-113 160l-178 -160h-229z" />
<glyph unicode="&#xcf;" horiz-adv-x="630" d="M78 0l303 1427h270l-303 -1427h-270zM225 1655q16 74 47 94t101 20t91 -20t5 -94q-8 -41 -19.5 -64.5t-29 -38t-41 -18.5t-57.5 -4q-70 0 -91.5 22.5t-5.5 102.5zM662 1655q8 37 18 59.5t27.5 34.5t42 16t59.5 4q70 0 91.5 -20t4.5 -94q-8 -41 -19.5 -64.5t-28.5 -38 t-40.5 -18.5t-58.5 -4q-72 0 -92 22.5t-4 102.5z" />
<glyph unicode="&#xd0;" horiz-adv-x="1507" d="M78 0l135 637h-107l39 188h107l129 602h545q170 0 289.5 -32.5t186 -113.5t79 -217t-32.5 -345q-43 -207 -114.5 -345t-173 -221t-234.5 -118t-303 -35h-545zM397 233h248q119 0 202 18.5t141.5 72t98 147.5t72.5 246q33 158 33 252t-37 143t-112.5 64.5t-194.5 15.5 h-248l-78 -367h326l-39 -188h-326z" />
<glyph unicode="&#xd1;" horiz-adv-x="1585" d="M78 0l303 1427h354q104 -246 199.5 -507t181.5 -523l219 1030h269l-304 -1427h-329q-90 268 -190.5 537.5t-211.5 537.5l-227 -1075h-264zM664 1628q57 72 117.5 117t136.5 45q51 0 88.5 -16.5t68.5 -37t59.5 -37t63.5 -16.5t65.5 25t69.5 92l105 -102 q-47 -80 -121 -135.5t-166 -55.5q-45 0 -80 17.5t-64.5 38t-59 38t-66.5 17.5q-31 0 -60.5 -21.5t-64.5 -80.5z" />
<glyph unicode="&#xd2;" horiz-adv-x="1576" d="M124 360.5q-11 145.5 36 366.5q45 217 117.5 359.5t176 225.5t237.5 116.5t304 33.5t290 -33.5t187.5 -116.5t79 -225.5t-33.5 -359.5q-47 -221 -120 -366.5t-176.5 -232.5t-237.5 -122t-304 -35t-291 35t-187.5 122t-77.5 232.5zM410 461.5q-4 -99.5 27.5 -154.5 t104 -73.5t189.5 -18.5t197 18.5t136 73.5t94 154.5t73 261.5q33 162 37 260t-29 150.5t-105.5 69t-189.5 16.5t-196.5 -16.5t-135 -69t-93.5 -150.5t-70 -260q-35 -162 -39 -261.5zM713 1794h280l219 -264h-233z" />
<glyph unicode="&#xd3;" horiz-adv-x="1576" d="M124 360.5q-11 145.5 36 366.5q45 217 117.5 359.5t176 225.5t237.5 116.5t304 33.5t290 -33.5t187.5 -116.5t79 -225.5t-33.5 -359.5q-47 -221 -120 -366.5t-176.5 -232.5t-237.5 -122t-304 -35t-291 35t-187.5 122t-77.5 232.5zM410 461.5q-4 -99.5 27.5 -154.5 t104 -73.5t189.5 -18.5t197 18.5t136 73.5t94 154.5t73 261.5q33 162 37 260t-29 150.5t-105.5 69t-189.5 16.5t-196.5 -16.5t-135 -69t-93.5 -150.5t-70 -260q-35 -162 -39 -261.5zM737 1530l322 264h280l-381 -264h-221z" />
<glyph unicode="&#xd4;" horiz-adv-x="1576" d="M124 360.5q-11 145.5 36 366.5q45 217 117.5 359.5t176 225.5t237.5 116.5t304 33.5t290 -33.5t187.5 -116.5t79 -225.5t-33.5 -359.5q-47 -221 -120 -366.5t-176.5 -232.5t-237.5 -122t-304 -35t-291 35t-187.5 122t-77.5 232.5zM410 461.5q-4 -99.5 27.5 -154.5 t104 -73.5t189.5 -18.5t197 18.5t136 73.5t94 154.5t73 261.5q33 162 37 260t-29 150.5t-105.5 69t-189.5 16.5t-196.5 -16.5t-135 -69t-93.5 -150.5t-70 -260q-35 -162 -39 -261.5zM629 1530l307 264h250l200 -264h-237l-113 160l-178 -160h-229z" />
<glyph unicode="&#xd5;" horiz-adv-x="1576" d="M124 360.5q-11 145.5 36 366.5q45 217 117.5 359.5t176 225.5t237.5 116.5t304 33.5t290 -33.5t187.5 -116.5t79 -225.5t-33.5 -359.5q-47 -221 -120 -366.5t-176.5 -232.5t-237.5 -122t-304 -35t-291 35t-187.5 122t-77.5 232.5zM410 461.5q-4 -99.5 27.5 -154.5 t104 -73.5t189.5 -18.5t197 18.5t136 73.5t94 154.5t73 261.5q33 162 37 260t-29 150.5t-105.5 69t-189.5 16.5t-196.5 -16.5t-135 -69t-93.5 -150.5t-70 -260q-35 -162 -39 -261.5zM647 1628q57 72 117.5 117t136.5 45q51 0 89 -16.5t69 -37t59.5 -37t63.5 -16.5t65.5 25 t69.5 92l104 -102q-47 -80 -120.5 -135.5t-165.5 -55.5q-45 0 -80 17.5t-64.5 38t-59.5 38t-67 17.5q-31 0 -60.5 -21.5t-64.5 -80.5z" />
<glyph unicode="&#xd6;" horiz-adv-x="1576" d="M124 360.5q-11 145.5 36 366.5q45 217 117.5 359.5t176 225.5t237.5 116.5t304 33.5t290 -33.5t187.5 -116.5t79 -225.5t-33.5 -359.5q-47 -221 -120 -366.5t-176.5 -232.5t-237.5 -122t-304 -35t-291 35t-187.5 122t-77.5 232.5zM410 461.5q-4 -99.5 27.5 -154.5 t104 -73.5t189.5 -18.5t197 18.5t136 73.5t94 154.5t73 261.5q33 162 37 260t-29 150.5t-105.5 69t-189.5 16.5t-196.5 -16.5t-135 -69t-93.5 -150.5t-70 -260q-35 -162 -39 -261.5zM692 1655q16 74 47 94t101 20t91 -20t5 -94q-8 -41 -19.5 -64.5t-29 -38t-41 -18.5 t-58.5 -4q-70 0 -91 22.5t-5 102.5zM1128 1655q8 37 18.5 59.5t28 34.5t42 16t59.5 4q70 0 91.5 -20t4.5 -94q-8 -41 -19.5 -64.5t-28.5 -38t-40.5 -18.5t-58.5 -4q-72 0 -92.5 22.5t-4.5 102.5z" />
<glyph unicode="&#xd7;" horiz-adv-x="1191" d="M156 477l321 266l-211 265l209 172l209 -267l324 269l135 -174l-324 -267l211 -266l-209 -170l-209 266l-321 -266z" />
<glyph unicode="&#xd8;" horiz-adv-x="1576" d="M-68 0l224 207q-70 170 4 520q45 217 117.5 359.5t176 225.5t237.5 116.5t304 33.5q135 0 238.5 -21.5t171.5 -74.5l65 61h277l-225 -206q33 -86 31.5 -207t-35.5 -287q-47 -221 -120 -366.5t-176.5 -232.5t-237.5 -122t-304 -35q-135 0 -236.5 21.5t-169.5 70.5l-67 -63 h-275zM418 446l768 719q-35 31 -95.5 42.5t-146.5 11.5q-111 0 -188.5 -15.5t-133 -61.5t-93 -130t-66.5 -221q-8 -39 -16.5 -85.5t-15.5 -92.5t-10 -90t-3 -77zM496 268q35 -31 93 -42t142 -11q111 0 189.5 17.5t135 65.5t94.5 134t69 223q8 37 15 80t12 86t8 83t3 73z" />
<glyph unicode="&#xd9;" horiz-adv-x="1519" d="M139.5 202q-22.5 89 7.5 230l213 995h273l-203 -954q-16 -72 -9 -120t39 -77.5t91 -43t151 -13.5q86 0 152 11.5t112 40t75.5 77.5t45.5 125l203 954h269l-211 -995q-31 -141 -90.5 -230t-147.5 -140.5t-203.5 -71t-255.5 -19.5q-139 0 -246.5 19.5t-175 71t-90 140.5z M717 1794h280l220 -264h-234z" />
<glyph unicode="&#xda;" horiz-adv-x="1519" d="M139.5 202q-22.5 89 7.5 230l213 995h273l-203 -954q-16 -72 -9 -120t39 -77.5t91 -43t151 -13.5q86 0 152 11.5t112 40t75.5 77.5t45.5 125l203 954h269l-211 -995q-31 -141 -90.5 -230t-147.5 -140.5t-203.5 -71t-255.5 -19.5q-139 0 -246.5 19.5t-175 71t-90 140.5z M762 1530l321 264h281l-381 -264h-221z" />
<glyph unicode="&#xdb;" horiz-adv-x="1519" d="M139.5 202q-22.5 89 7.5 230l213 995h273l-203 -954q-16 -72 -9 -120t39 -77.5t91 -43t151 -13.5q86 0 152 11.5t112 40t75.5 77.5t45.5 125l203 954h269l-211 -995q-31 -141 -90.5 -230t-147.5 -140.5t-203.5 -71t-255.5 -19.5q-139 0 -246.5 19.5t-175 71t-90 140.5z M598 1530l307 264h250l201 -264h-238l-112 160l-179 -160h-229z" />
<glyph unicode="&#xdc;" horiz-adv-x="1519" d="M139.5 202q-22.5 89 7.5 230l213 995h273l-203 -954q-16 -72 -9 -120t39 -77.5t91 -43t151 -13.5q86 0 152 11.5t112 40t75.5 77.5t45.5 125l203 954h269l-211 -995q-31 -141 -90.5 -230t-147.5 -140.5t-203.5 -71t-255.5 -19.5q-139 0 -246.5 19.5t-175 71t-90 140.5z M662 1655q16 74 46.5 94t100.5 20t91.5 -20t4.5 -94q-8 -41 -19.5 -64.5t-28.5 -38t-40.5 -18.5t-58.5 -4q-70 0 -91 22.5t-5 102.5zM1098 1655q8 37 18 59.5t27.5 34.5t42 16t59.5 4q70 0 91.5 -20t4.5 -94q-8 -41 -19 -64.5t-28.5 -38t-41 -18.5t-58.5 -4q-72 0 -92 22.5 t-4 102.5z" />
<glyph unicode="&#xdd;" horiz-adv-x="1306" d="M123 1427h352q66 -115 138.5 -255t142.5 -289q139 145 266 285.5t227 258.5h328q-164 -186 -357.5 -396t-392.5 -415l-129 -616h-270l129 614q-53 109 -110.5 220.5t-112.5 217t-109.5 201.5t-101.5 174zM684 1530l322 264h280l-381 -264h-221z" />
<glyph unicode="&#xde;" horiz-adv-x="1378" d="M78 0l303 1427h270l-45 -210h473q113 0 181.5 -37t100.5 -103.5t33 -156t-22 -193.5q-20 -92 -61 -177t-102.5 -149.5t-143.5 -102.5t-184 -38h-480l-53 -260h-270zM451 485h397q174 0 227 244q53 256 -114 256h-404z" />
<glyph unicode="&#xdf;" horiz-adv-x="1339" d="M39 0l229 1079q23 104 75 178t131 119t179.5 65.5t216.5 20.5q281 0 391.5 -85t69.5 -279q-14 -72 -37.5 -130.5t-65.5 -103.5t-107.5 -72.5t-162.5 -35.5q100 -4 160 -33t86.5 -77t26.5 -114.5t-19 -146.5q-25 -117 -73.5 -195.5t-128.5 -127t-192.5 -70t-264.5 -21.5 q-31 0 -69 1t-72 5l75 222q25 -4 59 -6.5t62 -2.5q84 0 141.5 12.5t94.5 39t58.5 68.5t33.5 102q29 131 -20.5 181t-190.5 50h-78l45 211h72q70 0 120 12.5t83.5 38t53 63.5t30.5 87q23 102 -27.5 141t-200.5 39q-135 0 -211.5 -50t-95.5 -141l-221 -1044h-256z" />
<glyph unicode="&#xe0;" d="M84 283q0 94 29 233q33 160 85 267.5t126.5 172t175 91t229.5 26.5q57 0 118.5 -5t120 -15.5t110.5 -24.5t91 -33l-145 -676q-10 -47 -10 -81q0 -82 61 -150l-217 -125q-41 16 -70.5 54t-37.5 77q-53 -53 -136.5 -86t-179.5 -33q-84 0 -149.5 15.5t-110.5 50.5 t-67.5 94.5t-22.5 147.5zM350 348q0 -90 45 -121.5t144 -31.5q86 0 153.5 32.5t79.5 91.5l109 510q-41 16 -94.5 25.5t-100.5 9.5q-68 0 -116 -12t-83.5 -49t-62.5 -104.5t-49 -178.5q-25 -109 -25 -172zM436 1427h271l192 -264h-225z" />
<glyph unicode="&#xe1;" d="M84 283q0 94 29 233q33 160 85 267.5t126.5 172t175 91t229.5 26.5q57 0 118.5 -5t120 -15.5t110.5 -24.5t91 -33l-145 -676q-10 -47 -10 -81q0 -82 61 -150l-217 -125q-41 16 -70.5 54t-37.5 77q-53 -53 -136.5 -86t-179.5 -33q-84 0 -149.5 15.5t-110.5 50.5 t-67.5 94.5t-22.5 147.5zM350 348q0 -90 45 -121.5t144 -31.5q86 0 153.5 32.5t79.5 91.5l109 510q-41 16 -94.5 25.5t-100.5 9.5q-68 0 -116 -12t-83.5 -49t-62.5 -104.5t-49 -178.5q-25 -109 -25 -172zM571 1163l306 264h272l-354 -264h-224z" />
<glyph unicode="&#xe2;" d="M84 283q0 94 29 233q33 160 85 267.5t126.5 172t175 91t229.5 26.5q57 0 118.5 -5t120 -15.5t110.5 -24.5t91 -33l-145 -676q-10 -47 -10 -81q0 -82 61 -150l-217 -125q-41 16 -70.5 54t-37.5 77q-53 -53 -136.5 -86t-179.5 -33q-84 0 -149.5 15.5t-110.5 50.5 t-67.5 94.5t-22.5 147.5zM350 348q0 -90 45 -121.5t144 -31.5q86 0 153.5 32.5t79.5 91.5l109 510q-41 16 -94.5 25.5t-100.5 9.5q-68 0 -116 -12t-83.5 -49t-62.5 -104.5t-49 -178.5q-25 -109 -25 -172zM383 1163l307 264h250l201 -264h-240l-113 156l-174 -156h-231z" />
<glyph unicode="&#xe3;" d="M84 283q0 94 29 233q33 160 85 267.5t126.5 172t175 91t229.5 26.5q57 0 118.5 -5t120 -15.5t110.5 -24.5t91 -33l-145 -676q-10 -47 -10 -81q0 -82 61 -150l-217 -125q-41 16 -70.5 54t-37.5 77q-53 -53 -136.5 -86t-179.5 -33q-84 0 -149.5 15.5t-110.5 50.5 t-67.5 94.5t-22.5 147.5zM348 1262q59 76 120.5 120.5t139.5 44.5q51 0 86 -17t62.5 -36.5t54.5 -37t63 -17.5q37 0 66 24.5t70 94.5l104 -103q-47 -84 -117.5 -137t-162.5 -53q-47 0 -80 17.5t-61.5 37t-57.5 36.5t-66 17q-31 0 -61.5 -22.5t-67.5 -81.5zM350 348 q0 -90 45 -121.5t144 -31.5q86 0 153.5 32.5t79.5 91.5l109 510q-41 16 -94.5 25.5t-100.5 9.5q-68 0 -116 -12t-83.5 -49t-62.5 -104.5t-49 -178.5q-25 -109 -25 -172z" />
<glyph unicode="&#xe4;" d="M84 283q0 94 29 233q33 160 85 267.5t126.5 172t175 91t229.5 26.5q57 0 118.5 -5t120 -15.5t110.5 -24.5t91 -33l-145 -676q-10 -47 -10 -81q0 -82 61 -150l-217 -125q-41 16 -70.5 54t-37.5 77q-53 -53 -136.5 -86t-179.5 -33q-84 0 -149.5 15.5t-110.5 50.5 t-67.5 94.5t-22.5 147.5zM350 348q0 -90 45 -121.5t144 -31.5q86 0 153.5 32.5t79.5 91.5l109 510q-41 16 -94.5 25.5t-100.5 9.5q-68 0 -116 -12t-83.5 -49t-62.5 -104.5t-49 -178.5q-25 -109 -25 -172zM434 1282q8 37 18.5 59.5t27 33.5t40 15.5t58.5 4.5q70 0 93 -19.5 t7 -93.5q-10 -41 -21.5 -65.5t-29 -39t-42 -18.5t-59.5 -4q-70 0 -90 22.5t-2 104.5zM870 1282q8 37 18.5 59.5t27 33.5t41 15.5t59.5 4.5q68 0 91 -19.5t7 -93.5q-10 -41 -21.5 -65.5t-28.5 -39t-42 -18.5t-57 -4q-72 0 -92.5 22.5t-2.5 104.5z" />
<glyph unicode="&#xe5;" d="M84 283q0 94 29 233q33 160 85 267.5t126.5 172t175 91t229.5 26.5q57 0 118.5 -5t120 -15.5t110.5 -24.5t91 -33l-145 -676q-10 -47 -10 -81q0 -82 61 -150l-217 -125q-41 16 -70.5 54t-37.5 77q-53 -53 -136.5 -86t-179.5 -33q-84 0 -149.5 15.5t-110.5 50.5 t-67.5 94.5t-22.5 147.5zM350 348q0 -90 45 -121.5t144 -31.5q86 0 153.5 32.5t79.5 91.5l109 510q-41 16 -94.5 25.5t-100.5 9.5q-68 0 -116 -12t-83.5 -49t-62.5 -104.5t-49 -178.5q-25 -109 -25 -172zM506 1317q23 111 90.5 156t198.5 45q123 0 173 -45.5t27 -155.5 q-23 -113 -93.5 -157t-192.5 -44q-123 0 -174.5 44t-28.5 157zM649 1313q-10 -45 5.5 -66.5t78.5 -21.5t87 22.5t34 65.5q10 47 -5 67.5t-79 20.5q-63 0 -87 -20.5t-34 -67.5z" />
<glyph unicode="&#xe6;" horiz-adv-x="1777" d="M51 150.5q-8 66.5 15 168.5q23 111 66.5 178.5t106 103.5t140.5 48.5t168 12.5q66 0 127 -7.5t125 -21.5q14 68 14 111.5t-23.5 68.5t-72.5 34t-131 9q-86 0 -170 -12.5t-156 -34.5l-2 209q86 23 200.5 39t227.5 16q133 0 210 -27.5t110 -97.5q63 68 150 96.5t206 28.5 q123 0 207 -25.5t125 -94t40 -188.5t-48 -310h-674q-16 -84 -11 -136.5t32.5 -82t75.5 -40t116 -10.5q27 0 65.5 3.5t79.5 9.5t82 13t74 17l-2 -200q-41 -12 -90.5 -23.5t-99.5 -18.5t-98 -11.5t-87 -4.5q-197 0 -289 74q-43 -18 -96 -32.5t-111.5 -23.5t-115 -13.5 t-105.5 -4.5q-123 0 -205 16.5t-125 56.5t-51 106.5zM326 249q0 -32 16 -50.5t53 -25.5t99 -7q27 0 61.5 4t70.5 10t67.5 15.5t54.5 19.5q-12 63 -8.5 121.5t18.5 124.5q-78 18 -197 18q-53 0 -91 -5t-64.5 -20.5t-43 -45t-26.5 -78.5t-10 -81zM1055 649h438q12 70 9 113 t-22.5 67.5t-55 33.5t-91.5 9q-57 0 -100 -10t-76 -34.5t-57.5 -67.5t-44.5 -111z" />
<glyph unicode="&#xe7;" horiz-adv-x="962" d="M92 259.5q-14 107.5 21 266.5q33 160 92 265.5t140 168t181.5 88t218.5 25.5q37 0 80 -4t84 -10t79 -15.5t65 -19.5l-105 -217q-45 18 -106.5 31.5t-124.5 13.5q-70 0 -123 -11.5t-94 -46t-72 -99t-53 -173.5q-23 -104 -20 -168.5t29 -100.5t74 -48t117 -12 q66 0 133.5 14t120.5 35l11 -217q-33 -12 -75 -22.5t-86 -16.5t-87 -10.5t-80 -4.5q-119 0 -209 27t-143.5 90.5t-67.5 171zM193 -383l67 111q23 -12 60.5 -18.5t80.5 -6.5q47 0 67.5 11.5t27.5 41.5q10 39 -29 49.5t-152 4.5l115 190h100l-18 -86q121 0 166 -34t24 -126 q-20 -96 -91.5 -133t-225.5 -37q-72 0 -114.5 8.5t-77.5 24.5z" />
<glyph unicode="&#xe8;" horiz-adv-x="1130" d="M92 259.5q-14 107.5 21 266.5q33 156 88 261.5t132 169t172 90t210 26.5q123 0 207 -25.5t124.5 -94t39.5 -188.5t-48 -310h-673q-16 -84 -11.5 -136.5t32.5 -82t76 -40t116 -10.5q27 0 65.5 3.5t79.5 9.5t82 13t74 17l-2 -200q-41 -12 -90.5 -23.5t-99.5 -18.5 t-98 -11.5t-87 -4.5q-113 0 -201 27t-141.5 90.5t-67.5 171zM408 649h438q12 70 9 113t-22.5 67.5t-55.5 33.5t-91 9q-59 0 -103 -10t-76 -36.5t-55.5 -70t-43.5 -106.5zM479 1427h271l192 -264h-225z" />
<glyph unicode="&#xe9;" horiz-adv-x="1130" d="M92 259.5q-14 107.5 21 266.5q33 156 88 261.5t132 169t172 90t210 26.5q123 0 207 -25.5t124.5 -94t39.5 -188.5t-48 -310h-673q-16 -84 -11.5 -136.5t32.5 -82t76 -40t116 -10.5q27 0 65.5 3.5t79.5 9.5t82 13t74 17l-2 -200q-41 -12 -90.5 -23.5t-99.5 -18.5 t-98 -11.5t-87 -4.5q-113 0 -201 27t-141.5 90.5t-67.5 171zM408 649h438q12 70 9 113t-22.5 67.5t-55.5 33.5t-91 9q-59 0 -103 -10t-76 -36.5t-55.5 -70t-43.5 -106.5zM555 1163l305 264h273l-355 -264h-223z" />
<glyph unicode="&#xea;" horiz-adv-x="1130" d="M92 259.5q-14 107.5 21 266.5q33 156 88 261.5t132 169t172 90t210 26.5q123 0 207 -25.5t124.5 -94t39.5 -188.5t-48 -310h-673q-16 -84 -11.5 -136.5t32.5 -82t76 -40t116 -10.5q27 0 65.5 3.5t79.5 9.5t82 13t74 17l-2 -200q-41 -12 -90.5 -23.5t-99.5 -18.5 t-98 -11.5t-87 -4.5q-113 0 -201 27t-141.5 90.5t-67.5 171zM371 1163l307 264h250l200 -264h-239l-113 156l-174 -156h-231zM408 649h438q12 70 9 113t-22.5 67.5t-55.5 33.5t-91 9q-59 0 -103 -10t-76 -36.5t-55.5 -70t-43.5 -106.5z" />
<glyph unicode="&#xeb;" horiz-adv-x="1130" d="M92 259.5q-14 107.5 21 266.5q33 156 88 261.5t132 169t172 90t210 26.5q123 0 207 -25.5t124.5 -94t39.5 -188.5t-48 -310h-673q-16 -84 -11.5 -136.5t32.5 -82t76 -40t116 -10.5q27 0 65.5 3.5t79.5 9.5t82 13t74 17l-2 -200q-41 -12 -90.5 -23.5t-99.5 -18.5 t-98 -11.5t-87 -4.5q-113 0 -201 27t-141.5 90.5t-67.5 171zM408 649h438q12 70 9 113t-22.5 67.5t-55.5 33.5t-91 9q-59 0 -103 -10t-76 -36.5t-55.5 -70t-43.5 -106.5zM430 1282q8 37 18.5 59.5t27 33.5t40 15.5t57.5 4.5q70 0 93.5 -19.5t7.5 -93.5q-10 -41 -21.5 -65.5 t-29 -39t-42 -18.5t-59.5 -4q-70 0 -90 22.5t-2 104.5zM866 1282q8 37 18.5 59.5t27 33.5t41 15.5t59.5 4.5q68 0 91 -19.5t7 -93.5q-10 -41 -21.5 -65.5t-29 -39t-42 -18.5t-56.5 -4q-72 0 -92.5 22.5t-2.5 104.5z" />
<glyph unicode="&#xec;" horiz-adv-x="536" d="M39 0l221 1042h254l-221 -1042h-254zM119 1427h270l193 -264h-226z" />
<glyph unicode="&#xed;" horiz-adv-x="536" d="M39 0l221 1042h254l-221 -1042h-254zM233 1163l306 264h272l-354 -264h-224z" />
<glyph unicode="&#xee;" horiz-adv-x="536" d="M35 1163l307 264h250l201 -264h-240l-113 156l-174 -156h-231zM39 0l221 1042h254l-221 -1042h-254z" />
<glyph unicode="&#xef;" horiz-adv-x="536" d="M39 0l221 1042h254l-221 -1042h-254zM100 1282q8 37 18.5 59.5t27 33.5t40 15.5t58.5 4.5q70 0 93 -19.5t7 -93.5q-10 -41 -21.5 -65.5t-29 -39t-42 -18.5t-58.5 -4q-70 0 -90.5 22.5t-2.5 104.5zM537 1282q8 37 18 59.5t26.5 33.5t41 15.5t59.5 4.5q68 0 91.5 -19.5 t6.5 -93.5q-10 -41 -21 -65.5t-28.5 -39t-42 -18.5t-57.5 -4q-72 0 -92 22.5t-2 104.5z" />
<glyph unicode="&#xf0;" horiz-adv-x="1282" d="M76 219q-8 92 20 227q25 119 69 202t115.5 133t177 73t257.5 23q14 0 36.5 -1.5t47 -2.5t49 -3t43.5 -4q-31 104 -96 209l-166 -92l-74 133l164 90q-39 57 -82 111.5t-86 109.5h336l37 -45q18 -23 39 -47l141 78l70 -133l-127 -72q96 -160 138 -343t-5 -406 q-31 -145 -76 -239.5t-119 -152t-183.5 -80t-271.5 -22.5q-147 0 -244.5 24.5t-149.5 81t-60 148.5zM365 332q0 -43 22.5 -71t68.5 -41t126 -13q74 0 125 8t87.5 38t61.5 85t45 149q8 39 12.5 76t-0.5 72q-49 8 -105 11t-112 3q-86 0 -141 -9t-90 -32.5t-54.5 -65.5 t-33.5 -108q-12 -59 -12 -102z" />
<glyph unicode="&#xf1;" horiz-adv-x="1193" d="M39 0l209 983q51 18 114.5 34.5t131 29t136 19.5t130.5 7q111 0 185.5 -24.5t114.5 -81t45 -150.5t-26 -235l-123 -582h-254l117 555q18 86 20.5 142.5t-15 89t-58.5 45t-109 12.5q-96 0 -190 -25l-174 -819h-254zM383 1262q59 76 120.5 120.5t139.5 44.5q51 0 86 -17 t62.5 -36.5t54 -37t63.5 -17.5t66 24.5t69 94.5l105 -103q-47 -84 -117.5 -137t-163.5 -53q-47 0 -79.5 17.5t-61.5 37t-57.5 36.5t-65.5 17q-31 0 -61.5 -22.5t-67.5 -81.5z" />
<glyph unicode="&#xf2;" d="M87 259.5q-9 107.5 26 266.5q33 160 87 265.5t128.5 168t174 88t222.5 25.5q125 0 213 -25.5t137 -88t57.5 -168t-24.5 -265.5q-35 -160 -88 -267t-128 -170.5t-175.5 -90.5t-224.5 -27q-125 0 -212 27t-135.5 90.5t-57.5 171zM349 346.5q-3 -67.5 15.5 -105.5 t60.5 -51.5t110 -13.5t116.5 13.5t83.5 51.5t61.5 105.5t49.5 175.5q25 113 28 180.5t-17.5 104.5t-63.5 49t-111 12t-115 -12t-81.5 -49t-60.5 -104.5t-50 -180.5q-23 -108 -26 -175.5zM494 1427h270l192 -264h-225z" />
<glyph unicode="&#xf3;" d="M87 259.5q-9 107.5 26 266.5q33 160 87 265.5t128.5 168t174 88t222.5 25.5q125 0 213 -25.5t137 -88t57.5 -168t-24.5 -265.5q-35 -160 -88 -267t-128 -170.5t-175.5 -90.5t-224.5 -27q-125 0 -212 27t-135.5 90.5t-57.5 171zM349 346.5q-3 -67.5 15.5 -105.5 t60.5 -51.5t110 -13.5t116.5 13.5t83.5 51.5t61.5 105.5t49.5 175.5q25 113 28 180.5t-17.5 104.5t-63.5 49t-111 12t-115 -12t-81.5 -49t-60.5 -104.5t-50 -180.5q-23 -108 -26 -175.5zM549 1163l305 264h272l-354 -264h-223z" />
<glyph unicode="&#xf4;" d="M87 259.5q-9 107.5 26 266.5q33 160 87 265.5t128.5 168t174 88t222.5 25.5q125 0 213 -25.5t137 -88t57.5 -168t-24.5 -265.5q-35 -160 -88 -267t-128 -170.5t-175.5 -90.5t-224.5 -27q-125 0 -212 27t-135.5 90.5t-57.5 171zM349 346.5q-3 -67.5 15.5 -105.5 t60.5 -51.5t110 -13.5t116.5 13.5t83.5 51.5t61.5 105.5t49.5 175.5q25 113 28 180.5t-17.5 104.5t-63.5 49t-111 12t-115 -12t-81.5 -49t-60.5 -104.5t-50 -180.5q-23 -108 -26 -175.5zM362 1163l308 264h250l200 -264h-239l-113 156l-174 -156h-232z" />
<glyph unicode="&#xf5;" d="M87 259.5q-9 107.5 26 266.5q33 160 87 265.5t128.5 168t174 88t222.5 25.5q125 0 213 -25.5t137 -88t57.5 -168t-24.5 -265.5q-35 -160 -88 -267t-128 -170.5t-175.5 -90.5t-224.5 -27q-125 0 -212 27t-135.5 90.5t-57.5 171zM349 346.5q-3 -67.5 15.5 -105.5 t60.5 -51.5t110 -13.5t116.5 13.5t83.5 51.5t61.5 105.5t49.5 175.5q25 113 28 180.5t-17.5 104.5t-63.5 49t-111 12t-115 -12t-81.5 -49t-60.5 -104.5t-50 -180.5q-23 -108 -26 -175.5zM387 1262q59 76 120.5 120.5t139.5 44.5q51 0 86 -17t62.5 -36.5t54.5 -37t63 -17.5 q37 0 66 24.5t70 94.5l104 -103q-47 -84 -117.5 -137t-163.5 -53q-47 0 -79.5 17.5t-61.5 37t-57.5 36.5t-65.5 17q-31 0 -61.5 -22.5t-67.5 -81.5z" />
<glyph unicode="&#xf6;" d="M87 259.5q-9 107.5 26 266.5q33 160 87 265.5t128.5 168t174 88t222.5 25.5q125 0 213 -25.5t137 -88t57.5 -168t-24.5 -265.5q-35 -160 -88 -267t-128 -170.5t-175.5 -90.5t-224.5 -27q-125 0 -212 27t-135.5 90.5t-57.5 171zM349 346.5q-3 -67.5 15.5 -105.5 t60.5 -51.5t110 -13.5t116.5 13.5t83.5 51.5t61.5 105.5t49.5 175.5q25 113 28 180.5t-17.5 104.5t-63.5 49t-111 12t-115 -12t-81.5 -49t-60.5 -104.5t-50 -180.5q-23 -108 -26 -175.5zM430 1282q8 37 18.5 59.5t27 33.5t40 15.5t57.5 4.5q70 0 93.5 -19.5t7.5 -93.5 q-10 -41 -21.5 -65.5t-29 -39t-42 -18.5t-59.5 -4q-70 0 -90 22.5t-2 104.5zM866 1282q8 37 18.5 59.5t27 33.5t41 15.5t59.5 4.5q68 0 91 -19.5t7 -93.5q-10 -41 -21.5 -65.5t-29 -39t-42 -18.5t-56.5 -4q-72 0 -92.5 22.5t-2.5 104.5z" />
<glyph unicode="&#xf7;" horiz-adv-x="1191" d="M127 621l51 241h996l-52 -241h-995zM388 231.5q-1 30.5 9 81.5q10 47 24.5 76t36 44.5t52.5 20.5t76 5q47 0 77.5 -5t46 -20.5t17.5 -44.5t-8 -76q-10 -51 -24.5 -81.5t-37 -48t-55.5 -22.5t-80 -5q-45 0 -73.5 5t-44 22.5t-16.5 48zM572 1095.5q-1 30.5 10 82.5 q10 47 24.5 74.5t36 43t52 20.5t75.5 5q47 0 78 -5t46 -20.5t17 -43t-8 -74.5q-10 -51 -25.5 -82t-38 -48.5t-55 -22.5t-79.5 -5q-45 0 -74 5t-43.5 22.5t-15.5 48z" />
<glyph unicode="&#xf8;" d="M-70 0l174 162q-43 127 9 364q33 160 87 265.5t128.5 168t174 88t222.5 25.5q96 0 169 -14.5t122 -48.5l39 32h237l-176 -161q20 -63 18.5 -149.5t-26.5 -205.5q-35 -160 -88 -267t-128 -170.5t-175.5 -90.5t-224.5 -27q-188 0 -289 64l-37 -35h-236zM362 395l465 439 q-23 18 -59.5 25t-87.5 7q-63 0 -109.5 -10t-80 -42t-59 -90t-46.5 -153q-10 -53 -16.5 -96t-6.5 -80zM393 209q23 -18 57.5 -24.5t84.5 -6.5q70 0 118.5 16.5t83.5 54.5t57.5 98.5t41.5 146.5q8 41 13 77.5t7 71.5z" />
<glyph unicode="&#xf9;" horiz-adv-x="1193" d="M103.5 225q-5.5 94 25.5 236l125 581h254l-119 -555q-18 -86 -20 -142t15 -89t57 -45t108 -12q100 0 194 26l175 817h253l-208 -983q-53 -18 -117 -34.5t-131.5 -28.5t-136 -19.5t-129.5 -7.5q-111 0 -186 24.5t-114.5 81t-45 150.5zM479 1427h271l192 -264h-225z" />
<glyph unicode="&#xfa;" horiz-adv-x="1193" d="M103.5 225q-5.5 94 25.5 236l125 581h254l-119 -555q-18 -86 -20 -142t15 -89t57 -45t108 -12q100 0 194 26l175 817h253l-208 -983q-53 -18 -117 -34.5t-131.5 -28.5t-136 -19.5t-129.5 -7.5q-111 0 -186 24.5t-114.5 81t-45 150.5zM553 1163l305 264h272l-354 -264 h-223z" />
<glyph unicode="&#xfb;" horiz-adv-x="1193" d="M103.5 225q-5.5 94 25.5 236l125 581h254l-119 -555q-18 -86 -20 -142t15 -89t57 -45t108 -12q100 0 194 26l175 817h253l-208 -983q-53 -18 -117 -34.5t-131.5 -28.5t-136 -19.5t-129.5 -7.5q-111 0 -186 24.5t-114.5 81t-45 150.5zM373 1163l307 264h250l200 -264h-239 l-113 156l-174 -156h-231z" />
<glyph unicode="&#xfc;" horiz-adv-x="1193" d="M103.5 225q-5.5 94 25.5 236l125 581h254l-119 -555q-18 -86 -20 -142t15 -89t57 -45t108 -12q100 0 194 26l175 817h253l-208 -983q-53 -18 -117 -34.5t-131.5 -28.5t-136 -19.5t-129.5 -7.5q-111 0 -186 24.5t-114.5 81t-45 150.5zM432 1282q8 37 18.5 59.5t27 33.5 t40 15.5t57.5 4.5q70 0 93.5 -19.5t7.5 -93.5q-10 -41 -21.5 -65.5t-29 -39t-42 -18.5t-59.5 -4q-70 0 -90 22.5t-2 104.5zM868 1282q8 37 18.5 59.5t27 33.5t41 15.5t59.5 4.5q68 0 91 -19.5t7 -93.5q-10 -41 -21.5 -65.5t-29 -39t-42 -18.5t-56.5 -4q-72 0 -92.5 22.5 t-2.5 104.5z" />
<glyph unicode="&#xfd;" horiz-adv-x="1046" d="M12 -393q57 74 121 165t121 177q-8 139 -21.5 283.5t-31 285.5t-39 274.5t-43.5 249.5h264q33 -174 55.5 -380.5t34.5 -409.5q117 197 225.5 396.5t200.5 393.5h258q-135 -268 -295 -542.5t-332 -542.5q-55 -88 -117.5 -180t-117.5 -170h-283zM510 1163l305 264h272 l-354 -264h-223z" />
<glyph unicode="&#xfe;" d="M-45 -393l391 1845h254l-84 -399q53 10 106.5 15t100.5 5q129 0 218 -26.5t136 -89t54.5 -169t-25.5 -266.5q-35 -160 -88 -265t-126 -168.5t-162 -90.5t-193 -27q-90 0 -144.5 18.5t-93.5 41.5l-90 -424h-254zM352 287q-10 -47 45.5 -74t139.5 -27q68 0 115.5 15.5 t83.5 53.5t61.5 101.5t46.5 159.5q23 106 24.5 173t-19 103.5t-63.5 49t-110 12.5q-53 0 -109.5 -7t-99.5 -24z" />
<glyph unicode="&#xff;" horiz-adv-x="1046" d="M12 -393q57 74 121 165t121 177q-8 139 -21.5 283.5t-31 285.5t-39 274.5t-43.5 249.5h264q33 -174 55.5 -380.5t34.5 -409.5q117 197 225.5 396.5t200.5 393.5h258q-135 -268 -295 -542.5t-332 -542.5q-55 -88 -117.5 -180t-117.5 -170h-283zM360 1282q8 37 18.5 59.5 t27 33.5t40 15.5t58.5 4.5q70 0 93.5 -19.5t6.5 -93.5q-10 -41 -21.5 -65.5t-28.5 -39t-42 -18.5t-59 -4q-70 0 -90.5 22.5t-2.5 104.5zM797 1282q8 37 18 59.5t26.5 33.5t41 15.5t59.5 4.5q68 0 91.5 -19.5t6.5 -93.5q-10 -41 -21 -65.5t-28.5 -39t-42 -18.5t-57.5 -4 q-72 0 -92 22.5t-2 104.5z" />
<glyph unicode="&#x152;" horiz-adv-x="2248" d="M124 360.5q-11 145.5 36 366.5q45 217 117.5 359.5t176 225.5t237.5 116.5t304 33.5q86 0 160 -8t135 -27h1106l-51 -233h-825q53 -111 22 -330h422l-49 -229h-422q-33 -141 -79 -238.5t-107 -163.5h835l-49 -233h-1135q-63 -16 -131.5 -22.5t-146.5 -6.5q-170 0 -291 35 t-187.5 122t-77.5 232.5zM410 461.5q-4 -99.5 27.5 -154.5t104 -73.5t189.5 -18.5t197 18.5t136 73.5t94 154.5t73 261.5q33 162 37 260t-29 150.5t-105.5 69t-189.5 16.5t-196.5 -16.5t-135 -69t-93.5 -150.5t-70 -260q-35 -162 -39 -261.5z" />
<glyph unicode="&#x153;" horiz-adv-x="1857" d="M87 259.5q-9 107.5 26 266.5q33 160 87 265.5t128.5 168t174 88t222.5 25.5q131 0 214 -29.5t124 -103.5q70 70 162 101.5t215 31.5t207 -25.5t126 -94t39.5 -188.5t-49.5 -310h-673q-16 -84 -10.5 -136.5t32.5 -82t75 -40t116 -10.5q29 0 67.5 3.5t79.5 9.5t82 13t72 17 v-200q-86 -27 -190.5 -42.5t-186.5 -15.5q-125 0 -210 32t-126 110q-72 -78 -168 -110t-231 -32q-125 0 -212 27t-135.5 90.5t-57.5 171zM349 346.5q-3 -67.5 15.5 -105.5t60.5 -51.5t110 -13.5t116.5 13.5t83.5 51.5t61.5 105.5t49.5 175.5q25 113 28 180.5t-17.5 104.5 t-63.5 49t-111 12t-115 -12t-81.5 -49t-60.5 -104.5t-50 -180.5q-23 -108 -26 -175.5zM1133 649h438q12 70 9 113t-21.5 67.5t-54.5 33.5t-91 9q-57 0 -100 -10t-77 -34.5t-58.5 -67.5t-44.5 -111z" />
<glyph unicode="&#x178;" horiz-adv-x="1306" d="M123 1427h352q66 -115 138.5 -255t142.5 -289q139 145 266 285.5t227 258.5h328q-164 -186 -357.5 -396t-392.5 -415l-129 -616h-270l129 614q-53 109 -110.5 220.5t-112.5 217t-109.5 201.5t-101.5 174zM578 1655q16 74 46.5 94t100.5 20t91.5 -20t4.5 -94 q-8 -41 -19 -64.5t-28.5 -38t-41 -18.5t-58.5 -4q-70 0 -91 22.5t-5 102.5zM1014 1655q8 37 18 59.5t27.5 34.5t42 16t59.5 4q70 0 91.5 -20t4.5 -94q-8 -41 -19 -64.5t-28.5 -38t-41 -18.5t-58.5 -4q-72 0 -92 22.5t-4 102.5z" />
<glyph unicode="&#x2c6;" horiz-adv-x="1351" d="M465 1163l307 264h250l201 -264h-240l-113 156l-174 -156h-231z" />
<glyph unicode="&#x2dc;" horiz-adv-x="1464" d="M455 1262q59 76 120.5 120.5t139.5 44.5q51 0 86 -17t62.5 -36.5t54 -37t63.5 -17.5t65.5 24.5t69.5 94.5l105 -103q-47 -84 -118 -137t-163 -53q-47 0 -80 17.5t-61.5 37t-57 36.5t-65.5 17q-31 0 -61.5 -22.5t-67.5 -81.5z" />
<glyph unicode="&#x2013;" horiz-adv-x="1183" d="M94 455l51 241h983l-51 -241h-983z" />
<glyph unicode="&#x2014;" horiz-adv-x="1771" d="M94 455l51 241h1571l-51 -241h-1571z" />
<glyph unicode="&#x2018;" horiz-adv-x="522" d="M166 1034l338 537h205l-275 -537h-268z" />
<glyph unicode="&#x2019;" horiz-adv-x="522" d="M162 1024l272 537h268l-335 -537h-205z" />
<glyph unicode="&#x201a;" horiz-adv-x="501" d="M-133 -326l270 537h269l-336 -537h-203z" />
<glyph unicode="&#x201c;" horiz-adv-x="921" d="M166 1034l338 537h205l-275 -537h-268zM563 1034l338 537h205l-275 -537h-268z" />
<glyph unicode="&#x201d;" horiz-adv-x="921" d="M162 1026l274 537h269l-338 -537h-205zM559 1026l275 537h268l-338 -537h-205z" />
<glyph unicode="&#x201e;" horiz-adv-x="921" d="M-125 -336l270 537h269l-336 -537h-203zM270 -336l273 537h268l-336 -537h-205z" />
<glyph unicode="&#x2022;" d="M117 402.5q-8 107.5 26 267.5q33 160 87.5 265t129 167.5t174 88.5t222.5 26q125 0 213 -26t137 -88.5t57 -168t-24 -264.5q-35 -160 -88.5 -267.5t-129 -171t-176 -90t-225.5 -26.5t-212 26.5t-135 90t-56 171z" />
<glyph unicode="&#x2026;" horiz-adv-x="2336" d="M208 67.5q-1 30.5 9 82.5q10 47 24.5 74.5t36 43t52 20.5t76.5 5q47 0 77.5 -5t46 -20.5t17.5 -43t-8 -74.5q-10 -51 -25.5 -82t-38 -48.5t-55.5 -23.5t-80 -6q-45 0 -73.5 6t-43 23.5t-15.5 48zM925 67.5q-1 30.5 9 82.5q10 47 24.5 74.5t36 43t53 20.5t76.5 5t76 -5 t46.5 -20.5t17.5 -43t-9 -74.5q-10 -51 -25.5 -82t-38 -48.5t-55 -23.5t-77.5 -6t-74 6t-44 23.5t-16 48zM1646 67.5q-1 30.5 9 82.5q10 47 24.5 74.5t36 43t53 20.5t74.5 5q47 0 78 -5t46 -20.5t17.5 -43t-8.5 -74.5q-10 -51 -25.5 -82t-38 -48.5t-55 -23.5t-79.5 -6 q-43 0 -72 6t-44 23.5t-16 48z" />
<glyph unicode="&#x2039;" horiz-adv-x="808" d="M88 639l674 571l115 -149l-451 -418l270 -426l-176 -154z" />
<glyph unicode="&#x203a;" horiz-adv-x="808" d="M-2 215l451 418l-271 428l174 151l436 -573l-675 -573z" />
<glyph unicode="&#x20ac;" horiz-adv-x="1212" d="M124 363.5q-11 144.5 36 363.5t117.5 361.5t172 225.5t233.5 115.5t302 32.5q49 0 103.5 -4t106.5 -11t101.5 -16.5t87.5 -21.5l-110 -238q-25 10 -60.5 18.5t-75.5 14.5t-80 9.5t-77 3.5q-86 0 -153.5 -8.5t-121 -33t-96.5 -68.5t-75 -116h489l-37 -174h-518 q-4 -16 -10 -46t-10 -46q-4 -18 -10.5 -47t-8.5 -45h518l-37 -174h-489q2 -76 23.5 -123t64.5 -72.5t107.5 -35t150.5 -9.5q37 0 79 3t84 9.5t81 14.5t69 18l9 -241q-43 -12 -96.5 -21.5t-109 -15.5t-110.5 -10.5t-104 -4.5q-170 0 -288 36t-182.5 124t-75.5 232.5z" />
<glyph unicode="&#x2122;" horiz-adv-x="1687" d="M180 1268l35 159h647l-35 -159h-231l-123 -576h-182l123 576h-234zM782 692l158 735h240l80 -497l286 497h230l-158 -735h-172l108 512l-280 -483h-141l-70 483l-109 -512h-172z" />
<glyph unicode="&#xe000;" horiz-adv-x="1040" d="M0 1040h1040v-1040h-1040v1040z" />
<glyph unicode="&#xfb01;" horiz-adv-x="1216" d="M82 0l174 821h-174l47 221h174l12 62q25 115 76 188.5t125 115.5t167 58.5t202 16.5q104 0 201.5 -17.5t173.5 -46.5l-103 -198q-51 18 -125 31.5t-160 13.5q-61 0 -112 -7.5t-90 -26t-64.5 -53t-38.5 -89.5l-10 -48h637l-221 -1042h-254l174 821h-383l-174 -821h-254z " />
<glyph unicode="&#xfb02;" horiz-adv-x="1226" d="M82 0l174 821h-174l47 221h174l12 62q25 117 75 190.5t121 115.5t159 57.5t190 15.5q111 0 211 -15.5t203 -48.5l-240 -1126q-16 -72 -12 -131.5t39 -114.5q-61 -23 -121.5 -47.5t-122.5 -46.5q-41 59 -52 137t13 193l205 960q-86 23 -172 23q-94 0 -157.5 -34 t-86.5 -142l-10 -48h277l-48 -221h-276l-174 -821h-254z" />
<glyph unicode="&#xfb03;" horiz-adv-x="1853" d="M82 0l174 821h-174l47 221h174l12 62q25 117 74 190.5t115.5 115.5t145.5 57.5t163 15.5q90 0 181 -19.5t169 -50.5q76 41 165 55.5t194 14.5q104 0 201.5 -17.5t172.5 -46.5l-102 -198q-51 18 -125 31.5t-160 13.5q-61 0 -112 -7.5t-90 -26t-64.5 -53t-38.5 -89.5 l-10 -48h637l-221 -1042h-254l174 821h-383l-174 -821h-254l174 821h-383l-174 -821h-254zM557 1042h383l12 62q14 76 49 131q-45 16 -94 23.5t-96 7.5q-100 0 -161.5 -35t-82.5 -141z" />
<glyph unicode="&#xfb04;" horiz-adv-x="1865" d="M82 0l174 821h-174l47 221h174l12 62q25 117 74 190.5t115.5 115.5t145.5 57.5t163 15.5q90 0 181 -17.5t165 -50.5q72 39 156 53.5t182 14.5q111 0 211 -15.5t203 -48.5l-240 -1126q-16 -72 -12 -131.5t39 -114.5q-61 -23 -121.5 -47.5t-122.5 -46.5q-41 59 -52 137 t13 193l205 960q-86 23 -172 23q-92 0 -157.5 -35t-86.5 -141l-10 -48h276l-47 -221h-276l-174 -821h-254l174 821h-383l-174 -821h-254zM557 1042h383l12 62q10 41 21.5 72.5t27.5 58.5q-45 14 -93 22.5t-97 8.5q-57 0 -98 -9.5t-71 -33t-49.5 -61.5t-31.5 -93z" />
</font>
</defs>
</svg>
