<?xml version="1.0" standalone="no"?>
<!DOCTYPE svg PUBLIC "-//W3C//DTD SVG 1.1//EN" "http://www.w3.org/Graphics/SVG/1.1/DTD/svg11.dtd" >
<svg xmlns="http://www.w3.org/2000/svg">
<metadata></metadata>
<defs>
<font id="avgregular" horiz-adv-x="1136" >
<font-face units-per-em="2048" ascent="1638" descent="-410" />
<missing-glyph horiz-adv-x="567" />
<glyph horiz-adv-x="2048" />
<glyph horiz-adv-x="2048" />
<glyph unicode="&#xd;" horiz-adv-x="567" />
<glyph unicode=" "  horiz-adv-x="567" />
<glyph unicode="&#x09;" horiz-adv-x="567" />
<glyph unicode="&#xa0;" horiz-adv-x="567" />
<glyph unicode="!" horiz-adv-x="530" d="M236 0v166h61v-166h-61zM236 340v1176h61v-1176h-61z" />
<glyph unicode="&#x22;" horiz-adv-x="681" d="M193 909v607h61v-607h-61zM428 909v607h61v-607h-61z" />
<glyph unicode="#" d="M37 555l6 47h309l39 281h-309l8 47h309l64 452h49l-63 -452h292l64 452h49l-63 -452h309l-6 -47h-312l-39 -281h312l-6 -47h-310l-69 -492h-49l67 492h-293l-67 -492h-52l70 492h-309zM401 602h293l41 281h-293z" />
<glyph unicode="$" d="M170 465h61q8 -88 42 -149.5t83.5 -101.5t108.5 -58.5t115 -18.5q70 0 129 25.5t103 69.5t69.5 103.5t25.5 127.5q0 90 -31.5 147.5t-85 94t-121 59t-137.5 43.5q-45 12 -97 33.5t-98 60.5t-77 98.5t-31 145.5q0 70 22.5 129t64.5 105t99.5 76t129.5 40v164h61v-164 q86 -10 147.5 -44t100.5 -80t58.5 -101.5t23.5 -106.5h-62q-10 80 -42.5 132.5t-76.5 85t-91.5 46t-83.5 13.5q-53 0 -104.5 -20.5t-92.5 -58.5t-66.5 -93.5t-25.5 -122.5q0 -78 27.5 -128t73.5 -82t106.5 -52.5t126.5 -38.5q39 -12 98 -32.5t113.5 -62.5t93.5 -112t39 -176 q0 -70 -27 -136.5t-74 -119.5t-113.5 -87t-148.5 -40v-195h-61v195q-78 6 -144.5 37.5t-115.5 82t-80 119t-35 148.5z" />
<glyph unicode="%" horiz-adv-x="1472" d="M45 1208q0 72 24.5 133.5t69.5 105.5t106.5 69.5t133.5 25.5t133 -25.5t105.5 -69.5t70 -105.5t25.5 -133.5t-25.5 -133t-70 -106t-105.5 -70t-133 -25t-133.5 25t-106.5 70t-69.5 106t-24.5 133zM102 1208q0 -61 20.5 -113.5t56.5 -89t87 -58t113 -21.5q61 0 112.5 21.5 t87 58t56 89t20.5 113.5t-20.5 113.5t-56 89.5t-87 58.5t-112.5 21.5t-112.5 -21.5t-87.5 -58.5t-56.5 -89t-20.5 -114zM233 0l936 1516h66l-936 -1516h-66zM760 307q0 72 24.5 133.5t69.5 105.5t106.5 69.5t133.5 25.5t133 -25.5t105 -69.5t69.5 -105.5t25.5 -133.5 t-25.5 -133t-69.5 -106t-105.5 -70t-132.5 -25q-72 0 -133.5 25t-106.5 70t-69.5 106t-24.5 133zM817 307q0 -61 20.5 -113.5t56.5 -89t87 -58t113 -21.5q61 0 112 21.5t87 58t56.5 89t20.5 113.5t-20.5 113.5t-56.5 89.5t-87 58.5t-112 21.5t-112.5 -21.5t-87.5 -58.5 t-56.5 -89t-20.5 -114z" />
<glyph unicode="&#x26;" horiz-adv-x="1476" d="M113 397q0 98 40 175t99 135.5t131 98.5t135 64l-78 84q-31 33 -54.5 63t-40.5 60.5t-26.5 65.5t-11.5 78q0 63 23.5 121.5t66.5 102.5t101.5 70.5t128.5 26.5t131 -26.5t107 -71.5t72 -105.5t26 -126.5q0 -78 -29 -133t-77 -95t-110.5 -70.5t-130.5 -61.5l377 -385 l256 489h68l-279 -534l394 -404l-43 -41l-379 388l-49 -97q-27 -49 -59 -101t-78 -95t-113.5 -71t-163.5 -28q-102 0 -182 37t-136.5 96.5t-86 136t-29.5 154.5zM174 395q0 -70 26.5 -135t75 -116.5t118 -82t159.5 -30.5q57 0 105.5 12t91.5 43t81.5 82t75.5 127l56 115 l-404 417q-119 -53 -193.5 -106t-116.5 -107.5t-58.5 -109.5t-16.5 -109zM369 1229q0 -76 33.5 -130.5t70.5 -92.5l102 -109q84 37 145.5 67.5t101.5 65.5t59.5 79t19.5 105q0 51 -19.5 99.5t-55 86.5t-86 60.5t-111.5 24.5q-63 -2 -112.5 -26.5t-82.5 -61.5t-49 -81 t-16 -87z" />
<glyph unicode="'" horiz-adv-x="454" d="M197 909v607h61v-607h-61z" />
<glyph unicode="(" horiz-adv-x="870" d="M211 494q0 162 44 317.5t122 292.5t187.5 248.5t240.5 189.5v-72q-109 -68 -205 -169t-168 -227t-114 -273.5t-42 -306.5q0 -160 42 -308.5t114 -274.5t168 -227.5t205 -168.5v-76q-61 41 -134 94t-151 143q-141 164 -225 374t-84 444z" />
<glyph unicode=")" horiz-adv-x="870" d="M66 -492q109 68 205 170.5t167.5 228.5t113.5 273.5t42 306.5q0 160 -42 307.5t-113.5 274.5t-168 228.5t-204.5 168.5v76q61 -41 133.5 -94t150.5 -143q143 -166 226 -375t83 -443q0 -164 -44 -319.5t-121.5 -291.5t-187 -248.5t-240.5 -188.5v69z" />
<glyph unicode="*" horiz-adv-x="1173" d="M309 1087l219 127l-219 123l31 54l217 -127v252h59v-252l218 127l28 -52l-215 -125l219 -129l-28 -49l-222 125v-252h-59v254l-217 -127z" />
<glyph unicode="+" horiz-adv-x="1228" d="M102 483v58h484v485h57v-485h483v-58h-483v-483h-57v483h-484z" />
<glyph unicode="," horiz-adv-x="567" d="M125 -147l129 315h65l-129 -315h-65z" />
<glyph unicode="-" horiz-adv-x="544" d="M0 537v59h545v-59h-545z" />
<glyph unicode="." horiz-adv-x="567" d="M254 0v166h61v-166h-61z" />
<glyph unicode="/" horiz-adv-x="1060" d="M137 -205l719 1721h68l-719 -1721h-68z" />
<glyph unicode="0" d="M80 455v587q0 111 27.5 190t72.5 134t99.5 90t107.5 54.5t99 25.5t75 6q100 0 190.5 -34.5t158 -97t106.5 -152t39 -197.5v-606q0 -96 -27 -170t-70 -127.5t-96 -89t-106.5 -57t-102.5 -30t-82 -8.5q-66 0 -150.5 23.5t-160.5 79t-128 147.5t-52 232zM141 455 q0 -102 36 -182t95.5 -134.5t136 -82t158.5 -27.5q55 0 129 20.5t140.5 69.5t111.5 131t45 205v606q0 76 -25.5 151.5t-78.5 137t-134 99.5t-194 38q-82 0 -157.5 -27.5t-134 -83t-93.5 -137.5t-35 -190v-594z" />
<glyph unicode="1" d="M227 1460v56h398v-1516h-62v1460h-336z" />
<glyph unicode="2" d="M117 0v55l651 666q98 100 148.5 185t54.5 181q0 88 -29 162t-81 126t-122.5 82t-152.5 30q-74 0 -142.5 -26.5t-121 -81t-85 -135.5t-34.5 -191h-62q2 131 44 223t106.5 151.5t144.5 87t158 27.5q94 0 175 -34.5t140.5 -97t92 -147.5t30.5 -186q-4 -57 -21.5 -106 t-46 -97.5t-67.5 -96.5t-88 -101l-610 -621h833v-55h-915z" />
<glyph unicode="3" d="M80 440h61q2 -109 41 -185.5t97.5 -127.5t129 -74.5t138.5 -23.5q92 0 165.5 31.5t126 87t80 129t27.5 155.5q0 63 -23.5 135t-75.5 132.5t-134 100.5t-199 40h-82v55h80q115 0 181.5 38t100 88t43 99t9.5 72q0 63 -21.5 117.5t-59.5 94.5t-90 61.5t-116 21.5 q-68 0 -122 -23.5t-92 -62.5t-60.5 -92.5t-26.5 -110.5h-61q6 86 38.5 150.5t83 107.5t112 64.5t122.5 21.5q68 0 131.5 -22.5t113.5 -66.5t79.5 -110.5t29.5 -152.5q0 -43 -12 -91t-38 -92t-66.5 -80t-96.5 -55v-4q96 -35 157.5 -89t96.5 -113.5t47.5 -119t12.5 -102.5 q0 -106 -35 -193t-96.5 -148.5t-147.5 -95.5t-188 -34q-86 0 -168 32t-146.5 91.5t-105.5 146.5t-41 197z" />
<glyph unicode="4" d="M35 295v53l770 1168h84v-1166h153v-55h-153v-295h-62v295h-792zM106 350h721v1092h-4z" />
<glyph unicode="5" d="M43 444h61q12 -102 55.5 -179t106 -130t136 -79.5t147.5 -26.5q88 0 169 35.5t142.5 98t97 146.5t35.5 178q0 98 -36.5 183.5t-98 148t-141.5 98t-168 35.5q-25 0 -62.5 -4t-84 -22.5t-98.5 -53t-101 -96.5l-53 15l139 725h680v-56h-631l-111 -571q20 16 51 36.5t71 39 t90 31t114 12.5q111 0 203 -43t158.5 -114t103.5 -164t37 -193q0 -111 -42 -206t-112 -165t-162 -110t-192 -40q-74 0 -157 28t-155.5 85t-126 146.5t-65.5 211.5z" />
<glyph unicode="6" d="M68 469q0 131 41 221t88 158l458 668h70l-406 -590l5 -2q41 29 105.5 53t143.5 24q98 0 188.5 -36.5t158 -104t107.5 -162t40 -206.5q0 -102 -37 -196.5t-103.5 -166.5t-158.5 -114t-201 -42q-131 0 -225 47.5t-155.5 121t-90 160.5t-28.5 167zM129 473q0 -88 29.5 -168 t86 -141.5t137.5 -98t183 -36.5q98 0 179 36.5t139.5 99t90.5 145.5t32 175q0 117 -40 204t-102.5 143.5t-138.5 85t-150 28.5q-66 0 -143.5 -25.5t-145 -82t-112.5 -146.5t-45 -219z" />
<glyph unicode="7" d="M178 1460v56h805v-56l-676 -1460h-63l674 1460h-740z" />
<glyph unicode="8" d="M106 428q4 154 91.5 269.5t226.5 160.5q-98 41 -159.5 131.5t-61.5 196.5q0 72 28.5 136t77.5 113.5t116 78t142 28.5q76 0 142.5 -27.5t115.5 -75.5t78 -113.5t29 -139.5q0 -106 -61.5 -196.5t-159.5 -131.5q68 -23 126 -63.5t100 -96t65.5 -125t25.5 -145.5 q-2 -96 -39 -179t-98.5 -144.5t-145 -96.5t-178.5 -35q-96 0 -179 35t-144.5 96.5t-98 144.5t-39.5 179zM168 428q0 -84 30.5 -156.5t85 -127t127 -85t156.5 -30.5t157 30.5t127 85t85 127t31 156.5t-31 156.5t-85 127t-127 85t-157 30.5t-156.5 -30.5t-127 -85t-85 -127 t-30.5 -156.5zM264 1184q0 -63 23.5 -117.5t64.5 -95.5t96.5 -64.5t118.5 -23.5t118.5 23.5t96.5 64.5t64.5 95t23.5 118q0 63 -23.5 118.5t-64.5 96.5t-96 64.5t-119 23.5q-63 0 -118.5 -23.5t-96.5 -64.5t-64.5 -96.5t-23.5 -118.5z" />
<glyph unicode="9" d="M70 1024q0 102 36.5 196.5t103 166t159 113.5t200.5 42q131 0 225.5 -47t156 -121t90 -161t28.5 -166q0 -66 -11 -121.5t-29.5 -101.5t-42 -85t-46.5 -71l-459 -668h-69l405 590l-4 2q-41 -29 -106 -53q-33 -10 -68 -17.5t-76 -7.5q-98 0 -188 37t-157.5 104.5 t-107.5 160.5t-40 208zM131 1030q0 -117 40 -204t102.5 -143t138 -85t149.5 -29q66 0 143.5 26t145.5 82t113 146t45 219q0 88 -30 168t-86 141.5t-137 98.5t-184 37q-98 0 -179 -37t-139 -99.5t-90 -145.5t-32 -175z" />
<glyph unicode=":" horiz-adv-x="567" d="M254 0v166h61v-166h-61zM254 920v165h61v-165h-61z" />
<glyph unicode=";" horiz-adv-x="567" d="M125 -147l129 315h65l-129 -315h-65zM252 920v165h61v-165h-61z" />
<glyph unicode="&#x3c;" horiz-adv-x="1228" d="M102 481v66l1024 481v-63l-956 -451l956 -451v-63z" />
<glyph unicode="=" horiz-adv-x="1228" d="M102 285v57h1024v-57h-1024zM102 682v57h1024v-57h-1024z" />
<glyph unicode="&#x3e;" horiz-adv-x="1228" d="M102 0v63l957 451l-957 451v63l1024 -481v-66z" />
<glyph unicode="?" horiz-adv-x="1097" d="M82 1112q6 123 53 205t112.5 132t140.5 70.5t134 20.5q86 0 164 -30.5t138.5 -88t96 -136.5t35.5 -175q0 -61 -21.5 -114.5t-57 -101.5t-78.5 -92t-86 -85q-59 -57 -90 -110.5t-45.5 -101.5t-16.5 -89t-2 -76h-61q2 49 6 99t21.5 103.5t54 111t104.5 120.5q39 41 77 78 t66.5 76t47 83t20.5 103q0 74 -27.5 139.5t-77 115.5t-118 79t-148.5 29q-59 0 -124.5 -19.5t-121 -62.5t-93.5 -113t-42 -170h-61zM498 0v166h59v-166h-59z" />
<glyph unicode="@" horiz-adv-x="1630" d="M84 748q0 164 60.5 309t166 252.5t250 170t309.5 62.5q125 0 250 -41t225.5 -121t164 -199.5t63.5 -277.5q0 -152 -54.5 -260t-131 -178t-158.5 -102.5t-137 -32.5q-12 0 -40 3t-54.5 18.5t-47 46t-20.5 85.5h-4q-14 -23 -36 -47t-53.5 -46.5t-73.5 -37t-97 -14.5 q-27 0 -65 10t-72.5 39t-59.5 81t-25 136q0 106 36 210t96.5 184.5t139.5 131t163 50.5q61 0 101 -18.5t64.5 -45t36 -56.5t15.5 -50h4l47 137h57l-196 -557q-2 -6 -14.5 -40t-12.5 -65q-2 -37 10.5 -57t30.5 -30.5t37.5 -12.5t34.5 -2q55 0 127.5 33t138 97.5t111 161.5 t45.5 226q0 150 -58.5 260.5t-151 183t-207 108.5t-225.5 36q-147 0 -279 -53.5t-233.5 -151.5t-161 -234.5t-59.5 -301.5q0 -166 59.5 -299.5t159 -226.5t228.5 -144t266 -51q82 0 172 20.5t175 63.5t158 110.5t122 161.5h51q-47 -111 -127 -188.5t-173 -127t-192.5 -72 t-183.5 -22.5q-164 0 -304 60.5t-244.5 165t-164 246t-59.5 303.5zM502 604q0 -66 16.5 -106.5t42 -64t55 -33t54.5 -9.5q76 0 129 31t88 74t55.5 90t30.5 78l57 149q16 49 24.5 73.5t8.5 59.5q-2 51 -21.5 86t-47 56.5t-58.5 29.5t-53 8q-63 0 -131 -41t-123.5 -111.5 t-91 -165.5t-35.5 -204z" />
<glyph unicode="A" horiz-adv-x="1406" d="M14 0l650 1516h79l650 -1516h-66l-227 528h-793l-227 -528h-66zM334 584h739l-371 874z" />
<glyph unicode="B" horiz-adv-x="1105" d="M158 0v1516h321q98 0 159.5 -14.5t106.5 -41.5q51 -29 86 -66.5t55.5 -81.5t29 -89t8.5 -88q0 -16 -3 -56.5t-22.5 -89.5t-62.5 -99t-121 -85v-4q104 -31 164.5 -86.5t91 -115.5t39 -114.5t8.5 -81.5q-2 -141 -65.5 -231t-174.5 -137q-100 -35 -241 -35h-379zM219 55h320 q59 0 114.5 8.5t102.5 24.5q86 37 142 112.5t58 202.5q0 115 -55 200t-149 126q-31 12 -57.5 20.5t-56.5 11.5t-64.5 4t-79.5 1h-275v-711zM219 821h275q68 0 121 8.5t94 30.5q94 53 123.5 128t29.5 155q0 104 -47 175t-106 97q-33 18 -82 30.5t-148 14.5h-260v-639z" />
<glyph unicode="C" horiz-adv-x="1609" d="M84 758q0 170 61.5 314.5t169 248.5t250 162.5t305.5 58.5q121 0 224.5 -32.5t187.5 -85t147.5 -118t104.5 -128.5h-72q-23 31 -69.5 82t-121.5 101t-175.5 88t-225.5 38q-152 0 -283.5 -55.5t-230 -152.5t-155 -230.5t-56.5 -290.5q0 -158 56.5 -291t155 -230.5 t230.5 -152.5t283 -55q133 0 235.5 38.5t176.5 89t119 100.5t61 73h70q-39 -66 -102.5 -129.5t-147.5 -114.5t-188.5 -82t-223.5 -31q-164 0 -306 58.5t-249.5 163t-169 249t-61.5 314.5z" />
<glyph unicode="D" horiz-adv-x="1435" d="M158 0v1516h428q178 0 320.5 -51.5t240.5 -148.5t150.5 -238.5t52.5 -319.5t-52.5 -319.5t-150.5 -239t-240.5 -148.5t-320.5 -51h-428zM219 55h367q164 0 294 47.5t221 137.5t139 220t48 294q0 166 -47 297t-137 222t-221 139t-297 48h-367v-1405z" />
<glyph unicode="E" horiz-adv-x="1120" d="M158 0v1516h831v-56h-770v-669h770v-56h-770v-680h770v-55h-831z" />
<glyph unicode="F" horiz-adv-x="976" d="M158 0v1516h743v-56h-682v-669h682v-56h-682v-735h-61z" />
<glyph unicode="G" horiz-adv-x="1746" d="M84 758q0 170 61.5 314.5t169 248.5t250 162.5t305.5 58.5q104 0 206 -24.5t192 -71.5t164.5 -114.5t126.5 -151.5h-74q-115 150 -271.5 228.5t-343.5 78.5q-152 0 -283.5 -55.5t-230 -152.5t-155 -230.5t-56.5 -290.5q0 -158 56.5 -291t155 -230.5t230.5 -152.5t283 -55 q143 0 268.5 47t221.5 125t159.5 178t84.5 207h-904v55h977q-16 -137 -84.5 -259t-176 -212t-247 -143.5t-299.5 -53.5q-164 0 -306 58.5t-249.5 163t-169 249t-61.5 314.5z" />
<glyph unicode="H" horiz-adv-x="1286" d="M158 0v1516h61v-725h848v725h61v-1516h-61v735h-848v-735h-61z" />
<glyph unicode="I" horiz-adv-x="378" d="M158 0v1516h61v-1516h-61z" />
<glyph unicode="J" horiz-adv-x="927" d="M12 289h68q20 -88 62 -139.5t90.5 -78t92.5 -34.5t68 -8q119 4 190.5 59t94.5 119q20 51 26.5 105.5t6.5 121.5v1082h61v-1082q0 -53 -5 -118.5t-32 -131.5q-16 -35 -40.5 -69.5t-63.5 -63.5q-55 -41 -118.5 -59.5t-123.5 -18.5q-63 0 -124.5 19.5t-113 59.5t-88 99.5 t-51.5 137.5z" />
<glyph unicode="K" horiz-adv-x="1097" d="M186 0v1516h62v-1024h4l772 1024h74l-566 -748l566 -768h-74l-530 719l-246 -324v-395h-62z" />
<glyph unicode="L" horiz-adv-x="866" d="M158 0v1516h61v-1461h641v-55h-702z" />
<glyph unicode="M" horiz-adv-x="1910" d="M158 0v1516h98l700 -1418l699 1418h96v-1516h-61v1454h-2h2h-4l-713 -1454h-35l-715 1454h-4v-1454h-61z" />
<glyph unicode="N" horiz-adv-x="1511" d="M158 0v1516h92l1038 -1434h4v1434h62v-1516h-78l-1053 1454h-4v-1454h-61z" />
<glyph unicode="O" horiz-adv-x="1742" d="M84 758q0 170 61.5 314.5t169 248.5t250 162.5t305.5 58.5q162 0 305.5 -58.5t251 -162.5t169 -248.5t61.5 -314.5t-61.5 -314.5t-169 -249t-251 -163t-305.5 -58.5q-164 0 -306 58.5t-249.5 163t-169 249t-61.5 314.5zM145 758q0 -158 56.5 -291t155 -230.5 t230.5 -152.5t283 -55q150 0 282 55t230.5 152.5t155.5 230.5t57 291t-57 291t-155.5 230t-230.5 152.5t-282 55.5q-152 0 -283.5 -55.5t-230 -152.5t-155 -230t-56.5 -291z" />
<glyph unicode="P" horiz-adv-x="1046" d="M137 0v1516h352q68 0 121.5 -4.5t98.5 -13.5t83.5 -27.5t75.5 -45.5q68 -49 111 -142t43 -198q0 -104 -43 -197t-111 -143q-37 -29 -76.5 -46t-84.5 -26t-98.5 -13.5t-119.5 -4.5h-290v-655h-62zM199 711h293q63 0 113 4t90 14t74 25.5t67 40.5q55 41 90 121.5t35 166.5 q0 90 -35 171t-90 122q-33 25 -67 40.5t-74 25.5t-90 14t-113 4h-293v-749z" />
<glyph unicode="Q" horiz-adv-x="1806" d="M115 758q0 170 61.5 314.5t169 248.5t249.5 162.5t306 58.5q162 0 305.5 -58.5t251 -162.5t169 -248.5t61.5 -314.5q0 -125 -29 -221.5t-71 -169t-87 -122.5t-76 -81q43 -25 84 -44.5t85 -34.5t97.5 -27.5t120.5 -20.5v-64q-90 12 -152.5 26.5t-109.5 33t-88 41t-88 51.5 q-29 -20 -73 -46t-103 -49.5t-132 -40t-159 -16.5q-182 0 -328.5 64.5t-249 172t-158.5 250t-56 298.5zM176 758q0 -96 14.5 -156.5t28.5 -97.5q61 20 145.5 40.5t206.5 20.5q125 0 239 -28.5t212 -81.5q25 -12 46.5 -25.5t57 -40.5t94 -71t156.5 -117q125 109 187.5 252 t62.5 305q0 158 -57.5 291t-155.5 230t-230 152.5t-282 55.5q-152 0 -284 -55.5t-230 -152.5t-154.5 -230.5t-56.5 -290.5zM244 444q68 -139 160 -222t185 -126t179 -55t141 -12q70 0 133.5 12t116.5 32.5t96 44t72 46.5q-14 10 -55 41t-84 62.5t-77 58.5l-34 26 q-123 80 -247.5 119t-266.5 39q-111 0 -184.5 -21.5t-134.5 -44.5z" />
<glyph unicode="R" horiz-adv-x="1134" d="M137 0v1516h346q88 0 151.5 -4.5t111 -11.5t80 -19.5t61.5 -28.5q45 -23 86 -63.5t69.5 -95t46 -117t17.5 -127.5v-12q0 -67 -20 -142q-22 -82 -76 -153.5t-141 -120t-210 -48.5l-59 -2l408 -571h-78l-445 627h95q53 0 98 3t85 13t78 29.5t74 50.5q72 76 100.5 154.5 t28.5 169.5q0 98 -46 196t-134 156q-35 23 -73.5 35t-85 18t-100.5 7t-122 1h-284v-1460h-62z" />
<glyph unicode="S" horiz-adv-x="1060" d="M92 383h62q14 -109 58 -178.5t99.5 -108.5t114.5 -53t102 -14q72 0 140.5 25.5t122 72.5t86 113.5t32.5 148.5q0 104 -40 171t-99 107t-125.5 61.5t-122.5 35.5q-49 12 -117.5 33.5t-131 62.5t-105.5 109.5t-43 175.5v11q1 86 31 156q32 74 89.5 124.5t133.5 77t158 26.5 q68 0 132 -20.5t117.5 -63.5t91 -109.5t50.5 -158.5h-62q-8 45 -27.5 97t-56.5 96t-97 74t-153 30q-72 0 -135 -23.5t-110 -66.5t-74 -104.5t-27 -135.5q0 -90 34 -148.5t91.5 -97.5t131 -62.5t151.5 -43.5q18 -6 53 -14.5t77 -27t86 -46t80 -70.5t58.5 -104.5t22.5 -143.5 q0 -94 -37 -172t-98.5 -134t-141.5 -87t-164 -31q-68 0 -142.5 23.5t-137 74t-106.5 127t-52 185.5z" />
<glyph unicode="T" horiz-adv-x="907" d="M10 1460v56h885v-56h-412v-1460h-61v1460h-412z" />
<glyph unicode="U" horiz-adv-x="1239" d="M156 532v984h61v-984q0 -55 1 -102t10.5 -90t28.5 -85t54 -87q49 -66 134 -102.5t178 -36.5q86 0 171 36.5t134 102.5q35 45 54 87t28.5 85t10.5 90t1 102v984h61v-984q0 -51 -3 -113.5t-20.5 -125t-54 -121.5t-104.5 -106q-59 -43 -132 -68t-151 -25t-149.5 25 t-130.5 68q-68 47 -104.5 106t-54 121.5t-20.5 125t-3 113.5z" />
<glyph unicode="V" horiz-adv-x="1363" d="M14 1516h70l598 -1414l600 1414h68l-648 -1516h-43z" />
<glyph unicode="W" horiz-adv-x="1818" d="M25 1516h65l406 -1432h4l387 1432h43l391 -1432h4l406 1432h63l-434 -1516h-80l-371 1354h-4l-366 -1354h-82z" />
<glyph unicode="X" d="M16 0l516 770l-497 746h74l456 -689l461 689h72l-498 -746l520 -770h-71l-484 717l-481 -717h-68z" />
<glyph unicode="Y" horiz-adv-x="1134" d="M31 1516h67l469 -924l467 924h70l-506 -994v-522h-61v522z" />
<glyph unicode="Z" horiz-adv-x="1021" d="M12 1460v56h955l-826 -1461h869v-55h-969l825 1460h-854z" />
<glyph unicode="[" horiz-adv-x="870" d="M365 -31v1045q0 37 5 101.5t36.5 139t101.5 150.5t197 137v-74q-150 -74 -212.5 -190.5t-62.5 -263.5v-1045q0 -39 6 -96t33 -120.5t82 -125t154 -110.5v-74q-180 86 -260 216t-80 310z" />
<glyph unicode="\" horiz-adv-x="1060" d="M137 1516h68l719 -1721h-68z" />
<glyph unicode="]" horiz-adv-x="870" d="M166 -483q150 74 212 189.5t62 262.5v1045q0 39 -6 97t-32.5 121.5t-82 125t-153.5 110.5v74q180 -88 260 -218t80 -310v-1045q0 -37 -5 -101.5t-37 -138t-101.5 -149.5t-196.5 -137v74z" />
<glyph unicode="^" horiz-adv-x="1228" d="M229 768l353 748h65l352 -748h-65l-320 680l-319 -680h-66z" />
<glyph unicode="_" horiz-adv-x="1024" d="M0 -154h1024v-102h-1024v102z" />
<glyph unicode="`" d="M295 1522l29 47l485 -283l-27 -47z" />
<glyph unicode="a" horiz-adv-x="1380" d="M84 543q0 113 40 215t114.5 181t180 126t236.5 47q98 0 182.5 -27.5t149 -70.5t108.5 -97.5t64 -107.5h4v276h58v-1085h-58v270h-4q-72 -139 -201 -218t-303 -79q-133 0 -239.5 48.5t-180 127t-112.5 181t-39 213.5zM141 543q0 -92 33 -184.5t97.5 -166t162 -119.5 t228.5 -46q113 0 206 41t160.5 111.5t104 164.5t36.5 199q0 111 -39.5 206t-108.5 163.5t-163 107.5t-203 39q-106 0 -199.5 -38t-163 -105.5t-110.5 -163t-41 -209.5z" />
<glyph unicode="b" horiz-adv-x="1380" d="M160 0v1516h57v-707h4q29 59 74 113.5t108.5 95.5t143.5 66.5t178 27.5q131 0 236.5 -47t180.5 -126t114.5 -181.5t39.5 -214.5q0 -111 -38.5 -213.5t-112.5 -181t-180.5 -127t-239.5 -48.5q-174 0 -303 79t-201 218h-4v-270h-57zM211 543q0 -104 37 -198.5t104.5 -165 t160.5 -111.5t206 -41q131 0 228 46t162 119.5t97.5 166t32.5 184.5q0 115 -41 210t-110.5 162.5t-163 105.5t-199.5 38q-109 0 -203 -39t-163.5 -107.5t-108.5 -164t-39 -205.5z" />
<glyph unicode="c" horiz-adv-x="1267" d="M84 541q0 121 43 225t119 181t181 121t228 44q82 0 165 -23.5t156 -70.5t130 -118t90 -167h-63q-31 90 -86.5 152.5t-122 101.5t-136 55.5t-131.5 16.5q-115 -2 -198.5 -36t-167.5 -110q-66 -59 -108 -159.5t-42 -210.5q0 -115 41 -210t112 -163t164 -105.5t197 -37.5 q92 0 170 26.5t139.5 70.5t103.5 100.5t62 117.5h64q-29 -84 -80 -150.5t-120.5 -114.5t-155.5 -75t-183 -29q-119 0 -222 41t-181 116t-123 180.5t-45 232.5v-2z" />
<glyph unicode="d" horiz-adv-x="1386" d="M84 543q0 113 40 215t114.5 181t180 126t236.5 47q98 0 182.5 -27.5t149 -70.5t108.5 -97.5t64 -107.5h4v707h58v-1516h-58v270h-4q-72 -139 -201 -218t-303 -79q-133 0 -239.5 48.5t-180 127t-112.5 181t-39 213.5zM141 543q0 -92 33 -184.5t97.5 -166t162 -119.5 t228.5 -46q113 0 206 41t160.5 111.5t104 164.5t36.5 199q0 111 -39.5 206t-108.5 163.5t-163 107.5t-203 39q-106 0 -199.5 -38t-163 -105.5t-110.5 -163t-41 -209.5z" />
<glyph unicode="e" horiz-adv-x="1267" d="M63 541q0 123 44.5 227t121 181t182 120t226.5 43q109 0 209 -38t179 -108.5t127 -172t54 -226.5l-2 -30h-1081q2 -133 52 -229.5t126 -159t166 -92t170 -29.5q152 0 274.5 73.5t188.5 212.5h63q-37 -86 -94 -150.5t-126 -106.5t-147.5 -62.5t-160.5 -20.5 q-125 0 -229.5 43t-180 120t-119 181.5t-43.5 225.5v-2zM125 590h1022q-4 98 -49 185t-116 151.5t-161 100.5q-81 32 -165 32h-19q-100 0 -190.5 -35t-160 -97.5t-112.5 -148.5t-49 -188z" />
<glyph unicode="f" horiz-adv-x="538" d="M14 1032v53h179v107q0 18 2 51t11 70t29.5 75.5t58.5 71.5t95 55.5t143 26.5v-55q-29 -2 -76.5 -9.5t-94 -35t-79.5 -84.5q-32 -55 -32 -149v-11v-113h282v-53h-282v-1032h-57v1032h-179z" />
<glyph unicode="g" horiz-adv-x="1382" d="M82 543q0 113 40 215t114.5 181t182 126t240.5 47q98 0 182.5 -27.5t149 -70.5t108.5 -97.5t64 -107.5h4v276h58v-964q0 -113 -30 -201t-77 -152.5t-106.5 -108.5t-121 -71.5t-118.5 -39t-98 -11.5q-82 0 -162 21.5t-151.5 64.5t-129 105.5t-92.5 142.5h66q20 -33 51 -78 t90 -90q76 -59 161 -86t159 -27q94 0 185 37t160.5 104.5t112.5 164t43 215.5v159h-6q-70 -139 -198.5 -218t-303.5 -79q-135 0 -242.5 48.5t-182 127t-113.5 181t-39 213.5zM139 543q0 -92 33 -184.5t98.5 -166t163.5 -119.5t232 -46q113 0 206 41t160.5 111.5t104.5 165 t37 198.5q0 111 -40 206t-109 163.5t-163 107.5t-203 39t-203 -38t-164.5 -105.5t-111.5 -163t-41 -209.5z" />
<glyph unicode="h" horiz-adv-x="1310" d="M160 0v1516h57v-639h4q25 59 72 104t107 75t126 44q58 13 115 12h16q209 0 340 -108q158 -133 158 -431v-573h-57v573q0 141 -36 234.5t-97 148.5q-63 57 -143.5 80t-164.5 23q-205 -4 -322.5 -117t-117.5 -317v-625h-57z" />
<glyph unicode="i" horiz-adv-x="376" d="M160 0v1085h57v-1085h-57zM160 1329v187h57v-187h-57z" />
<glyph unicode="j" horiz-adv-x="448" d="M-29 -375q76 12 120 44t66.5 81t30 115.5t7.5 146.5v1073h57v-1073q0 -63 -4 -137t-31 -138.5t-84 -112.5t-162 -60v61zM195 1327v189h57v-189h-57z" />
<glyph unicode="k" horiz-adv-x="956" d="M160 0v1516h57v-1219h4l592 788h76l-402 -530l437 -555h-76l-397 510l-234 -311v-199h-57z" />
<glyph unicode="l" horiz-adv-x="374" d="M160 0v1516h57v-1516h-57z" />
<glyph unicode="m" horiz-adv-x="1943" d="M160 0v1085h57v-192h4q37 74 88 118t103.5 66.5t97.5 28.5t72 6q98 0 181 -34t138 -99q23 -25 42.5 -57.5t29.5 -69.5h4q8 23 24.5 56.5t51.5 70.5q57 63 140 98t175 35q98 0 172 -28.5t125 -79.5q68 -66 96.5 -168.5t28.5 -227.5v-608h-57v608q0 113 -25 205t-86 154 q-88 92 -254 92q-72 0 -150.5 -30t-130.5 -95q-27 -35 -43 -65.5t-25 -67.5t-12 -83t-3 -110v-608h-58v608q1 21 1 40q0 40 -3 72q-4 48 -14 85t-25.5 66.5t-36.5 58.5q-94 123 -286 129h-14q-33 1 -65 -7q-38 -10 -73 -25t-63.5 -37.5t-49.5 -49.5q-45 -51 -72.5 -127 t-27.5 -195v-618h-57z" />
<glyph unicode="n" horiz-adv-x="1312" d="M160 0v1085h57v-208h4q25 59 72 104t107 75t126 44q58 13 115 12h16q209 0 340 -108q158 -133 158 -431v-573h-57v573q0 141 -36 234.5t-97 148.5q-63 57 -143.5 80t-164.5 23q-205 -4 -322.5 -117t-117.5 -317v-625h-57z" />
<glyph unicode="o" horiz-adv-x="1312" d="M84 543q0 121 43 225t120 181t181 120t227 43t227.5 -43t181.5 -120t120 -181t43 -225q0 -123 -43 -226.5t-120 -180.5t-181.5 -120t-227.5 -43t-227 43t-181 120t-120 180.5t-43 226.5zM141 543q0 -111 39 -205t108.5 -164t163 -108.5t203.5 -38.5q111 0 204 38.5 t163 108.5t108.5 164t38.5 205t-38.5 205t-108.5 163.5t-163 108.5t-204 39t-204 -39t-162.5 -108.5t-108.5 -163.5t-39 -205z" />
<glyph unicode="p" horiz-adv-x="1386" d="M160 -436v1521h57v-270h4q72 139 201 218t303 79q133 0 239.5 -48t180.5 -127t112.5 -181.5t38.5 -212.5q0 -113 -39.5 -215.5t-114.5 -181t-180.5 -126t-236.5 -47.5q-98 0 -182 28t-148.5 71t-108.5 97t-65 107h-4v-712h-57zM211 543q0 -111 39 -206t108.5 -164 t163.5 -107.5t203 -38.5q106 0 199.5 37.5t163 105.5t110.5 163t41 210q0 92 -32.5 184t-97.5 166t-162 120t-228 46q-113 0 -206 -41t-160.5 -111.5t-104.5 -165t-37 -198.5z" />
<glyph unicode="q" horiz-adv-x="1380" d="M84 543q0 111 39 213t112.5 181t180 127t239.5 48q174 0 303 -79t201 -218h4v270h58v-1521h-58v712h-4q-20 -53 -64 -107t-108.5 -97t-148.5 -71t-183 -28q-131 0 -236.5 47.5t-180 126t-114.5 181t-40 215.5zM141 543q0 -115 41 -210t110.5 -163t163 -105.5t199.5 -37.5 q109 0 203 38.5t163 107.5t108.5 164t39.5 206q0 104 -36.5 198.5t-104 165t-160.5 111.5t-206 41q-131 0 -228.5 -46t-162 -120t-97.5 -166t-33 -184z" />
<glyph unicode="r" horiz-adv-x="618" d="M160 0v1085h57v-196h4q37 76 87 120t103.5 66.5t103.5 28.5t85 8v-55q-49 -2 -106.5 -12.5t-131.5 -63.5q-49 -43 -77.5 -89t-44 -95t-19.5 -101.5t-4 -107.5v-588h-57z" />
<glyph unicode="s" horiz-adv-x="872" d="M98 301h58q0 -131 78.5 -202.5t197.5 -71.5q61 0 109.5 21.5t82.5 57.5t52 84q17 44 16 91v10q-4 113 -66.5 172t-195.5 88q-61 18 -113.5 37.5t-91.5 50.5t-62.5 77t-25.5 115q0 68 23.5 120.5t63.5 88t93.5 54t114.5 18.5q59 0 111.5 -18.5t91.5 -54t61.5 -88 t22.5 -122.5h-57q0 61 -19.5 105.5t-51.5 72t-74 40t-85 12.5q-110 -1 -176 -65q-61 -60 -61 -149v-14q4 -98 63 -144t174 -79q53 -14 108.5 -31.5t99.5 -50t74.5 -87t35.5 -140.5q1 -10 0 -20q0 -57 -20 -106q-24 -58 -66.5 -103t-102 -71t-129.5 -26q-68 0 -130 23.5 t-110 66.5q-46 43 -72 103q-22 52 -23 115q0 10 1 20z" />
<glyph unicode="t" horiz-adv-x="606" d="M14 1032v53h240v431h57v-431h279v-53h-279v-1032h-57v1032h-240z" />
<glyph unicode="u" horiz-adv-x="1312" d="M160 512v573h57v-573q0 -141 36 -234.5t97 -148.5q63 -57 143 -79.5t164 -22.5q205 2 323 116.5t118 325.5v616h57v-1085h-57v219h-4q-25 -63 -71 -110.5t-104.5 -78t-126.5 -44.5q-59 -13 -119 -13h-16q-209 0 -340 109q-158 133 -157 430z" />
<glyph unicode="v" horiz-adv-x="985" d="M8 1085h60l424 -1017l417 1017h66l-447 -1085h-73z" />
<glyph unicode="w" horiz-adv-x="1552" d="M20 1085h64l367 -999h4l301 852h43l301 -852h4l364 999h66l-401 -1085h-66l-291 823h-4l-287 -823h-65z" />
<glyph unicode="x" horiz-adv-x="833" d="M20 0l363 545l-363 540h74l324 -485l325 485h70l-360 -540l360 -545h-70l-325 489l-324 -489h-74z" />
<glyph unicode="y" horiz-adv-x="985" d="M23 1085h63l401 -1005l428 1005h68l-657 -1521h-66l193 438z" />
<glyph unicode="z" horiz-adv-x="833" d="M25 0v49l673 983h-637v53h711v-55l-674 -977h709v-53h-782z" />
<glyph unicode="{" horiz-adv-x="870" d="M236 457v57q74 18 119.5 126t45.5 267v383q0 131 35 191.5t133 60.5h136v-53h-111q-41 0 -65.5 -10.5t-39 -36t-18.5 -71.5t-4 -118v-379q0 -51 -9 -108t-29.5 -111.5t-51.5 -99.5t-76 -70q76 -35 121 -139t45 -235v-375q0 -78 5 -125t19.5 -72.5t39 -34t63.5 -8.5h111 v-53h-136q-98 0 -133 62.5t-35 195.5v375q0 141 -32.5 235.5t-132.5 145.5z" />
<glyph unicode="|" d="M539 -205v1721h61v-1721h-61z" />
<glyph unicode="}" horiz-adv-x="870" d="M166 -504h110q39 0 64 8.5t39 34t19 72.5t5 125v375q0 66 11.5 126t33 109t52 86t69.5 53q-45 25 -76.5 70t-51 99.5t-29 111.5t-9.5 108v379q0 72 -4 118t-18 71.5t-39 36t-66 10.5h-110v53h135q98 0 133 -60.5t35 -191.5v-383q0 -160 46 -267.5t120 -125.5v-57 q-51 -25 -83 -62t-50.5 -84t-25.5 -106.5t-7 -128.5v-375q0 -133 -35 -195.5t-133 -62.5h-135v53z" />
<glyph unicode="~" horiz-adv-x="1228" d="M156 469q41 76 107.5 115t142.5 32q61 0 121.5 -24.5t119.5 -50.5q59 -29 114.5 -51.5t102.5 -22.5q59 0 99.5 41t68.5 86l39 -39q-37 -68 -91 -106.5t-112 -38.5q-59 0 -116.5 22.5t-116.5 50.5q-59 29 -118.5 52.5t-110.5 23.5q-27 2 -54.5 -2t-54.5 -18.5t-52.5 -40 t-49.5 -66.5z" />
<glyph unicode="&#xa1;" horiz-adv-x="530" d="M236 -428v1176h61v-1176h-61zM236 922v165h61v-165h-61z" />
<glyph unicode="&#xa2;" d="M139 756q0 70 23.5 146.5t75 142t133.5 111.5t196 56v195h62v-197q43 -6 93 -17t99 -39t94.5 -74t81.5 -119h-67q-35 63 -79 101t-90 58.5t-89 26.5t-76 6q-92 0 -166 -31.5t-124 -86t-77.5 -125t-27.5 -148.5q0 -76 24.5 -147.5t73.5 -128t123 -91.5t172 -35 q74 0 130 19.5t98 47.5t69 59.5t39 56.5h69q-41 -78 -93 -125t-105 -73t-99.5 -34t-72.5 -10v-221h-62v221q-111 6 -190.5 51t-133 110.5t-79 143.5t-25.5 150z" />
<glyph unicode="&#xa3;" d="M12 750v55h176q-29 37 -55.5 100.5t-28.5 149.5q0 102 36 190t100.5 153.5t154.5 103.5t197 38q78 0 153.5 -24.5t139 -71.5t111.5 -117t71 -162h-63q-20 70 -59.5 128.5t-93.5 101.5t-119.5 66.5t-139.5 23.5q-92 -2 -170 -33t-133.5 -87t-88 -135t-34.5 -175 q2 -53 21.5 -118t80.5 -132h559v-55h-499v-5q29 -20 65.5 -56t69.5 -85t55.5 -112.5t22.5 -139.5q0 -14 -1 -41.5t-10.5 -66.5t-28 -87t-52.5 -102h188q70 0 118 6.5t82.5 17.5t59.5 28.5t49 39.5q61 66 85 133.5t24 127.5q0 37 -5.5 60.5t-9.5 41.5h64q4 -23 8 -41t4 -59 q0 -55 -13 -103.5t-31.5 -86.5t-40 -66.5t-38.5 -44.5q-37 -33 -70.5 -53.5t-73.5 -33t-93.5 -17.5t-128.5 -5h-553v55h303q8 12 24.5 36t34 59.5t30.5 85t13 114.5q0 125 -61.5 217t-175.5 183h-230z" />
<glyph unicode="&#xa4;" d="M80 1143l43 43l158 -158q127 111 286 111q80 0 154 -28t133 -81l156 156l45 -43l-156 -158q51 -57 80 -128t29 -155q0 -82 -30 -154.5t-85 -131.5l158 -158l-43 -43l-156 156q-61 -49 -134 -77t-151 -28q-80 0 -152.5 29t-131.5 76l-158 -156l-41 43l158 158 q-115 127 -115 286q0 82 28.5 154t82.5 129zM188 702q0 -78 32 -146.5t84 -118.5t121 -79.5t142 -29.5q76 0 144.5 29.5t121 79.5t83 119t30.5 146q0 80 -30.5 148t-83 119t-121 79.5t-144.5 28.5q-74 0 -142.5 -28.5t-120.5 -78.5t-84 -119t-32 -149z" />
<glyph unicode="&#xa5;" d="M66 1516h65l434 -717l443 717h65l-418 -678h387v-54h-419l-27 -53v-168h446v-53h-446v-510h-61v510h-439v53h439v168l-29 53h-410v54h379z" />
<glyph unicode="&#xa6;" d="M539 -205v688h61v-688h-61zM539 827v689h61v-689h-61z" />
<glyph unicode="&#xa7;" horiz-adv-x="1173" d="M123 664q0 41 12 85t37 84.5t63.5 77.5t94.5 66q-29 27 -61.5 79t-32.5 140q0 82 28.5 145.5t77.5 108.5t115.5 68.5t144.5 23.5q166 0 269.5 -88t103.5 -254h-57q-8 86 -36 141.5t-71 86t-96 42t-113 11.5q-139 0 -223 -77t-86 -202q2 -61 21.5 -104t50 -72t66.5 -49.5 t69 -34.5l307 -145q20 -10 60 -32t81 -59.5t72 -93t31 -131.5q0 -98 -53.5 -182t-141.5 -135q47 -33 74.5 -68t43 -68.5t20.5 -65.5t5 -58q0 -78 -29.5 -143.5t-84 -113.5t-129 -76t-164.5 -28q-8 0 -44 2t-84 12.5t-102.5 35t-99.5 67.5t-74.5 110.5t-29.5 166.5v65h57v-63 q0 -90 33 -155t85 -104.5t118.5 -57t138.5 -17.5q158 0 253 78.5t99 220.5q-4 82 -48 143.5t-165 116.5l-399 184q-18 10 -53 29.5t-69 54.5t-59.5 91.5t-25.5 140.5zM180 657q2 -86 44 -148.5t114 -96.5l461 -213q29 12 62.5 37.5t62 61.5t49 82t20.5 97q0 61 -21.5 105.5 t-54 74t-69.5 50t-70 36.5l-405 195q-84 -41 -137.5 -110.5t-55.5 -170.5z" />
<glyph unicode="&#xa8;" d="M416 1266v237h59v-237h-59zM662 1266v237h59v-237h-59z" />
<glyph unicode="&#xa9;" horiz-adv-x="1638" d="M37 758q0 160 58.5 302t162.5 248.5t247.5 168t313.5 61.5q168 0 310.5 -61.5t247 -167t163.5 -247.5t59 -304q0 -166 -61 -309.5t-166.5 -248t-248 -164t-304.5 -59.5q-164 0 -307 58.5t-248.5 163t-166 248t-60.5 311.5zM94 758q0 -154 55.5 -286t153.5 -230.5 t230.5 -154.5t285.5 -56q152 0 284 55t229.5 153.5t153.5 231.5t56 287q0 150 -54 281.5t-150.5 231t-228.5 157t-290 57.5t-291 -58.5t-229 -158t-150.5 -231.5t-54.5 -279zM389 756q0 104 32 192t90 150.5t140 97.5t183 35q76 0 144.5 -22.5t121.5 -63.5t87 -97.5 t42 -123.5h-58q-14 70 -49 118t-82 78.5t-102 44t-107 13.5q-80 0 -150.5 -29t-122.5 -82t-82 -131t-30 -178q0 -115 36 -195t91.5 -129t123 -71.5t132.5 -22.5q25 0 79.5 8t112.5 42t107.5 99.5t61.5 182.5h57q-6 -92 -44 -164t-95 -121t-130 -74.5t-151 -25.5 q-80 0 -157.5 27.5t-140 85t-101.5 145.5t-39 211z" />
<glyph unicode="&#xaa;" horiz-adv-x="899" d="M53 1186q0 74 29 138.5t79 113.5t117.5 76.5t145.5 27.5q66 0 127 -22.5t106 -63.5q23 -23 43.5 -49.5t32.5 -54.5h4v174h58v-682h-58v170h-4q-10 -29 -36.5 -65t-84.5 -72q-57 -35 -108 -42.5t-80 -7.5q-84 0 -152.5 30t-117 80t-75 114.5t-26.5 134.5zM111 1178 q0 -49 20.5 -102.5t60 -96.5t99 -70.5t135.5 -27.5q70 0 127 24.5t98 66.5t63.5 97t22.5 115q0 63 -25.5 119.5t-68.5 97.5t-99.5 64.5t-119.5 23.5q-59 0 -114.5 -20.5t-100.5 -60.5t-71.5 -98t-26.5 -132z" />
<glyph unicode="&#xab;" horiz-adv-x="718" d="M100 565l228 396l41 -54l-197 -342l197 -340l-41 -53zM328 565l229 396l39 -54l-197 -342l197 -340l-39 -53z" />
<glyph unicode="&#xac;" horiz-adv-x="1228" d="M102 682v57h1024v-454h-57v397h-967z" />
<glyph unicode="&#xad;" horiz-adv-x="544" d="M0 537v59h545v-59h-545z" />
<glyph unicode="&#xae;" horiz-adv-x="1638" d="M37 758q0 160 58.5 302t162.5 248.5t247.5 168t313.5 61.5q168 0 310.5 -61.5t247 -167t163.5 -247.5t59 -304q0 -166 -61 -309.5t-166.5 -248t-248 -164t-304.5 -59.5q-164 0 -307 58.5t-248.5 163t-166 248t-60.5 311.5zM94 758q0 -154 55.5 -286t153.5 -230.5 t230.5 -154.5t285.5 -56q152 0 284 55t229.5 153.5t153.5 231.5t56 287q0 150 -54 281.5t-150.5 231t-228.5 157t-290 57.5t-291 -58.5t-229 -158t-150.5 -231.5t-54.5 -279zM481 299v907h379q20 0 71.5 -4t105 -26.5t95.5 -71.5t42 -141t-52.5 -146.5t-124.5 -75.5v-4 q96 -23 125 -78t33 -127q4 -68 7 -108.5t6 -64t7.5 -36t10.5 -24.5h-60q-6 8 -9 17.5t-5 30t-4 57t-6 100.5q-4 47 -11.5 86t-34 65.5t-79.5 41t-148 14.5h-290v-412h-58zM539 764h286q25 2 73 6t97 22.5t85 57.5t36 113q0 72 -31.5 110.5t-75.5 56t-89.5 20.5t-69.5 3h-311 v-389z" />
<glyph unicode="&#xaf;" d="M203 1352v61h729v-61h-729z" />
<glyph unicode="&#xb0;" horiz-adv-x="819" d="M117 1159q0 61 22.5 114.5t62.5 93.5t93 62.5t115 22.5q61 0 114.5 -22.5t93 -62.5t62 -93.5t22.5 -114.5t-22.5 -114.5t-62 -93.5t-93 -62.5t-114.5 -22.5t-114.5 22.5t-93.5 62.5t-62.5 93.5t-22.5 114.5zM174 1159q0 -49 18.5 -92t50 -74.5t74.5 -50t93 -18.5 q49 0 92 18.5t74.5 50t50 74.5t18.5 92t-18.5 92t-50 75t-74.5 50.5t-92 18.5t-92.5 -18.5t-75 -50.5t-50 -75t-18.5 -92z" />
<glyph unicode="&#xb1;" horiz-adv-x="1228" d="M98 0v57h1032v-57h-1032zM98 575v58h488v403h57v-403h487v-58h-487v-403h-57v403h-488z" />
<glyph unicode="&#xb2;" horiz-adv-x="718" d="M74 606v47l379 396q59 66 85.5 113.5t26.5 99.5q0 39 -10 77.5t-34.5 70.5t-64.5 51.5t-100 19.5q-96 0 -153.5 -66.5t-57.5 -185.5h-57q0 82 24.5 139t63.5 94t88 53.5t96 16.5q117 0 190 -71.5t73 -198.5q0 -68 -36 -126.5t-95 -123.5l-338 -355h475v-51h-555z" />
<glyph unicode="&#xb3;" horiz-adv-x="718" d="M68 881h57q2 -68 24.5 -114t56.5 -73.5t72.5 -40t73.5 -12.5q109 0 168.5 65.5t59.5 163.5q0 35 -13.5 76t-43 75t-76 56.5t-111.5 22.5h-55v51h55q66 0 102.5 21.5t55 49t23.5 55.5t5 38q0 66 -42 115t-118 51q-74 2 -118.5 -45t-48.5 -121h-58q2 59 24.5 100t55.5 67.5 t72 38t73 11.5q41 0 80 -15.5t70 -44t49.5 -67.5t18.5 -88q0 -45 -13.5 -77t-32 -54.5t-39 -36.5t-32.5 -21q76 -31 125 -99t49 -155q0 -61 -21.5 -113t-59.5 -90t-90 -59.5t-114 -21.5q-51 0 -102 18.5t-91 54t-65.5 90t-25.5 128.5z" />
<glyph unicode="&#xb4;" d="M328 1286l485 283l29 -47l-488 -283z" />
<glyph unicode="&#xb6;" horiz-adv-x="1148" d="M25 1106q0 121 55 209t129 135q37 23 111.5 44.5t183.5 21.5h504v-58h-131v-1716h-62v1712h-264v-1712h-62v960h-40q-102 0 -181.5 33t-132.5 89.5t-81.5 129t-28.5 152.5z" />
<glyph unicode="&#xb7;" horiz-adv-x="567" d="M254 440v166h61v-166h-61z" />
<glyph unicode="&#xb8;" d="M418 -285h55q6 -27 20.5 -41t30 -21t27.5 -8t18 -1q35 0 64 24.5t31 75.5q-2 41 -30 66.5t-65 25.5q-53 0 -84 -51l-45 10l95 205h59l-53 -115l4 -2q4 2 10 4t16 2q72 0 110 -46t38 -99q0 -55 -37 -105.5t-113 -50.5q-10 0 -31.5 3t-46 15.5t-45 38t-28.5 70.5z" />
<glyph unicode="&#xb9;" horiz-adv-x="718" d="M152 1464v52h251v-910h-57v858h-194z" />
<glyph unicode="&#xba;" horiz-adv-x="899" d="M90 1178q0 78 27.5 144.5t75 114.5t113 76.5t140.5 28.5q80 0 148 -28.5t115 -78t73.5 -114t26.5 -135.5q0 -82 -30.5 -147.5t-82 -112.5t-117 -73t-133.5 -26q-72 0 -136 28t-113.5 75t-78 110.5t-28.5 137.5zM147 1180q0 -59 24 -113.5t63.5 -95.5t95 -65.5 t116.5 -24.5q59 0 114.5 22.5t97.5 63.5t68 96t26 123q0 61 -23.5 116.5t-63.5 96.5t-94.5 65.5t-119.5 24.5q-59 0 -114.5 -21.5t-97.5 -62.5t-67 -98t-25 -127z" />
<glyph unicode="&#xbb;" horiz-adv-x="718" d="M123 225l196 340l-196 342l39 54l229 -396l-229 -393zM350 225l197 340l-197 342l41 54l227 -396l-227 -393z" />
<glyph unicode="&#xbc;" horiz-adv-x="1433" d="M90 1464v52h252v-910h-57v858h-195zM293 0l674 1516h61l-676 -1516h-59zM735 174v43l457 692h68v-684h86v-51h-86v-174h-58v174h-467zM805 225h397v609l2 -5l-4 5z" />
<glyph unicode="&#xbd;" horiz-adv-x="1536" d="M90 1464v52h252v-910h-57v858h-195zM293 0l674 1516h61l-676 -1516h-59zM893 0v47l379 395q59 66 85.5 114t26.5 99q0 39 -10 78t-34.5 71t-64.5 51t-99 19q-96 0 -153.5 -66.5t-57.5 -184.5h-58q0 82 24.5 139t63.5 94t88.5 53.5t96.5 16.5q117 0 189.5 -72t72.5 -199 q0 -68 -36 -126t-95 -123l-338 -355h475v-51h-555z" />
<glyph unicode="&#xbe;" horiz-adv-x="1652" d="M82 881h57q2 -68 24.5 -114t56.5 -73.5t73 -40t74 -12.5q109 0 168 65.5t59 163.5q0 35 -13.5 76t-43 75t-75.5 56.5t-112 22.5h-55v51h55q66 0 102.5 21.5t55 49t24 55.5t5.5 38q0 66 -42 115t-118 51q-74 2 -119 -45t-49 -121h-57q2 59 24.5 100t55 67.5t71.5 38 t74 11.5q41 0 80 -15.5t69.5 -44t49 -67.5t18.5 -88q0 -45 -13.5 -77t-32 -54.5t-39 -36.5t-32.5 -21q76 -31 125 -99t49 -155q0 -61 -21.5 -113t-59.5 -90t-90 -59.5t-113 -21.5q-51 0 -102.5 18.5t-91.5 54t-65.5 90t-25.5 128.5zM514 0l674 1516h61l-676 -1516h-59z M956 174v43l457 692h68v-684h86v-51h-86v-174h-58v174h-467zM1026 225h397v609l2 -5l-4 5z" />
<glyph unicode="&#xbf;" horiz-adv-x="1097" d="M141 -25q0 61 21.5 114.5t57.5 102t79 92.5t86 85q57 57 89 110t46.5 100.5t16.5 89.5t2 76h61q-2 -49 -6 -99t-21.5 -103.5t-54.5 -110.5t-104 -121q-41 -41 -78 -77.5t-65.5 -75.5t-47 -84t-20.5 -103q0 -74 27.5 -139t76.5 -115.5t118 -79t148 -28.5q59 0 125 19.5 t121 62.5t93 112.5t42 169.5h62q-6 -123 -53.5 -204.5t-113 -132t-140 -71t-134.5 -20.5q-86 0 -163.5 31t-138 88t-96.5 136t-36 175zM541 920v165h59v-165h-59z" />
<glyph unicode="&#xc0;" horiz-adv-x="1406" d="M14 0l650 1516h79l650 -1516h-66l-227 528h-793l-227 -528h-66zM334 584h739l-371 874zM430 1901l29 47l485 -283l-26 -47z" />
<glyph unicode="&#xc1;" horiz-adv-x="1406" d="M14 0l650 1516h79l650 -1516h-66l-227 528h-793l-227 -528h-66zM334 584h739l-371 874zM463 1665l485 283l29 -47l-488 -283z" />
<glyph unicode="&#xc2;" horiz-adv-x="1406" d="M14 0l650 1516h79l650 -1516h-66l-227 528h-793l-227 -528h-66zM303 1686l399 225l402 -225l-53 -31l-349 192l-348 -192zM334 584h739l-371 874z" />
<glyph unicode="&#xc3;" horiz-adv-x="1406" d="M14 0l650 1516h79l650 -1516h-66l-227 528h-793l-227 -528h-66zM332 1790q35 29 82 50.5t118 21.5q33 0 69 -8.5t106 -41.5q29 -16 51 -26t42.5 -16.5t41 -9.5t47.5 -3q41 0 71.5 11.5t71.5 35.5l41 -43q-37 -25 -84 -45t-98 -20q-41 0 -86 9t-100 42q-35 18 -58.5 29.5 t-42 17.5t-35 8t-37.5 2q-53 0 -95 -18.5t-64 -36.5zM334 584h739l-371 874z" />
<glyph unicode="&#xc4;" horiz-adv-x="1406" d="M14 0l650 1516h79l650 -1516h-66l-227 528h-793l-227 -528h-66zM334 584h739l-371 874zM551 1645v237h59v-237h-59zM797 1645v237h59v-237h-59z" />
<glyph unicode="&#xc5;" horiz-adv-x="1406" d="M14 0l650 1516h79l650 -1516h-66l-227 528h-793l-227 -528h-66zM334 584h739l-371 874zM516 1733q0 39 15.5 72.5t41 59t59 40t70.5 14.5q39 0 74 -14.5t60.5 -40t40 -59t14.5 -72.5t-14.5 -73t-40 -59.5t-60.5 -40t-74 -14.5q-78 0 -132 54.5t-54 132.5zM573 1735 q0 -53 38 -91t91 -38q55 0 93.5 37.5t38.5 91.5q0 53 -38.5 92t-93.5 39q-53 0 -91 -39t-38 -92z" />
<glyph unicode="&#xc6;" horiz-adv-x="1933" d="M-16 0l1048 1516h750v-56h-647v-669h647v-56h-647v-680h647v-55h-709v541h-645l-375 -541h-69zM473 596h600v883h-4z" />
<glyph unicode="&#xc7;" horiz-adv-x="1609" d="M84 758q0 170 61.5 314.5t169 248.5t250 162.5t305.5 58.5q121 0 224.5 -32.5t187.5 -85t147.5 -118t104.5 -128.5h-72q-23 31 -69.5 82t-121.5 101t-175.5 88t-225.5 38q-152 0 -283.5 -55.5t-230 -152.5t-155 -230.5t-56.5 -290.5q0 -158 56.5 -291t155 -230.5 t230.5 -152.5t283 -55q133 0 235.5 38.5t176.5 89t119 100.5t61 73h70q-39 -66 -102.5 -129.5t-147.5 -114.5t-188.5 -82t-223.5 -31h-10l-41 -88l4 -2q4 2 10.5 4t16.5 2q72 0 109.5 -46t37.5 -99q0 -55 -36.5 -105.5t-112.5 -50.5q-10 0 -31.5 3t-46.5 15.5t-45 38 t-29 70.5h56q6 -27 20 -41t29.5 -21t28 -8t18.5 -1q35 0 63.5 24.5t30.5 75.5q-2 41 -29.5 66.5t-64.5 25.5q-53 0 -84 -51l-45 10l84 182q-152 12 -283 75t-227 165t-152.5 240.5t-56.5 300.5z" />
<glyph unicode="&#xc8;" horiz-adv-x="1120" d="M158 0v1516h831v-56h-770v-669h770v-56h-770v-680h770v-55h-831zM287 1901l28 47l486 -283l-27 -47z" />
<glyph unicode="&#xc9;" horiz-adv-x="1120" d="M158 0v1516h831v-56h-770v-669h770v-56h-770v-680h770v-55h-831zM319 1665l486 283l29 -47l-488 -283z" />
<glyph unicode="&#xca;" horiz-adv-x="1120" d="M158 0v1516h831v-56h-770v-669h770v-56h-770v-680h770v-55h-831zM160 1686l399 225l402 -225l-54 -31l-348 192l-348 -192z" />
<glyph unicode="&#xcb;" horiz-adv-x="1120" d="M158 0v1516h831v-56h-770v-669h770v-56h-770v-680h770v-55h-831zM408 1645v237h59v-237h-59zM653 1645v237h60v-237h-60z" />
<glyph unicode="&#xcc;" horiz-adv-x="378" d="M-125 1901l29 47l485 -283l-27 -47zM158 0v1516h61v-1516h-61z" />
<glyph unicode="&#xcd;" horiz-adv-x="378" d="M-10 1665l485 283l29 -47l-488 -283zM158 0v1516h61v-1516h-61z" />
<glyph unicode="&#xce;" horiz-adv-x="378" d="M-211 1686l399 225l402 -225l-53 -31l-349 192l-348 -192zM158 0v1516h61v-1516h-61z" />
<glyph unicode="&#xcf;" horiz-adv-x="378" d="M37 1645v237h59v-237h-59zM158 0v1516h61v-1516h-61zM283 1645v237h59v-237h-59z" />
<glyph unicode="&#xd0;" horiz-adv-x="1435" d="M0 735v56h158v725h428q178 0 320.5 -51.5t240.5 -148.5t150.5 -238.5t52.5 -319.5t-52.5 -319.5t-150.5 -239t-240.5 -148.5t-320.5 -51h-428v735h-158zM219 55h367q164 0 294 47.5t221 137.5t139 220t48 294q0 166 -47 297t-137 222t-221 139t-297 48h-367v-669h514v-56 h-514v-680z" />
<glyph unicode="&#xd1;" horiz-adv-x="1511" d="M158 0v1516h92l1038 -1434h4v1434h62v-1516h-78l-1053 1454h-4v-1454h-61zM385 1790q35 29 82 50.5t119 21.5q33 0 68.5 -8.5t105.5 -41.5q29 -16 51.5 -26t42.5 -16.5t40.5 -9.5t47.5 -3q41 0 71.5 11.5t71.5 35.5l41 -43q-37 -25 -84 -45t-98 -20q-41 0 -86 9t-100 42 q-35 18 -58.5 29.5t-42 17.5t-35 8t-36.5 2q-53 0 -95 -18.5t-65 -36.5z" />
<glyph unicode="&#xd2;" horiz-adv-x="1742" d="M84 758q0 170 61.5 314.5t169 248.5t250 162.5t305.5 58.5q162 0 305.5 -58.5t251 -162.5t169 -248.5t61.5 -314.5t-61.5 -314.5t-169 -249t-251 -163t-305.5 -58.5q-164 0 -306 58.5t-249.5 163t-169 249t-61.5 314.5zM145 758q0 -158 56.5 -291t155 -230.5 t230.5 -152.5t283 -55q150 0 282 55t230.5 152.5t155.5 230.5t57 291t-57 291t-155.5 230t-230.5 152.5t-282 55.5q-152 0 -283.5 -55.5t-230 -152.5t-155 -230t-56.5 -291zM598 1901l29 47l485 -283l-27 -47z" />
<glyph unicode="&#xd3;" horiz-adv-x="1742" d="M84 758q0 170 61.5 314.5t169 248.5t250 162.5t305.5 58.5q162 0 305.5 -58.5t251 -162.5t169 -248.5t61.5 -314.5t-61.5 -314.5t-169 -249t-251 -163t-305.5 -58.5q-164 0 -306 58.5t-249.5 163t-169 249t-61.5 314.5zM145 758q0 -158 56.5 -291t155 -230.5 t230.5 -152.5t283 -55q150 0 282 55t230.5 152.5t155.5 230.5t57 291t-57 291t-155.5 230t-230.5 152.5t-282 55.5q-152 0 -283.5 -55.5t-230 -152.5t-155 -230t-56.5 -291zM631 1665l485 283l29 -47l-488 -283z" />
<glyph unicode="&#xd4;" horiz-adv-x="1742" d="M84 758q0 170 61.5 314.5t169 248.5t250 162.5t305.5 58.5q162 0 305.5 -58.5t251 -162.5t169 -248.5t61.5 -314.5t-61.5 -314.5t-169 -249t-251 -163t-305.5 -58.5q-164 0 -306 58.5t-249.5 163t-169 249t-61.5 314.5zM145 758q0 -158 56.5 -291t155 -230.5 t230.5 -152.5t283 -55q150 0 282 55t230.5 152.5t155.5 230.5t57 291t-57 291t-155.5 230t-230.5 152.5t-282 55.5q-152 0 -283.5 -55.5t-230 -152.5t-155 -230t-56.5 -291zM471 1686l399 225l402 -225l-53 -31l-349 192l-348 -192z" />
<glyph unicode="&#xd5;" horiz-adv-x="1742" d="M84 758q0 170 61.5 314.5t169 248.5t250 162.5t305.5 58.5q162 0 305.5 -58.5t251 -162.5t169 -248.5t61.5 -314.5t-61.5 -314.5t-169 -249t-251 -163t-305.5 -58.5q-164 0 -306 58.5t-249.5 163t-169 249t-61.5 314.5zM145 758q0 -158 56.5 -291t155 -230.5 t230.5 -152.5t283 -55q150 0 282 55t230.5 152.5t155.5 230.5t57 291t-57 291t-155.5 230t-230.5 152.5t-282 55.5q-152 0 -283.5 -55.5t-230 -152.5t-155 -230t-56.5 -291zM500 1790q35 29 82 50.5t118 21.5q33 0 69 -8.5t105 -41.5q29 -16 51.5 -26t43 -16.5t41 -9.5 t47.5 -3q41 0 71.5 11.5t71.5 35.5l41 -43q-37 -25 -84 -45t-98 -20q-41 0 -86 9t-101 42q-35 18 -58 29.5t-41.5 17.5t-35 8t-37.5 2q-53 0 -95 -18.5t-64 -36.5z" />
<glyph unicode="&#xd6;" horiz-adv-x="1742" d="M84 758q0 170 61.5 314.5t169 248.5t250 162.5t305.5 58.5q162 0 305.5 -58.5t251 -162.5t169 -248.5t61.5 -314.5t-61.5 -314.5t-169 -249t-251 -163t-305.5 -58.5q-164 0 -306 58.5t-249.5 163t-169 249t-61.5 314.5zM145 758q0 -158 56.5 -291t155 -230.5 t230.5 -152.5t283 -55q150 0 282 55t230.5 152.5t155.5 230.5t57 291t-57 291t-155.5 230t-230.5 152.5t-282 55.5q-152 0 -283.5 -55.5t-230 -152.5t-155 -230t-56.5 -291zM719 1645v237h59v-237h-59zM965 1645v237h59v-237h-59z" />
<glyph unicode="&#xd7;" horiz-adv-x="1228" d="M102 47l469 467l-469 463l41 45l471 -467l471 467l41 -45l-469 -463l469 -467l-41 -43l-471 469l-471 -469z" />
<glyph unicode="&#xd8;" horiz-adv-x="1742" d="M84 758q0 170 61.5 314.5t169 248.5t250 162.5t305.5 58.5q127 0 241 -34.5t208 -98.5l180 248l49 -37l-180 -248q135 -109 212 -265.5t77 -348.5q0 -170 -61.5 -314.5t-169 -249t-251 -163t-305.5 -58.5q-121 0 -229.5 33t-200.5 92l-200 -274l-47 37l196 270 q-139 104 -222 266t-83 361zM145 758q0 -184 75 -333t204 -247l860 1184q-90 59 -193.5 92t-220.5 33q-152 0 -283.5 -55.5t-230 -152.5t-155 -230.5t-56.5 -290.5zM475 145q176 -117 395 -116q150 0 282 55t230.5 152.5t155.5 230.5t57 291q0 178 -70.5 323.5t-191.5 243.5 z" />
<glyph unicode="&#xd9;" horiz-adv-x="1239" d="M156 532v984h61v-984q0 -55 1 -102t10.5 -90t28.5 -85t54 -87q49 -66 134 -102.5t178 -36.5q86 0 171 36.5t134 102.5q35 45 54 87t28.5 85t10.5 90t1 102v984h61v-984q0 -51 -3 -113.5t-20.5 -125t-54 -121.5t-104.5 -106q-59 -43 -132 -68t-151 -25t-149.5 25 t-130.5 68q-68 47 -104.5 106t-54 121.5t-20.5 125t-3 113.5zM346 1901l29 47l485 -283l-26 -47z" />
<glyph unicode="&#xda;" horiz-adv-x="1239" d="M156 532v984h61v-984q0 -55 1 -102t10.5 -90t28.5 -85t54 -87q49 -66 134 -102.5t178 -36.5q86 0 171 36.5t134 102.5q35 45 54 87t28.5 85t10.5 90t1 102v984h61v-984q0 -51 -3 -113.5t-20.5 -125t-54 -121.5t-104.5 -106q-59 -43 -132 -68t-151 -25t-149.5 25 t-130.5 68q-68 47 -104.5 106t-54 121.5t-20.5 125t-3 113.5zM379 1665l485 283l29 -47l-487 -283z" />
<glyph unicode="&#xdb;" horiz-adv-x="1239" d="M156 532v984h61v-984q0 -55 1 -102t10.5 -90t28.5 -85t54 -87q49 -66 134 -102.5t178 -36.5q86 0 171 36.5t134 102.5q35 45 54 87t28.5 85t10.5 90t1 102v984h61v-984q0 -51 -3 -113.5t-20.5 -125t-54 -121.5t-104.5 -106q-59 -43 -132 -68t-151 -25t-149.5 25 t-130.5 68q-68 47 -104.5 106t-54 121.5t-20.5 125t-3 113.5zM219 1686l399 225l402 -225l-53 -31l-349 192l-348 -192z" />
<glyph unicode="&#xdc;" horiz-adv-x="1239" d="M156 532v984h61v-984q0 -55 1 -102t10.5 -90t28.5 -85t54 -87q49 -66 134 -102.5t178 -36.5q86 0 171 36.5t134 102.5q35 45 54 87t28.5 85t10.5 90t1 102v984h61v-984q0 -51 -3 -113.5t-20.5 -125t-54 -121.5t-104.5 -106q-59 -43 -132 -68t-151 -25t-149.5 25 t-130.5 68q-68 47 -104.5 106t-54 121.5t-20.5 125t-3 113.5zM467 1645v237h59v-237h-59zM713 1645v237h59v-237h-59z" />
<glyph unicode="&#xdd;" horiz-adv-x="1134" d="M31 1516h67l469 -924l467 924h70l-506 -994v-522h-61v522zM328 1665l485 283l29 -47l-488 -283z" />
<glyph unicode="&#xde;" horiz-adv-x="1046" d="M137 0v1516h62v-320h290q74 0 128.5 -4t97.5 -13.5t79.5 -27.5t73.5 -45q68 -49 111 -142.5t43 -197.5t-43 -197.5t-111 -142.5q-37 -29 -73.5 -46.5t-79.5 -26.5t-97.5 -13t-128.5 -4h-290v-336h-62zM199 391h293q68 0 116.5 4t88.5 14.5t73 26t66 39.5q27 20 49 52 t39.5 70t27 81t9.5 86q0 88 -36 170t-89 123q-33 25 -66 40t-73 25.5t-89 14.5t-116 4h-293v-750z" />
<glyph unicode="&#xdf;" horiz-adv-x="1144" d="M156 0v967q0 88 4 151.5t13 110.5t24.5 83t38.5 66q51 78 136 120t175 42q94 0 167.5 -29.5t126 -83t80 -128t27.5 -162.5q0 -33 -8 -82t-31.5 -101.5t-68.5 -100.5t-119 -79v-4q86 -12 150.5 -50t105.5 -92.5t61.5 -120t20.5 -128.5q0 -92 -34 -167t-89 -128t-128 -82 t-151 -29q-68 0 -137 20.5t-127.5 69t-97.5 128t-45 200.5h57q4 -111 42 -180.5t91.5 -110.5t113.5 -57t110 -16q66 0 127 25.5t108 70.5t74.5 107.5t27.5 138.5q0 20 -3 53t-16 71.5t-38.5 79.5t-71.5 78q-25 16 -49 30.5t-59 26t-83 17.5t-118 6h-57v53h55q63 0 122.5 27 t106 73t74 110.5t27.5 142.5q0 170 -95.5 260t-246.5 90q-78 0 -149.5 -35t-110.5 -94q-27 -39 -42.5 -78t-22.5 -84t-9 -101.5t-2 -127.5v-967h-57z" />
<glyph unicode="&#xe0;" horiz-adv-x="1380" d="M84 543q0 113 40 215t114.5 181t180 126t236.5 47q98 0 182.5 -27.5t149 -70.5t108.5 -97.5t64 -107.5h4v276h58v-1085h-58v270h-4q-72 -139 -201 -218t-303 -79q-133 0 -239.5 48.5t-180 127t-112.5 181t-39 213.5zM141 543q0 -92 33 -184.5t97.5 -166t162 -119.5 t228.5 -46q113 0 206 41t160.5 111.5t104 164.5t36.5 199q0 111 -39.5 206t-108.5 163.5t-163 107.5t-203 39q-106 0 -199.5 -38t-163 -105.5t-110.5 -163t-41 -209.5zM418 1522l28 47l486 -283l-27 -47z" />
<glyph unicode="&#xe1;" horiz-adv-x="1380" d="M84 543q0 113 40 215t114.5 181t180 126t236.5 47q98 0 182.5 -27.5t149 -70.5t108.5 -97.5t64 -107.5h4v276h58v-1085h-58v270h-4q-72 -139 -201 -218t-303 -79q-133 0 -239.5 48.5t-180 127t-112.5 181t-39 213.5zM141 543q0 -92 33 -184.5t97.5 -166t162 -119.5 t228.5 -46q113 0 206 41t160.5 111.5t104 164.5t36.5 199q0 111 -39.5 206t-108.5 163.5t-163 107.5t-203 39q-106 0 -199.5 -38t-163 -105.5t-110.5 -163t-41 -209.5zM440 1286l486 283l28 -47l-487 -283z" />
<glyph unicode="&#xe2;" horiz-adv-x="1380" d="M84 543q0 113 40 215t114.5 181t180 126t236.5 47q98 0 182.5 -27.5t149 -70.5t108.5 -97.5t64 -107.5h4v276h58v-1085h-58v270h-4q-72 -139 -201 -218t-303 -79q-133 0 -239.5 48.5t-180 127t-112.5 181t-39 213.5zM141 543q0 -92 33 -184.5t97.5 -166t162 -119.5 t228.5 -46q113 0 206 41t160.5 111.5t104 164.5t36.5 199q0 111 -39.5 206t-108.5 163.5t-163 107.5t-203 39q-106 0 -199.5 -38t-163 -105.5t-110.5 -163t-41 -209.5zM291 1307l399 225l402 -225l-54 -31l-348 192l-348 -192z" />
<glyph unicode="&#xe3;" horiz-adv-x="1380" d="M84 543q0 113 40 215t114.5 181t180 126t236.5 47q98 0 182.5 -27.5t149 -70.5t108.5 -97.5t64 -107.5h4v276h58v-1085h-58v270h-4q-72 -139 -201 -218t-303 -79q-133 0 -239.5 48.5t-180 127t-112.5 181t-39 213.5zM141 543q0 -92 33 -184.5t97.5 -166t162 -119.5 t228.5 -46q113 0 206 41t160.5 111.5t104 164.5t36.5 199q0 111 -39.5 206t-108.5 163.5t-163 107.5t-203 39q-106 0 -199.5 -38t-163 -105.5t-110.5 -163t-41 -209.5zM319 1391q35 29 82.5 50t118.5 21q33 0 69 -8t105 -41q29 -16 51.5 -26.5t43 -16.5t41 -9t47.5 -3 q41 0 71.5 11t71.5 36l41 -43q-37 -25 -84 -45.5t-98 -20.5q-41 0 -86 9.5t-101 42.5q-35 18 -58.5 29.5t-42 17.5t-34.5 8t-37 2q-53 0 -95 -18.5t-65 -36.5z" />
<glyph unicode="&#xe4;" horiz-adv-x="1380" d="M84 543q0 113 40 215t114.5 181t180 126t236.5 47q98 0 182.5 -27.5t149 -70.5t108.5 -97.5t64 -107.5h4v276h58v-1085h-58v270h-4q-72 -139 -201 -218t-303 -79q-133 0 -239.5 48.5t-180 127t-112.5 181t-39 213.5zM141 543q0 -92 33 -184.5t97.5 -166t162 -119.5 t228.5 -46q113 0 206 41t160.5 111.5t104 164.5t36.5 199q0 111 -39.5 206t-108.5 163.5t-163 107.5t-203 39q-106 0 -199.5 -38t-163 -105.5t-110.5 -163t-41 -209.5zM539 1266v237h59v-237h-59zM784 1266v237h60v-237h-60z" />
<glyph unicode="&#xe5;" horiz-adv-x="1380" d="M84 543q0 113 40 215t114.5 181t180 126t236.5 47q98 0 182.5 -27.5t149 -70.5t108.5 -97.5t64 -107.5h4v276h58v-1085h-58v270h-4q-72 -139 -201 -218t-303 -79q-133 0 -239.5 48.5t-180 127t-112.5 181t-39 213.5zM141 543q0 -92 33 -184.5t97.5 -166t162 -119.5 t228.5 -46q113 0 206 41t160.5 111.5t104 164.5t36.5 199q0 111 -39.5 206t-108.5 163.5t-163 107.5t-203 39q-106 0 -199.5 -38t-163 -105.5t-110.5 -163t-41 -209.5zM504 1401q0 39 15.5 72.5t41 59.5t59 40t70.5 14q39 0 74 -14t60.5 -40t40 -59.5t14.5 -72.5t-14.5 -73 t-40 -59.5t-60.5 -40t-74 -14.5q-78 0 -132 54.5t-54 132.5zM561 1403q0 -53 38 -91t91 -38q55 0 93 38t38 91t-38 92t-93 39q-53 0 -91 -39t-38 -92z" />
<glyph unicode="&#xe6;" horiz-adv-x="2363" d="M84 541q0 123 43 227t120 181t180 120t224 43q137 0 261 -60.5t204 -189.5q16 -25 23.5 -48t17.5 -46h4v317h58v-315h4q12 29 20 50.5t21 43.5q51 82 110.5 130t117.5 75t114.5 35t103.5 8q133 0 238.5 -48t178.5 -128t111.5 -183.5t40.5 -215.5h-1060 q14 -158 73.5 -257.5t137 -155.5t158.5 -76.5t138 -20.5q84 0 154 25.5t127 66.5t100 92t72 102h68q-27 -59 -74 -119.5t-112.5 -109.5t-148.5 -80t-179 -31q-141 -2 -260 58.5t-197 177.5q-18 29 -30.5 57.5t-22.5 65.5h-4v-332h-58v332h-4q-10 -39 -21.5 -69t-31.5 -56 q-49 -74 -112.5 -119t-126 -70.5t-119 -35t-91.5 -9.5q-123 0 -227 43t-181 120t-120 180.5t-43 226.5v-2zM141 543q0 -111 39 -205t108.5 -164t164 -108.5t204.5 -38.5q102 0 194.5 41t161 111.5t109.5 165t41 198.5q0 102 -40 195t-108.5 165t-160.5 114t-197 42 q-111 0 -205 -39t-163.5 -108.5t-108.5 -164t-39 -204.5zM1221 590h995q-18 117 -63.5 204t-111 146t-148.5 89t-179 30q-86 0 -181 -33t-183 -135q-72 -82 -94.5 -155.5t-34.5 -145.5z" />
<glyph unicode="&#xe7;" horiz-adv-x="1267" d="M84 543q0 121 44 224t120 180t180 121t227 44q82 0 165 -23.5t156 -70.5t130 -118t90 -167h-63q-31 90 -86.5 152.5t-122 101.5t-136 55.5t-131.5 16.5q-115 -2 -198.5 -36t-167.5 -110q-66 -59 -108 -159.5t-42 -210.5q0 -115 41 -210t112 -163t164 -105.5t197 -37.5 q92 0 170 26.5t139.5 70.5t103.5 100.5t62 117.5h64q-29 -84 -80 -150.5t-120.5 -114.5t-155.5 -75t-183 -29h-4l-41 -88l4 -2q4 2 10.5 4t16.5 2q72 0 109.5 -46t37.5 -99q0 -55 -36.5 -105.5t-112.5 -50.5q-10 0 -31.5 3t-46 15.5t-45 38t-29.5 70.5h56q6 -27 20.5 -41 t29.5 -21t27.5 -8t18.5 -1q35 0 63.5 24.5t30.5 75.5q-2 41 -29.5 66.5t-64.5 25.5q-53 0 -84 -51l-45 10l84 185q-109 8 -201 53t-161.5 118.5t-108.5 173t-39 218.5z" />
<glyph unicode="&#xe8;" horiz-adv-x="1267" d="M63 541q0 123 44.5 227t121 181t182 120t226.5 43q109 0 209 -38t179 -108.5t127 -172t54 -226.5l-2 -30h-1081q2 -133 52 -229.5t126 -159t166 -92t170 -29.5q152 0 274.5 73.5t188.5 212.5h63q-37 -86 -94 -150.5t-126 -106.5t-147.5 -62.5t-160.5 -20.5 q-125 0 -229.5 43t-180 120t-119 181.5t-43.5 225.5v-2zM125 590h1022q-4 98 -49 185t-116 151.5t-161 100.5t-184 32q-100 0 -190.5 -35t-160 -97.5t-112.5 -148.5t-49 -188zM360 1522l29 47l485 -283l-26 -47z" />
<glyph unicode="&#xe9;" horiz-adv-x="1267" d="M63 541q0 123 44.5 227t121 181t182 120t226.5 43q109 0 209 -38t179 -108.5t127 -172t54 -226.5l-2 -30h-1081q2 -133 52 -229.5t126 -159t166 -92t170 -29.5q152 0 274.5 73.5t188.5 212.5h63q-37 -86 -94 -150.5t-126 -106.5t-147.5 -62.5t-160.5 -20.5 q-125 0 -229.5 43t-180 120t-119 181.5t-43.5 225.5v-2zM125 590h1022q-4 98 -49 185t-116 151.5t-161 100.5t-184 32q-100 0 -190.5 -35t-160 -97.5t-112.5 -148.5t-49 -188zM383 1286l485 283l29 -47l-487 -283z" />
<glyph unicode="&#xea;" horiz-adv-x="1267" d="M63 541q0 123 44.5 227t121 181t182 120t226.5 43q109 0 209 -38t179 -108.5t127 -172t54 -226.5l-2 -30h-1081q2 -133 52 -229.5t126 -159t166 -92t170 -29.5q152 0 274.5 73.5t188.5 212.5h63q-37 -86 -94 -150.5t-126 -106.5t-147.5 -62.5t-160.5 -20.5 q-125 0 -229.5 43t-180 120t-119 181.5t-43.5 225.5v-2zM125 590h1022q-4 98 -49 185t-116 151.5t-161 100.5t-184 32q-100 0 -190.5 -35t-160 -97.5t-112.5 -148.5t-49 -188zM233 1307l400 225l401 -225l-53 -31l-348 192l-348 -192z" />
<glyph unicode="&#xeb;" horiz-adv-x="1267" d="M63 541q0 123 44.5 227t121 181t182 120t226.5 43q109 0 209 -38t179 -108.5t127 -172t54 -226.5l-2 -30h-1081q2 -133 52 -229.5t126 -159t166 -92t170 -29.5q152 0 274.5 73.5t188.5 212.5h63q-37 -86 -94 -150.5t-126 -106.5t-147.5 -62.5t-160.5 -20.5 q-125 0 -229.5 43t-180 120t-119 181.5t-43.5 225.5v-2zM125 590h1022q-4 98 -49 185t-116 151.5t-161 100.5t-184 32q-100 0 -190.5 -35t-160 -97.5t-112.5 -148.5t-49 -188zM471 1266v237h59v-237h-59zM717 1266v237h59v-237h-59z" />
<glyph unicode="&#xec;" horiz-adv-x="376" d="M-125 1522l29 47l485 -283l-27 -47zM160 0v1085h57v-1085h-57z" />
<glyph unicode="&#xed;" horiz-adv-x="376" d="M-10 1286l485 283l29 -47l-488 -283zM160 0v1085h57v-1085h-57z" />
<glyph unicode="&#xee;" horiz-adv-x="376" d="M-211 1307l399 225l402 -225l-53 -31l-349 192l-348 -192zM160 0v1085h57v-1085h-57z" />
<glyph unicode="&#xef;" horiz-adv-x="376" d="M37 1266v237h59v-237h-59zM160 0v1085h57v-1085h-57zM283 1266v237h59v-237h-59z" />
<glyph unicode="&#xf0;" horiz-adv-x="1312" d="M84 541q2 129 46 233.5t121 179t180.5 115.5t225.5 43q117 0 226.5 -48t181.5 -136l4 4q-80 123 -191.5 216t-246.5 165l-391 -158l-41 41l368 150q-76 37 -155.5 70.5t-184.5 68.5l70 31q100 -35 184 -71t156 -73l358 144l39 -43l-334 -134q152 -90 253.5 -183 t163 -192.5t87 -204t25.5 -214.5q0 -139 -50.5 -244.5t-132 -177.5t-184 -110t-207.5 -40q-109 0 -211 36t-182 107.5t-128 178t-50 246.5zM141 543q0 -111 38 -205t107.5 -164t164 -108.5t204.5 -38.5q113 0 207 39.5t163 109.5t107.5 164t38.5 205q0 106 -42 200.5 t-112.5 164t-162.5 109.5t-195 40q-113 0 -208 -40t-163.5 -109.5t-107.5 -162.5t-39 -204z" />
<glyph unicode="&#xf1;" horiz-adv-x="1312" d="M160 0v1085h57v-208h4q25 59 72 104t106.5 74.5t126 44t131.5 12.5q209 0 340 -108q158 -133 158 -431v-573h-57v573q0 141 -36 234.5t-97 148.5q-63 57 -143.5 80t-164.5 23q-205 -4 -322.5 -117t-117.5 -317v-625h-57zM285 1391q35 29 82 50t118 21q33 0 69 -8t105 -41 q29 -16 51.5 -26.5t43 -16.5t41 -9t47.5 -3q41 0 71.5 11t71.5 36l41 -43q-37 -25 -84 -45.5t-98 -20.5q-41 0 -86 9.5t-101 42.5q-35 18 -58.5 29.5t-41.5 17.5t-34.5 8t-37.5 2q-53 0 -95 -18.5t-64 -36.5z" />
<glyph unicode="&#xf2;" horiz-adv-x="1312" d="M84 543q0 121 43 225t120 181t181 120t227 43t227.5 -43t181.5 -120t120 -181t43 -225q0 -123 -43 -226.5t-120 -180.5t-181.5 -120t-227.5 -43t-227 43t-181 120t-120 180.5t-43 226.5zM141 543q0 -111 39 -205t108.5 -164t163 -108.5t203.5 -38.5q111 0 204 38.5 t163 108.5t108.5 164t38.5 205t-38.5 205t-108.5 163.5t-163 108.5t-204 39t-204 -39t-162.5 -108.5t-108.5 -163.5t-39 -205zM383 1522l29 47l485 -283l-27 -47z" />
<glyph unicode="&#xf3;" horiz-adv-x="1312" d="M84 543q0 121 43 225t120 181t181 120t227 43t227.5 -43t181.5 -120t120 -181t43 -225q0 -123 -43 -226.5t-120 -180.5t-181.5 -120t-227.5 -43t-227 43t-181 120t-120 180.5t-43 226.5zM141 543q0 -111 39 -205t108.5 -164t163 -108.5t203.5 -38.5q111 0 204 38.5 t163 108.5t108.5 164t38.5 205t-38.5 205t-108.5 163.5t-163 108.5t-204 39t-204 -39t-162.5 -108.5t-108.5 -163.5t-39 -205zM406 1286l485 283l29 -47l-488 -283z" />
<glyph unicode="&#xf4;" horiz-adv-x="1312" d="M84 543q0 121 43 225t120 181t181 120t227 43t227.5 -43t181.5 -120t120 -181t43 -225q0 -123 -43 -226.5t-120 -180.5t-181.5 -120t-227.5 -43t-227 43t-181 120t-120 180.5t-43 226.5zM141 543q0 -111 39 -205t108.5 -164t163 -108.5t203.5 -38.5q111 0 204 38.5 t163 108.5t108.5 164t38.5 205t-38.5 205t-108.5 163.5t-163 108.5t-204 39t-204 -39t-162.5 -108.5t-108.5 -163.5t-39 -205zM256 1307l399 225l402 -225l-53 -31l-349 192l-348 -192z" />
<glyph unicode="&#xf5;" horiz-adv-x="1312" d="M84 543q0 121 43 225t120 181t181 120t227 43t227.5 -43t181.5 -120t120 -181t43 -225q0 -123 -43 -226.5t-120 -180.5t-181.5 -120t-227.5 -43t-227 43t-181 120t-120 180.5t-43 226.5zM141 543q0 -111 39 -205t108.5 -164t163 -108.5t203.5 -38.5q111 0 204 38.5 t163 108.5t108.5 164t38.5 205t-38.5 205t-108.5 163.5t-163 108.5t-204 39t-204 -39t-162.5 -108.5t-108.5 -163.5t-39 -205zM285 1391q35 29 82 50t118 21q33 0 69 -8t105 -41q29 -16 51.5 -26.5t43 -16.5t41 -9t47.5 -3q41 0 71.5 11t71.5 36l41 -43q-37 -25 -84 -45.5 t-98 -20.5q-41 0 -86 9.5t-101 42.5q-35 18 -58.5 29.5t-41.5 17.5t-34.5 8t-37.5 2q-53 0 -95 -18.5t-64 -36.5z" />
<glyph unicode="&#xf6;" horiz-adv-x="1312" d="M84 543q0 121 43 225t120 181t181 120t227 43t227.5 -43t181.5 -120t120 -181t43 -225q0 -123 -43 -226.5t-120 -180.5t-181.5 -120t-227.5 -43t-227 43t-181 120t-120 180.5t-43 226.5zM141 543q0 -111 39 -205t108.5 -164t163 -108.5t203.5 -38.5q111 0 204 38.5 t163 108.5t108.5 164t38.5 205t-38.5 205t-108.5 163.5t-163 108.5t-204 39t-204 -39t-162.5 -108.5t-108.5 -163.5t-39 -205zM504 1266v237h59v-237h-59zM750 1266v237h59v-237h-59z" />
<glyph unicode="&#xf7;" horiz-adv-x="1228" d="M102 483v58h1024v-58h-1024zM584 0v166h61v-166h-61zM584 858v166h61v-166h-61z" />
<glyph unicode="&#xf8;" horiz-adv-x="1312" d="M84 543q0 121 43 225t120 181t181 120t227 43q90 0 169 -23.5t145 -66.5l127 176l43 -35l-123 -172q98 -80 154.5 -194.5t56.5 -253.5q0 -123 -43 -226.5t-120 -180.5t-181.5 -120t-227.5 -43q-90 0 -168.5 23.5t-144.5 66.5l-123 -169l-45 34l123 168q-98 76 -155.5 191 t-57.5 256zM141 543q0 -125 50.5 -229.5t136.5 -174.5l608 838q-123 82 -281 82q-111 0 -204 -39t-162.5 -108.5t-108.5 -163.5t-39 -205zM373 106q127 -80 282 -79q111 0 204 38.5t163 108.5t108.5 164t38.5 205q0 125 -49 228t-137 175z" />
<glyph unicode="&#xf9;" horiz-adv-x="1312" d="M160 512v573h57v-573q0 -141 36 -234.5t97 -148.5q63 -57 143 -79.5t164 -22.5q205 2 323 116.5t118 325.5v616h57v-1085h-57v219h-4q-25 -63 -71 -110.5t-104.5 -78t-126 -45t-135.5 -12.5q-209 0 -340 109q-158 133 -157 430zM383 1522l29 47l485 -283l-27 -47z" />
<glyph unicode="&#xfa;" horiz-adv-x="1312" d="M160 512v573h57v-573q0 -141 36 -234.5t97 -148.5q63 -57 143 -79.5t164 -22.5q205 2 323 116.5t118 325.5v616h57v-1085h-57v219h-4q-25 -63 -71 -110.5t-104.5 -78t-126 -45t-135.5 -12.5q-209 0 -340 109q-158 133 -157 430zM416 1286l485 283l29 -47l-488 -283z" />
<glyph unicode="&#xfb;" horiz-adv-x="1312" d="M160 512v573h57v-573q0 -141 36 -234.5t97 -148.5q63 -57 143 -79.5t164 -22.5q205 2 323 116.5t118 325.5v616h57v-1085h-57v219h-4q-25 -63 -71 -110.5t-104.5 -78t-126 -45t-135.5 -12.5q-209 0 -340 109q-158 133 -157 430zM256 1307l399 225l402 -225l-53 -31 l-349 192l-348 -192z" />
<glyph unicode="&#xfc;" horiz-adv-x="1312" d="M160 512v573h57v-573q0 -141 36 -234.5t97 -148.5q63 -57 143 -79.5t164 -22.5q205 2 323 116.5t118 325.5v616h57v-1085h-57v219h-4q-25 -63 -71 -110.5t-104.5 -78t-126 -45t-135.5 -12.5q-209 0 -340 109q-158 133 -157 430zM504 1266v237h59v-237h-59zM750 1266v237 h59v-237h-59z" />
<glyph unicode="&#xfd;" horiz-adv-x="985" d="M23 1085h63l401 -1005l428 1005h68l-657 -1521h-66l193 438zM252 1286l485 283l29 -47l-487 -283z" />
<glyph unicode="&#xfe;" horiz-adv-x="1394" d="M160 -436v1952h57v-723h4q47 102 117 164.5t143.5 97.5t141 46t112.5 11q123 0 227.5 -43t181.5 -120t121 -181t44 -225q0 -123 -44 -226.5t-121 -180.5t-181.5 -120t-227.5 -43q-88 0 -167 23.5t-145.5 65.5t-117.5 99.5t-84 125.5h-4v-723h-57zM217 537 q0 -96 39 -187.5t108.5 -163t165 -115.5t207.5 -44q111 0 205 38.5t163 108.5t107.5 164t38.5 205t-38.5 205t-107.5 163.5t-163 108.5t-205 39q-100 0 -194 -37t-166 -105.5t-116 -164.5t-44 -215z" />
<glyph unicode="&#xff;" horiz-adv-x="985" d="M23 1085h63l401 -1005l428 1005h68l-657 -1521h-66l193 438zM340 1266v237h59v-237h-59zM586 1266v237h59v-237h-59z" />
<glyph unicode="&#x152;" horiz-adv-x="2412" d="M84 758q0 174 60.5 318.5t165 247.5t245.5 160.5t301 57.5q129 0 246 -37t212 -102.5t162.5 -156.5t100.5 -199h4v469h707v-56h-646v-669h646v-56h-646v-680h646v-55h-707v469h-4q-31 -109 -98.5 -200t-161.5 -156.5t-210 -102.5t-243 -37q-164 0 -306 57.5t-247.5 161 t-166 248t-60.5 318.5zM145 758q0 -160 55.5 -294t153 -231.5t227.5 -150.5t279 -53q172 0 304 63.5t223.5 164.5t140.5 227t53 253v45q-4 119 -50 245t-137 227.5t-224.5 167t-309.5 65.5q-150 0 -279.5 -53.5t-227 -150.5t-153 -231t-55.5 -294z" />
<glyph unicode="&#x153;" horiz-adv-x="2367" d="M84 541q0 123 43 227t120 181t181 120t227 43q129 0 242 -54t190 -149q45 -59 67 -106t36 -88l4 8q39 117 105.5 190.5t140 116.5t148.5 58.5t134 15.5q123 0 225.5 -46t178.5 -124t118 -180.5t42 -214.5h-1061q6 -129 52 -225.5t117.5 -160t158.5 -95t178 -31.5 q68 0 137 17t129.5 54t107.5 91.5t74 127.5h64q-23 -53 -65 -123.5t-138 -134.5q-78 -47 -155 -66.5t-154 -19.5q-66 0 -146 20.5t-155.5 66.5t-138 121t-93.5 184h-4q-45 -113 -108.5 -188t-135 -120t-148.5 -64.5t-147 -19.5q-123 0 -227 43t-181 120t-120 180.5 t-43 226.5v-2zM141 543q0 -111 39 -205t108.5 -164t163 -108.5t203.5 -38.5q111 0 204 44t160.5 115.5t105.5 164t38 188.5q0 92 -35.5 185t-101 168t-160 121t-211.5 46q-111 0 -204 -39t-162.5 -108.5t-108.5 -164t-39 -204.5zM1227 592h991q-4 63 -35 142t-92 149.5 t-153.5 119t-217.5 48.5q-96 0 -181 -34t-150.5 -95.5t-107.5 -145.5t-54 -184z" />
<glyph unicode="&#x178;" horiz-adv-x="1134" d="M31 1516h67l469 -924l467 924h70l-506 -994v-522h-61v522zM416 1645v237h59v-237h-59zM662 1645v237h59v-237h-59z" />
<glyph unicode="&#x2c6;" d="M168 1307l399 225l402 -225l-54 -31l-348 192l-348 -192z" />
<glyph unicode="&#x2dc;" d="M197 1391q35 29 82 50t118 21q33 0 69 -8t105 -41q29 -16 51.5 -26.5t43 -16.5t41 -9t47.5 -3q41 0 71.5 11t71.5 36l41 -43q-37 -25 -84 -45.5t-98 -20.5q-41 0 -86 9.5t-101 42.5q-35 18 -58.5 29.5t-41.5 17.5t-34.5 8t-37.5 2q-53 0 -95 -18.5t-64 -36.5z" />
<glyph unicode="&#x2000;" horiz-adv-x="974" />
<glyph unicode="&#x2001;" horiz-adv-x="1948" />
<glyph unicode="&#x2002;" horiz-adv-x="974" />
<glyph unicode="&#x2003;" horiz-adv-x="1948" />
<glyph unicode="&#x2004;" horiz-adv-x="649" />
<glyph unicode="&#x2005;" horiz-adv-x="487" />
<glyph unicode="&#x2006;" horiz-adv-x="324" />
<glyph unicode="&#x2007;" horiz-adv-x="324" />
<glyph unicode="&#x2008;" horiz-adv-x="243" />
<glyph unicode="&#x2009;" horiz-adv-x="389" />
<glyph unicode="&#x200a;" horiz-adv-x="108" />
<glyph unicode="&#x2010;" horiz-adv-x="544" d="M0 537v59h545v-59h-545z" />
<glyph unicode="&#x2011;" horiz-adv-x="544" d="M0 537v59h545v-59h-545z" />
<glyph unicode="&#x2012;" horiz-adv-x="544" d="M0 537v59h545v-59h-545z" />
<glyph unicode="&#x2013;" horiz-adv-x="1024" d="M72 537v59h880v-59h-880z" />
<glyph unicode="&#x2014;" horiz-adv-x="2048" d="M72 537v59h1904v-59h-1904z" />
<glyph unicode="&#x2018;" horiz-adv-x="567" d="M184 1516h68l131 -316h-68z" />
<glyph unicode="&#x2019;" horiz-adv-x="567" d="M184 1200l131 316h68l-131 -316h-68z" />
<glyph unicode="&#x201a;" horiz-adv-x="567" d="M184 -147l131 315h68l-131 -315h-68z" />
<glyph unicode="&#x201c;" horiz-adv-x="757" d="M188 1516h68l131 -316h-68zM371 1516h67l131 -316h-67z" />
<glyph unicode="&#x201d;" horiz-adv-x="757" d="M188 1200l131 316h68l-131 -316h-68zM371 1200l131 316h67l-131 -316h-67z" />
<glyph unicode="&#x201e;" horiz-adv-x="757" d="M188 -147l131 315h68l-131 -315h-68zM371 -147l131 315h67l-131 -315h-67z" />
<glyph unicode="&#x2022;" horiz-adv-x="768" d="M72 772q0 63 23.5 120.5t65.5 101.5t100 70t126 26q63 0 119.5 -26t98.5 -69t66.5 -100t24.5 -123t-24.5 -124t-67.5 -101t-99 -67.5t-120 -24.5q-66 0 -123 25.5t-99 68.5t-66.5 100.5t-24.5 122.5z" />
<glyph unicode="&#x2026;" horiz-adv-x="2048" d="M311 0v168h62v-168h-62zM993 0v168h62v-168h-62zM1675 0v168h62v-168h-62z" />
<glyph unicode="&#x202f;" horiz-adv-x="389" />
<glyph unicode="&#x2039;" horiz-adv-x="507" d="M109 563l227 398l41 -54l-197 -344l197 -338l-41 -53z" />
<glyph unicode="&#x203a;" horiz-adv-x="507" d="M131 225l197 338l-197 344l41 54l227 -398l-227 -391z" />
<glyph unicode="&#x205f;" horiz-adv-x="487" />
<glyph unicode="&#x20ac;" d="M0 618l23 56h137v219h-160l23 55h137v94q0 123 39 216.5t105.5 157t155.5 95t189 31.5q133 0 253 -58.5t206 -180.5l-35 -54q-66 106 -170 172t-256 66q-92 0 -170 -31t-134 -87t-89 -138t-33 -182v-101h733l-22 -55h-711v-219h623l-23 -56h-600v-163q0 -102 35 -181 t93.5 -133.5t135 -83t162.5 -28.5q78 0 144.5 21.5t119 60.5t89 92t55.5 119h61q-20 -86 -66 -151t-108.5 -109t-137.5 -66.5t-153 -22.5t-164 25t-158.5 82t-120.5 148t-48 227v163h-160z" />
<glyph unicode="&#x2122;" horiz-adv-x="2027" d="M18 1466l2 50h564v-50h-256v-860h-56v860h-254zM713 606v910h75l426 -824l428 824h74v-910h-55v830h-4l-426 -830h-33l-426 828h-4v-828h-55z" />
<glyph unicode="&#xe000;" horiz-adv-x="1085" d="M0 0v1085h1085v-1085h-1085z" />
<glyph unicode="&#xfb01;" horiz-adv-x="804" d="M14 1032v53h179v107q0 18 2 51t11 70t29.5 75.5t58.5 71.5t95 55.5t143 26.5v-55q-29 -2 -76.5 -9.5t-94 -35t-80 -85t-31.5 -159.5v-113h395v-1085h-57v1032h-338v-1032h-57v1032h-179zM588 1329v187h57v-187h-57z" />
<glyph unicode="&#xfb02;" horiz-adv-x="804" d="M14 1032v53h179v107q0 18 2 51t11 70t29.5 75.5t58.5 71.5t95 55.5t143 26.5v-55q-29 -2 -76.5 -9.5t-94 -35t-80 -85t-31.5 -159.5v-113h338v431h57v-1516h-57v1032h-338v-1032h-57v1032h-179z" />
</font>
</defs>
</svg>
