<?xml version="1.0" standalone="no"?>
<!DOCTYPE svg PUBLIC "-//W3C//DTD SVG 1.1//EN" "http://www.w3.org/Graphics/SVG/1.1/DTD/svg11.dtd" >
<svg xmlns="http://www.w3.org/2000/svg">
<metadata></metadata>
<defs>
<font id="antoniobold" horiz-adv-x="1020" >
<font-face units-per-em="2048" ascent="1638" descent="-410" />
<missing-glyph horiz-adv-x="367" />
<glyph horiz-adv-x="0" />
<glyph horiz-adv-x="682" />
<glyph unicode=" "  horiz-adv-x="367" />
<glyph unicode="&#x09;" horiz-adv-x="367" />
<glyph unicode="&#xa0;" horiz-adv-x="367" />
<glyph unicode="!" horiz-adv-x="514" d="M115 1761h284l-85 -1338h-110zM126 0v256h260v-256h-260z" />
<glyph unicode="&#x22;" horiz-adv-x="944" d="M170 1761h245l-66 -636h-108zM536 1761h244l-66 -636h-108z" />
<glyph unicode="#" horiz-adv-x="1288" d="M140 579v174h160l55 278h-148v173h182l112 558h217l-113 -558h188l112 558h217l-111 -558h123v-173h-157l-55 -278h145v-174h-180l-114 -579h-216l113 579h-188l-113 -579h-216l113 579h-126zM516 752h189l55 276h-189z" />
<glyph unicode="$" horiz-adv-x="902" d="M82 1172q0 347 314 367v221h144v-230q98 -22 154 -90q81 -99 81 -329v-6v-82h-237v99q0 102 -23 151.5t-76.5 49.5t-79 -31t-25.5 -106q0 -119 106 -221l142 -129q219 -204 219 -449q0 -325 -252 -375v-232h-144v224q-154 10 -236 109t-82 330v97h249v-121 q0 -200 102 -200q54 0 78 35.5t24 120.5q0 150 -138 278q-4 4 -64.5 58t-70.5 64q-185 169 -185 397z" />
<glyph unicode="%" horiz-adv-x="2209" d="M130 1005v358q0 223 77.5 320.5t260.5 97.5t260.5 -97.5t77.5 -320.5v-358q0 -220 -80.5 -322.5t-257.5 -102.5t-257.5 102.5t-80.5 322.5zM356 939q0 -92 24.5 -131.5t87.5 -39.5t87.5 39.5t24.5 131.5v492q0 90 -23 126.5t-88.5 36.5t-89 -36.5t-23.5 -126.5v-492z M662 0l685 1761h204l-676 -1761h-213zM1403 404v358q0 223 77.5 320.5t260.5 97.5t261 -97.5t78 -320.5v-358q0 -220 -80.5 -322.5t-258 -102.5t-258 102.5t-80.5 322.5zM1629 338q0 -92 24.5 -131.5t88 -39.5t88 40t24.5 131v492q0 90 -23.5 126.5t-89 36.5t-89 -36.5 t-23.5 -126.5v-492z" />
<glyph unicode="&#x26;" horiz-adv-x="1052" d="M73 356q0 169 80 302.5t198 271.5q-143 370 -143 519t87 240.5t240 91.5t232.5 -89t79.5 -237.5t-61.5 -270t-172.5 -262.5q43 -113 129 -321q96 161 190 273l109 -184q-78 -86 -189 -299q-8 -15 -12 -22q38 -90 92.5 -216t65.5 -153h-248q-13 32 -57 130 q-125 -150 -287.5 -150t-247.5 103.5t-85 272.5zM300 388q36 -136 139 -179q42 0 79 34t79 103q-79 178 -155 360q-142 -190 -142 -318zM451 1441q0 -73 79 -297q132 171 132 294q0 88 -22 125t-79 37q-110 0 -110 -159z" />
<glyph unicode="'" horiz-adv-x="423" d="M100 1761h238l-65 -636h-113z" />
<glyph unicode="(" horiz-adv-x="619" d="M129 313v1061q0 137 20.5 223.5t71 137t123.5 69.5t190 19v-200q-89 0 -114 -46.5t-25 -198.5v-1069q0 -152 25 -198.5t114 -46.5v-200q-117 0 -190 19t-123.5 69.5t-71 137t-20.5 223.5z" />
<glyph unicode=")" horiz-adv-x="619" d="M86 64q89 0 114 46.5t25 198.5v1069q0 152 -25 198.5t-114 46.5v200q117 0 190 -19t123 -69.5t70.5 -137t20.5 -223.5v-1061q0 -137 -20.5 -223.5t-70.5 -137t-123 -69.5t-190 -19v200z" />
<glyph unicode="*" horiz-adv-x="960" d="M91 1400l95 164l234 -173l-34 282h188l-28 -278l228 173l95 -164l-264 -119l264 -127l-95 -163l-228 179l28 -285h-188l35 291l-231 -182l-95 164l260 123z" />
<glyph unicode="+" horiz-adv-x="808" d="M94 654v177h218v231h182v-231h219v-177h-219v-233h-182v233h-218z" />
<glyph unicode="," horiz-adv-x="488" d="M117 0v268h288v-259l-102 -347h-131l70 338h-125z" />
<glyph unicode="-" horiz-adv-x="696" d="M89 661v175h478v-175h-478z" />
<glyph unicode="." horiz-adv-x="532" d="M149 0v246h225v-246h-225z" />
<glyph unicode="/" horiz-adv-x="826" d="M86 0l427 1769h235l-428 -1769h-234z" />
<glyph unicode="0" horiz-adv-x="1010" d="M103 475v841q0 232 95.5 348.5t302.5 116.5t302.5 -116.5t95.5 -348.5v-841q0 -244 -94.5 -370t-303.5 -126t-303.5 126t-94.5 370zM370 470q0 -164 32.5 -212t96 -48t98 49.5t34.5 210.5v857q-1 195 -91 219q-18 4 -57.5 4t-76 -39t-36.5 -183v-858z" />
<glyph unicode="1" horiz-adv-x="676" d="M40 1342v199q85 12 161.5 69t116.5 151h208v-1761h-268v1428q-34 -41 -96 -63.5t-122 -22.5z" />
<glyph unicode="2" horiz-adv-x="951" d="M141 1065v108q0 327 61.5 442t169.5 147q60 18 145 18t153 -38q66 -38 106 -106q78 -133 78 -346.5t-83 -374.5t-164 -286q-148 -229 -192 -419h406v-210h-661v104q0 138 45.5 271.5t142.5 303.5q4 6 73 125t101 164q78 128 78 354.5t-96 226.5q-80 0 -99 -126 q-8 -54 -8 -135v-223h-256z" />
<glyph unicode="3" horiz-adv-x="960" d="M105 474v115h251v-122q0 -145 22.5 -201t98.5 -56t101.5 67.5t25.5 237t-33 241.5t-129 72h-76v204h74q94 0 129 63.5t35 208.5t-29.5 195t-93.5 50t-89.5 -52.5t-25.5 -182.5v-53h-259v55q0 241 85 352.5t284.5 111.5t293.5 -115t94 -349q0 -145 -45 -243.5t-136 -131.5 q100 -47 142 -156t42 -282q0 -264 -93 -393.5t-298.5 -129.5t-288 118.5t-82.5 375.5z" />
<glyph unicode="4" horiz-adv-x="951" d="M90 310v197l387 1254h286v-1235h136v-216h-136v-311h-239v311h-434zM297 526h227v869z" />
<glyph unicode="5" horiz-adv-x="951" d="M122 343v221h251v-193q0 -122 47 -151q18 -11 57 -11h6q88 0 88 173v450q0 96 -20 143.5t-78 47.5q-104 0 -104 -171l-236 10v898h651v-240h-404v-357q19 37 68.5 60t108.5 23q154 0 214 -135.5t60 -430t-20.5 -409t-60.5 -174.5q-77 -117 -279 -117q-349 0 -349 363z " />
<glyph unicode="6" horiz-adv-x="951" d="M102 527v723q0 382 176 482q86 48 224 49q179 0 260.5 -101.5t82.5 -343.5v-91h-250v36q0 159 -18 213t-90 54t-94.5 -58t-22.5 -220v-251q63 84 219 84t224 -125t68 -398v-97q0 -254 -80 -379t-302 -125q-274 1 -351 209q-46 125 -46 339zM370 459q0 -131 28.5 -189 t100.5 -58t97.5 47t25.5 175v167q0 148 -25.5 209t-86.5 61t-97.5 -27.5t-42.5 -66.5v-318z" />
<glyph unicode="7" horiz-adv-x="951" d="M104 1526v235h777v-195q-5 -47 -32 -121.5t-71 -189.5q-239 -624 -278 -1254h-292q24 342 103.5 627t143 469t90 259.5t42 118t17.5 51.5h-500z" />
<glyph unicode="8" horiz-adv-x="951" d="M92 565.5q0 127.5 40 237.5t109 158q-141 100 -141 380q0 231 89.5 335.5t291 104.5t288.5 -102t87 -338q0 -283 -140 -380q66 -48 104 -159t38 -245v-121q-2 -233 -94.5 -345t-284.5 -112t-287.5 111.5t-98.5 340.5q-1 7 -1 134.5zM360 438q1 -129 24 -179.5t94.5 -50.5 t91.5 50.5t20 183.5v144q0 270 -110 270q-55 0 -87.5 -70t-32.5 -201v-147zM368 1311q0 -205 50 -255q22 -22 60 -22q0 -1 1 -1q37 0 59 23q23 23 37 86t14 175q0 111 -11.5 166.5t-33.5 72.5t-65 17t-65 -19q-46 -38 -46 -243z" />
<glyph unicode="9" horiz-adv-x="951" d="M67 1184v64q0 328 113 441q92 92 262.5 92t251 -65.5t105 -181.5t24.5 -301v-703q0 -299 -89 -424.5t-277 -125.5t-275 103t-88 340v96h253v-37q1 -163 22.5 -217.5t81.5 -54.5t74 24.5t23 48t9 155.5v263q-55 -37 -163 -37q-178 0 -252.5 129t-74.5 391zM329 1144 q0 -146 23.5 -203t91.5 -57q99 0 113 86v334q0 130 -23.5 187t-90 57t-90.5 -58t-24 -189v-157z" />
<glyph unicode=":" horiz-adv-x="555" d="M136 270v269h283v-269h-283zM136 1038v269h283v-269h-283z" />
<glyph unicode=";" horiz-adv-x="561" d="M126 944v306h301v-306h-301zM132 255v278h303v-269l-109 -371h-142l78 362h-130z" />
<glyph unicode="&#x3c;" horiz-adv-x="730" d="M65 607v292l573 365v-275l-396 -236l396 -243v-272z" />
<glyph unicode="=" horiz-adv-x="722" d="M104 549v189h514v-189h-514zM104 892v184h514v-184h-514z" />
<glyph unicode="&#x3e;" horiz-adv-x="730" d="M90 238v275l396 236l-396 243v272l574 -366v-293z" />
<glyph unicode="?" horiz-adv-x="897" d="M120 1160v216q0 405 345 405q188 0 265 -96q51 -63 68 -160t17 -225v-28v-22v-18q0 -70 -7 -138q-19 -180 -90 -271q-73 -93 -231 -139v-190h-236v316q92 24 130 45.5t59.5 36t47.5 51.5t42.5 106.5t16.5 234.5v66q0 126 -7 144.5t-19 36.5t-45 18q-79 0 -89 -75 q-6 -48 -6 -138v-176h-261zM257 1v298h232v-298h-232z" />
<glyph unicode="@" horiz-adv-x="1492" d="M97 836q0 602 314 828q162 116 402 116q287 0 435 -226.5t148 -643.5q0 -250 -69 -391t-213 -141q-64 0 -120 58.5t-79 160.5q-19 -111 -70.5 -173.5t-125.5 -62.5q-119 0 -196.5 109t-77.5 330.5t72.5 352t199.5 130.5q59 0 107 -35t72 -87l31 122h129v-544 q0 -99 16.5 -147t55 -48t58.5 36q40 70 41 362q0 667 -427 667q-257 0 -382 -202t-125 -575.5t110.5 -547.5t335.5 -174q101 0 193 28l27 -168q-143 -29 -223 -29q-307 0 -473 221t-166 674zM618 804q0 -257 130 -257q58 0 99 58.5t41 153.5v303q-74 38 -127 38 q-143 0 -143 -296z" />
<glyph unicode="A" horiz-adv-x="976" d="M52 0l251 1760h354l267 -1760h-250l-42 314h-284l-38 -314h-258zM374 529h230l-118 884h-4z" />
<glyph unicode="B" horiz-adv-x="996" d="M142 0v1760h381q197 0 279 -91.5t83 -306.5v-54q0 -284 -154 -349q188 -63 188 -415v-45q-2 -265 -92.5 -382t-295.5 -117h-389zM410 208h95q80 0 112 55t32 197v142q0 134 -26 189.5t-100 55.5h-113v-639zM410 1048h99q69 0 90.5 44t21.5 181v106q-1 102 -28 136.5 t-93 34.5h-90v-502z" />
<glyph unicode="C" horiz-adv-x="961" d="M110 486v767q0 393 206 491q76 36 184 36q371 0 371 -468v-242h-259v225q0 136 -23 194.5t-90 58.5t-93 -62t-26 -190v-822q0 -142 25 -203t91 -61t91 62t25 205v252h263v-249q0 -255 -91 -377.5t-286 -122.5t-291.5 130.5t-96.5 375.5z" />
<glyph unicode="D" horiz-adv-x="1005" d="M131 0v1760h395q194 0 281.5 -114.5t87.5 -337.5l1 -794q0 -266 -88 -390t-291 -124h-386zM399 208h88q74 0 107.5 48t33.5 176l-1 869q0 137 -33.5 195t-115.5 58h-79v-1346z" />
<glyph unicode="E" horiz-adv-x="816" d="M132 0v1760h590v-231h-322v-512h306v-226h-306v-560h334v-231h-602z" />
<glyph unicode="F" horiz-adv-x="796" d="M131 0v1760h604v-233h-336v-468h312v-234h-312v-825h-268z" />
<glyph unicode="G" horiz-adv-x="1000" d="M110 515v765q0 244 95.5 372t303.5 128q259 0 329 -193q42 -116 42 -317v-125h-250v184q0 121 -25.5 170t-96 49t-99.5 -58.5t-29 -207.5v-763q0 -173 26 -241t101.5 -68t107 73t31.5 246v237h-135v195h369v-961h-120l-41 173q-21 -89 -92 -140t-164 -51 q-166 0 -259.5 130.5t-93.5 402.5z" />
<glyph unicode="H" horiz-adv-x="1040" d="M132 0v1760h268v-712h240v712h268v-1760h-268v818h-240v-818h-268z" />
<glyph unicode="I" horiz-adv-x="552" d="M142 0v1760h268v-1760h-268z" />
<glyph unicode="J" horiz-adv-x="922" d="M68 389v314h259v-301q0 -146 47 -178q21 -14 52 -14q61 0 80.5 50t19.5 158v1342h268v-1329q0 -216 -95 -333.5t-267.5 -117.5t-268 104.5t-95.5 304.5z" />
<glyph unicode="K" horiz-adv-x="970" d="M132 0v1760h268v-810l268 810h277l-292 -868l315 -892h-283l-283 822v-822h-270z" />
<glyph unicode="L" horiz-adv-x="761" d="M132 0v1760h268v-1532h339v-228h-607z" />
<glyph unicode="M" horiz-adv-x="1418" d="M132 0v1760h333l250 -1286l235 1286h335v-1760h-239v656l10 602l-237 -1250h-213l-247 1250l10 -602v-656h-237z" />
<glyph unicode="N" horiz-adv-x="1069" d="M132 0v1760h210l373 -1056l-19 480v576h241v-1760h-190l-383 1093l15 -462v-631h-247z" />
<glyph unicode="O" horiz-adv-x="999" d="M110 492v805q0 484 395 484q204 0 293.5 -123t89.5 -361v-805q0 -258 -92 -385t-294.5 -127t-297 127.5t-94.5 384.5zM380 489q0 -155 23.5 -216t96.5 -61t96 62.5t23 214.5v820q0 125 -23.5 182.5t-92 57.5t-96 -57.5t-27.5 -181.5v-821z" />
<glyph unicode="P" horiz-adv-x="944" d="M132 0v1760h404q205 0 280.5 -124.5t79.5 -371.5v-37q0 -262 -74.5 -397.5t-276.5 -135.5h-145v-694h-268zM400 915h92q85 0 110.5 65.5t25.5 249.5v34q-1 156 -27.5 223t-106.5 67h-94v-639z" />
<glyph unicode="Q" horiz-adv-x="1009" d="M110 492v805q0 484 395 484q204 0 293.5 -123t89.5 -361v-805q0 -383 -204 -477l164 -192l-132 -115l-251 273q-175 11 -265 132.5t-90 378.5zM380 489q0 -155 23.5 -216t96.5 -61t96 62.5t23 214.5v820q0 125 -23.5 182.5t-92 57.5t-96 -57.5t-27.5 -181.5v-821z" />
<glyph unicode="R" horiz-adv-x="1010" d="M132 0v1760h443q138 0 206 -55.5t89.5 -155t21.5 -260t-34 -244.5t-126 -113q91 -16 127 -123t36 -445.5t10 -363.5h-268q-10 20 -10 631q0 117 -28 155.5t-113 40.5l-86 4v-831h-268zM401 1039h107q51 0 75.5 23t34 79t9.5 171v11q0 143 -24 187t-111 44h-91v-515z" />
<glyph unicode="S" horiz-adv-x="905" d="M95 1351q0 218 84 324t289 106t277.5 -123.5t72.5 -360.5v-109h-247v126q0 128 -22 183.5t-84.5 55.5t-90 -42t-27.5 -126t28 -134t101 -128l145 -157q109 -118 164.5 -239t55.5 -264q0 -247 -83 -365t-290.5 -118t-289 131.5t-81.5 383.5v157h254v-177q0 -147 25 -206.5 t94 -59.5t91.5 49t22.5 160t-40 193.5t-127 172.5l-130 134q-91 95 -141.5 197t-50.5 236z" />
<glyph unicode="T" horiz-adv-x="703" d="M16 1528v232h671v-232h-198v-1528h-267v1528h-206z" />
<glyph unicode="U" d="M122 452v1309h268v-1304q0 -139 13 -169t31.5 -54.5t76.5 -24.5t83 34t30.5 84.5t5.5 129.5v1304h268v-1309q0 -243 -92 -357.5t-295.5 -114.5t-296 115t-92.5 357z" />
<glyph unicode="V" horiz-adv-x="966" d="M56 1760h255l115 -795l71 -560h7l61 560l96 795h250l-251 -1760h-331z" />
<glyph unicode="W" horiz-adv-x="1388" d="M60 1760h240l129 -1254l164 1254h216l165 -1254l114 1254h241l-202 -1760h-267l-156 1170l-162 -1170h-267z" />
<glyph unicode="X" horiz-adv-x="879" d="M35 0l271 944l-270 816h226l175 -523l141 523h251l-266 -901l287 -859h-232l-179 541l-145 -541h-259z" />
<glyph unicode="Y" horiz-adv-x="862" d="M9 1760h256l174 -658h4l155 658h255l-281 -1057v-703h-268v703z" />
<glyph unicode="Z" horiz-adv-x="810" d="M98 0v238l365 1291h-332v231h613v-217l-365 -1312h357v-231h-638z" />
<glyph unicode="[" horiz-adv-x="764" d="M179 0v1761h471v-209h-205v-1343h205v-209h-471z" />
<glyph unicode="\" horiz-adv-x="868" d="M96 1761h238l410 -1761h-237z" />
<glyph unicode="]" horiz-adv-x="764" d="M135 0v209h205v1343h-205v209h471v-1761h-471z" />
<glyph unicode="^" horiz-adv-x="1030" d="M114 576l241 923h319l241 -923h-256l-144 712l-144 -712h-257z" />
<glyph unicode="_" horiz-adv-x="748" d="M48 -28h651v-183h-651v183z" />
<glyph unicode="`" horiz-adv-x="650" d="M104 1002v265l413 -203v-156z" />
<glyph unicode="a" horiz-adv-x="981" d="M107 394v96q0 192 104 291q67 65 227 126q29 11 80.5 30t72.5 27v131q0 122 -17.5 165.5t-80 43.5t-83.5 -46t-21 -155v-67h-262v45q0 213 79.5 325t282 112t288 -112t85.5 -336v-1070h-267v149q-20 -69 -76.5 -116.5t-136.5 -47.5q-147 0 -210 105.5t-65 303.5zM377 392 q0 -105 22 -150.5t71.5 -45.5t81 33.5t39.5 75.5v509q-126 -56 -170 -106t-44 -155v-161z" />
<glyph unicode="b" horiz-adv-x="996" d="M132 0v1775h265v-383q22 56 77 91t119 35q192 0 253 -172q39 -110 39 -277v-635v-4q0 -325 -145 -412q-54 -33 -126 -33h-5q-153 2 -212 155v-140h-265zM397 456q0 -136 24 -197.5t91.5 -61.5t87 59.5t19.5 202.5v614q0 179 -47 215q-21 16 -54 16q-65 0 -93 -50 t-28 -180v-618z" />
<glyph unicode="c" horiz-adv-x="943" d="M110 500v486q0 327 114 441q91 91 275 91t266 -111.5t82 -321.5v-165h-256v174q0 137 -24.5 172t-82.5 35t-82.5 -52t-24.5 -159v-676q0 -111 22.5 -163t87.5 -52q89 1 101 125q3 29 3 68v21v178h256v-152q0 -220 -82 -338.5t-271 -118.5q-225 0 -304.5 133t-79.5 385z " />
<glyph unicode="d" horiz-adv-x="998" d="M110 479v611q0 188 69 308t228 120q62 0 113.5 -30t80.5 -81v368h265v-1775h-265v139q-60 -154 -215 -154q-121 0 -181 68t-77.5 172.5t-17.5 253.5zM377 443q0 -124 23.5 -185.5t88 -61.5t89 61.5t24.5 205.5v600q0 185 -56 224q-24 16 -58 16q-67 0 -89 -61t-22 -182 v-617z" />
<glyph unicode="e" horiz-adv-x="958" d="M110 499v559q0 460 383 460q204 0 282.5 -121t78.5 -344v-321h-477v-295q0 -156 27 -198.5t81 -42.5t70 25q27 44 31 90t4 126v132h262v-80q0 -204 -32 -293t-74 -129q-88 -85 -264 -85q-253 0 -326 193q-46 123 -46 324zM376 887h214v192q0 123 -19.5 176.5t-79.5 53.5 h-1q-104 0 -112 -159q-2 -30 -2 -78v-185z" />
<glyph unicode="f" horiz-adv-x="637" d="M57 1250v191h117v78q0 126 65.5 195.5t174.5 69.5t176 -25v-166q-30 4 -70 4q-82 0 -82 -86v-70h152v-191h-152v-1250h-265v1250h-116z" />
<glyph unicode="g" horiz-adv-x="990" d="M100 -118l93 167q119 -76 222 -76t144 52t41 140v119q-25 -72 -76.5 -101.5t-131.5 -29.5q-157 0 -217.5 117t-60.5 312v483q0 453 284 453h4q156 0 198 -151v133h265v-1315q0 -192 -93.5 -301t-316 -109t-355.5 107zM381 594q0 -123 23.5 -181.5t85 -58.5t86 52.5 t24.5 189.5v491q0 105 -25.5 161t-90.5 56t-84 -57.5t-19 -158.5v-494z" />
<glyph unicode="h" horiz-adv-x="1016" d="M132 0v1775h265v-447q21 81 83 135.5t150 54.5q130 0 197 -86.5t67 -250.5v-1181h-264v1156q0 145 -106 145q-61 0 -94 -50t-33 -136v-1115h-265z" />
<glyph unicode="i" horiz-adv-x="534" d="M133 1638v230h267v-230h-267zM136 0v1500h265v-1500h-265z" />
<glyph unicode="j" horiz-adv-x="564" d="M61 3q17 -4 45 -1q63 3 63 67v1431h265v-1421q0 -137 -55.5 -205t-156.5 -70q-18 -1 -78 -1t-83 17v183zM165 1638v230h267v-230h-267z" />
<glyph unicode="k" horiz-adv-x="937" d="M132 0v1775h265v-957l256 682h269l-289 -738l306 -762h-270l-272 713v-713h-265z" />
<glyph unicode="l" horiz-adv-x="534" d="M135 0v1775h264v-1775h-264z" />
<glyph unicode="m" horiz-adv-x="1505" d="M132 0v1500h265v-163q23 84 83 132.5t157 48.5q166 0 222 -151q81 151 255 151q141 0 204.5 -94t63.5 -275v-1149h-264v1152q0 149 -101 149q-61 0 -94 -42t-33 -121v-1138h-265v1154q0 147 -98 147q-65 0 -97.5 -49.5t-32.5 -127.5v-1124h-265z" />
<glyph unicode="n" d="M132 0v1500h265v-172q20 80 86 135t155 55q260 0 260 -337v-1181h-265v1165q0 65 -29.5 102t-85.5 37t-88.5 -48t-32.5 -129v-1127h-265z" />
<glyph unicode="o" horiz-adv-x="970" d="M110 476v561q0 481 375 481t375 -481v-561q0 -375 -193 -461q-74 -33 -181 -33q-212 0 -294 127t-82 367zM377 413q0 -165 54 -202q22 -15 55 -15q62 0 84.5 54.5t22.5 162.5v671q0 110 -23 165t-85 55t-85 -54.5t-23 -165.5v-671z" />
<glyph unicode="p" horiz-adv-x="998" d="M132 -285v1785h265v-135q28 71 89 110.5t127.5 39.5t116.5 -24q93 -45 125.5 -158.5t32.5 -284.5v-547q0 -264 -51 -367.5t-137 -133.5q-50 -18 -110.5 -18t-111 31t-81.5 78v-376h-265zM397 439q0 -125 24 -183.5t90 -58.5t88 60.5t22 192.5v622q0 180 -49 216 q-22 16 -56 16q-60 0 -89.5 -49.5t-29.5 -181.5v-634z" />
<glyph unicode="q" horiz-adv-x="991" d="M110 481v567q0 467 273 467q158 0 214 -129v114h265v-1785h-265v387q-21 -50 -73 -85t-119 -35t-121 25q-100 47 -137 168t-37 306zM376 436q0 -186 46 -223q22 -17 56 -17q64 0 91.5 51.5t27.5 181.5v634q0 126 -26 183t-91 57t-84.5 -61t-19.5 -184v-622z" />
<glyph unicode="r" horiz-adv-x="688" d="M132 0v1500h267v-167q26 88 91.5 136.5t163.5 48.5q4 0 4 -168l-1 -56q-80 0 -157 -27t-101 -77v-1190h-267z" />
<glyph unicode="s" horiz-adv-x="867" d="M82 1150q0 368 354 368q176 0 257.5 -100.5t81.5 -334.5v-82h-237v99q0 102 -23 151.5t-76.5 49.5t-79 -31t-25.5 -106q0 -119 106 -221l142 -129q219 -204 219 -449q0 -192 -87 -288t-270 -96t-270 104.5t-87 335.5v97h249v-121q0 -200 102 -200q54 0 78 35.5t24 120.5 q0 150 -138 278q-4 4 -64.5 58t-70.5 64q-185 169 -185 397z" />
<glyph unicode="t" horiz-adv-x="645" d="M47 1277v192h122v292h265v-292h146v-192h-146v-1002q0 -53 27.5 -68t123.5 -15v-202h-180q-140 0 -188 53.5t-48 185.5v1048h-122z" />
<glyph unicode="u" horiz-adv-x="1015" d="M122 340v1160h266v-1119q0 -93 23 -137.5t86 -44.5q121 0 121 180l1 1121h264v-1500h-265v156q-63 -175 -229 -175q-267 0 -267 359z" />
<glyph unicode="v" horiz-adv-x="834" d="M38 1500h250l97 -798l33 -359h20l28 360l83 797h248l-217 -1500h-325z" />
<glyph unicode="w" horiz-adv-x="1251" d="M44 1500h223l76 -633l34 -322h6l33 323l89 632h236l98 -620l42 -335h6l29 334l67 621h222l-190 -1500h-232l-152 1127l-162 -1127h-224z" />
<glyph unicode="x" horiz-adv-x="820" d="M17 0l267 783l-250 717h235l154 -433l132 433h234l-254 -745l269 -755h-246l-157 449l-139 -449h-245z" />
<glyph unicode="y" horiz-adv-x="852" d="M42 1501h252l96 -768l40 -404h22l36 404l88 768h251l-260 -1565q-17 -113 -57 -157t-140 -44h-282v183h87q50 0 77.5 8t30.5 32q6 10 6 37t-7 73z" />
<glyph unicode="z" horiz-adv-x="727" d="M70 0v200l330 1073h-305v227h574v-191l-328 -1087h314v-222h-585z" />
<glyph unicode="{" horiz-adv-x="798" d="M133 710v240q71 0 96 20t34 58t9 140v275q0 193 76.5 265.5t265.5 72.5h60v-199q-89 0 -114 -28.5t-25 -123.5v-246q0 -131 -12.5 -197t-45 -101t-101.5 -56q69 -21 101.5 -56t45 -101t12.5 -197v-246q0 -95 25 -123.5t114 -28.5v-199h-60q-189 0 -265.5 72.5 t-76.5 265.5v275q0 163 -34 190.5t-105 27.5z" />
<glyph unicode="|" horiz-adv-x="537" d="M150 -84v1947h243v-1947h-243z" />
<glyph unicode="}" horiz-adv-x="798" d="M133 78q89 0 114 28.5t25 123.5v246q0 131 12.5 197t45.5 101t102 56q-69 21 -102 56t-45.5 101t-12.5 197v246q0 95 -25 123.5t-114 28.5v199h60q189 0 265.5 -72.5t76.5 -265.5v-275q0 -163 34 -190.5t105 -27.5v-240q-71 0 -96 -20t-34 -58t-9 -140v-275 q0 -193 -76.5 -265.5t-265.5 -72.5h-60v199z" />
<glyph unicode="~" horiz-adv-x="1117" d="M100 903q80 266 247 266q57 0 207.5 -48t163.5 -48q70 0 105 110l186 -42q-20 -80 -67.5 -166t-90.5 -125.5t-93 -39.5t-194.5 52t-187.5 52t-62.5 -21t-41.5 -72z" />
<glyph unicode="&#xa1;" horiz-adv-x="525" d="M132 -237l85 1338h110l89 -1338h-284zM145 1268v256h260v-256h-260z" />
<glyph unicode="&#xa2;" horiz-adv-x="788" d="M110 500v486q0 327 114 441q69 69 192 86v253h113v-249q161 -9 239.5 -115.5t78.5 -316.5v-165h-256v174q0 137 -24.5 172t-82.5 35t-82.5 -52t-24.5 -159v-676q0 -111 22.5 -163t87.5 -52q89 1 101 125q3 29 3 68v21v178h256v-152q0 -220 -78 -333t-240 -123v-234h-113 v238q-162 21 -234 141t-72 372z" />
<glyph unicode="&#xa3;" horiz-adv-x="1077" d="M82 0v205q126 55 190.5 157.5t64.5 268.5q0 77 -15 152h-230v190h189q-115 366 -115 416q0 190 106 291t320 101q371 0 371 -400v-135h-244v147v2q0 172 -141 172q-160 0 -161 -153q0 -32 45.5 -192t69.5 -249h333v-190h-283q17 -85 17 -161q0 -150 -48.5 -251.5 t-135.5 -144.5h539v-226h-872z" />
<glyph unicode="&#xa4;" horiz-adv-x="1159" d="M125 659l91 91q-53 98 -53 214.5t52 213.5l-90 90l149 150l87 -88q97 55 218 55t218 -54l87 87l150 -149l-90 -90q54 -97 54 -215t-54 -216l90 -90l-150 -149l-89 88q-92 -52 -216 -52t-216 53l-89 -89zM371 963.5q0 -94.5 57.5 -158.5t150.5 -64t151 65t58 160.5 t-57 157.5t-151 62t-151.5 -64t-57.5 -158.5z" />
<glyph unicode="&#xa5;" horiz-adv-x="866" d="M9 1760h256l174 -658h4l155 658h255l-263 -990h184v-151h-202v-151h202v-153h-202v-315h-268v315h-210v153h210v151h-210v151h191z" />
<glyph unicode="&#xa6;" horiz-adv-x="530" d="M122 -84v808h286v-808h-286zM122 931v830h286v-830h-286z" />
<glyph unicode="&#xa7;" horiz-adv-x="950" d="M107 391h299q0 -102 23 -136.5t63 -34.5q74 0 74 67q0 46 -12.5 65.5t-20.5 31t-24.5 26.5t-28 25t-33 26.5t-34.5 25.5t-38.5 27.5t-75.5 54t-112 106t-62 166.5q0 189 123 302q-60 55 -91.5 132t-31.5 158q0 165 104 256.5t273 91.5t260 -96.5t91 -312.5h-273 q0 97 -18 133.5t-65 36.5q-85 0 -85 -91q0 -78 218 -224q3 -1 4 -2t3 -2t31 -19.5t73 -63t77.5 -114t33.5 -143.5t-43 -149t-109 -136q79 -73 117 -141t38 -164q0 -150 -97.5 -231.5t-278.5 -81.5t-276.5 96t-95.5 315zM381 899.5q0 -52.5 47.5 -95.5t112.5 -69 q45 75 45 121q0 94 -160 161q-45 -65 -45 -117.5z" />
<glyph unicode="&#xa8;" horiz-adv-x="976" d="M105 903v226h282v-226h-282zM589 903v226h282v-226h-282z" />
<glyph unicode="&#xa9;" horiz-adv-x="1466" d="M76 861q0 184 86 334.5t236.5 236.5t334.5 86t334.5 -86t236.5 -236.5t86 -334.5t-86 -334.5t-236.5 -236.5t-334.5 -86t-334.5 86t-236.5 236.5t-86 334.5zM235 861q0 -144 63.5 -265t178.5 -192t256 -71t256 71t178.5 192t63.5 265t-63.5 265t-178.5 192t-256 71 t-256 -71t-178.5 -192t-63.5 -265zM497 647v401q0 256 239 256q102 0 156.5 -50.5t54.5 -149.5v-153h-165v101q0 77 -46 77q-26 0 -35 -16t-9 -48v-409q0 -25 12 -45t32 -20q46 0 46 65v149h169v-163q0 -113 -50.5 -166t-162.5 -53t-176.5 60t-64.5 164z" />
<glyph unicode="&#xaa;" horiz-adv-x="927" d="M166 709v79q0 113 56 208q18 31 77.5 65t91 47t162.5 62v42q0 126 -8 160q-15 65 -67.5 65t-69.5 -35t-17 -121v-58h-208q-1 5 -1 36q0 175 65.5 261.5t225 86.5t227 -89t67.5 -268v-853h-212v110q-12 -44 -59.5 -83t-109.5 -39q-117 0 -167.5 83.5t-52.5 240.5zM381 710 q0 -84 17.5 -120.5t57.5 -36.5t64.5 26.5t31.5 60.5v397q-103 -44 -137 -82t-34 -124v-121z" />
<glyph unicode="&#xab;" horiz-adv-x="1304" d="M88 612v275l491 271v-268l-312 -141l312 -150v-272zM642 612v275l491 271v-268l-312 -141l312 -150v-272z" />
<glyph unicode="&#xac;" horiz-adv-x="947" d="M97 743v236h729v-540h-224v304h-505z" />
<glyph unicode="&#xad;" horiz-adv-x="696" d="M90 509v232h516v-232h-516z" />
<glyph unicode="&#xae;" horiz-adv-x="1502" d="M94 862q0 184 86 334.5t236.5 236.5t334.5 86t334.5 -86t236.5 -236.5t86 -334.5t-86 -334.5t-236.5 -236.5t-334.5 -86t-334.5 86t-236.5 236.5t-86 334.5zM253 862q0 -144 63.5 -265t178.5 -192t256 -71t256 71t178.5 192t63.5 265t-63.5 265t-178.5 192t-256 71 t-256 -71t-178.5 -192t-63.5 -265zM529 430v852h289q101 0 136 -59t35 -155.5t-20.5 -137t-72.5 -57.5q79 -15 79 -122v-321h-184v332q0 35 -15.5 45.5t-56.5 10.5v-388h-190zM720 965h48q37 0 37 65t-15.5 79.5t-69.5 14.5v-159z" />
<glyph unicode="&#xaf;" horiz-adv-x="696" d="M90 926v151h507v-151h-507z" />
<glyph unicode="&#xb0;" horiz-adv-x="915" d="M104 1268.5q0 157.5 95.5 248t257.5 90.5t258 -90.5t96 -247.5t-96 -247.5t-258 -90.5t-257.5 90t-95.5 247.5zM316 1269q0 -67 38.5 -112t103.5 -45t103.5 45t38.5 112t-38.5 112t-103.5 45t-103.5 -45t-38.5 -112z" />
<glyph unicode="&#xb1;" horiz-adv-x="854" d="M118 708v177h218v231h182v-231h220v-177h-220v-233h-182v233h-218zM156 112v183h516v-183h-516z" />
<glyph unicode="&#xb2;" horiz-adv-x="831" d="M182 1368q0 169 22 241q22 71 51 103q62 68 192 68q85 0 141 -46q103 -85 103 -268.5t-87 -337.5q-38 -68 -78 -130q-107 -163 -139 -282h291v-151h-493v62q0 114 97.5 309.5t173.5 289.5q55 88 55 241.5t-72 153.5q-36 0 -55 -37.5t-19 -135.5v-154h-182z" />
<glyph unicode="&#xb3;" horiz-adv-x="856" d="M158 927v78h186v-79q0 -96 17 -133t71 -37t70.5 43t16.5 150.5t-26 157.5t-98 50h-29v140h26q71 3 99 40t28 129t-21.5 125.5t-66 33.5t-62 -35t-17.5 -121l-1 -28h-187l-1 33q1 158 64 231t206 73t211 -75.5t68 -228.5q0 -201 -120 -241q70 -30 96.5 -100t26.5 -188 q0 -172 -69.5 -257.5t-217 -85.5t-209 79t-61.5 246z" />
<glyph unicode="&#xb4;" horiz-adv-x="650" d="M101 1763v156l441 192v-258z" />
<glyph unicode="&#xb6;" horiz-adv-x="1119" d="M109 1437q0 227 195 287q120 37 337 37h332v-1761h-194v1527h-143v-1527h-194v1087q-170 19 -251.5 103t-81.5 247z" />
<glyph unicode="&#xb7;" horiz-adv-x="480" d="M132 750v245h231v-245h-231z" />
<glyph unicode="&#xb8;" horiz-adv-x="1015" d="M317 -501q231 0 231 141q0 64 -46.5 106.5t-113.5 57.5l40 196h82l15 -141q228 -78 228 -264q0 -91 -77.5 -162t-209.5 -71q-78 0 -149 26v111z" />
<glyph unicode="&#xb9;" horiz-adv-x="628" d="M76 1479v130q65 5 135 48t84 102h149v-1195h-206v964q-66 -49 -162 -49z" />
<glyph unicode="&#xba;" horiz-adv-x="908" d="M159 776v446q0 384 305 384q173 0 237.5 -104t64.5 -280v-446q0 -297 -158 -368q-60 -27 -144 -27q-166 0 -235.5 99.5t-69.5 295.5zM375 725q0 -174 91 -174q85 0 85 174v535q0 87 -19 131t-69 44t-69 -43.5t-19 -131.5v-535z" />
<glyph unicode="&#xbb;" horiz-adv-x="1304" d="M151 327v272l312 150l-312 141v268l490 -271v-275zM704 327v272l312 150l-312 141v268l491 -271v-275z" />
<glyph unicode="&#xbc;" horiz-adv-x="1535" d="M90 1419v119q57 5 116.5 45.5t73.5 96.5h132v-1129h-180v915q-56 -47 -142 -47zM423 0l500 1767h189l-500 -1767h-189zM902 192v114l225 759h223v-741h69v-132h-69v-192h-159v192h-289zM1050 324h141v540z" />
<glyph unicode="&#xbd;" horiz-adv-x="1620" d="M90 1419v119q57 5 116.5 45.5t73.5 96.5h132v-1129h-180v915q-56 -47 -142 -47zM423 0l500 1767h189l-500 -1767h-189zM1054 759q0 159 20 227t48 98q59 64 179 64t176 -87t56 -198.5t-23 -190t-59.5 -142t-74.5 -122.5q-99 -152 -131 -270h276v-138h-464v58 q0 105 94 294t162 272q52 82 52 195t-17.5 148t-51.5 35q-71 0 -71 -168v-145h-170z" />
<glyph unicode="&#xbe;" horiz-adv-x="1555" d="M83 899v70h160v-70q0 -92 15 -127t63.5 -35t64 40.5t15.5 142t-23.5 148.5t-87.5 47q-22 0 -25 -1v136h21q42 1 66 13q50 25 50 124q0 101 -21 134q-20 32 -59.5 32t-55.5 -33.5t-16 -115.5l-1 -26h-161v30q0 146 56 214.5t179 68.5q238 0 238 -283q0 -187 -105 -225 q60 -28 84 -94t24 -199.5t-59.5 -212.5t-185.5 -79t-181 74t-55 227zM474 0l500 1767h189l-500 -1767h-189zM922 192v114l225 759h223v-741h69v-132h-69v-192h-159v192h-289zM1070 324h141v540z" />
<glyph unicode="&#xbf;" horiz-adv-x="1044" d="M161 198v28v22v18q0 70 7 138q19 180 90 271q73 93 231 139v190h236v-316q-92 -24 -130 -45.5t-59.5 -36t-47.5 -51.5t-42.5 -106.5t-16.5 -234.5v-66q0 -126 7 -144.5t19 -36.5t45 -18q79 0 89 75q6 48 6 138v176h261v-216q0 -405 -345 -405q-188 0 -265 96 q-51 63 -68 160t-17 225zM487 1199v298h232v-298h-232z" />
<glyph unicode="&#xc0;" horiz-adv-x="976" d="M52 0l251 1760h354l267 -1760h-250l-42 314h-284l-38 -314h-258zM277 1982v265l413 -203v-156zM374 529h230l-118 884h-4z" />
<glyph unicode="&#xc1;" horiz-adv-x="976" d="M52 0l251 1760h354l267 -1760h-250l-42 314h-284l-38 -314h-258zM276 1898v156l441 192v-258zM374 529h230l-118 884h-4z" />
<glyph unicode="&#xc2;" horiz-adv-x="976" d="M52 0l251 1760h354l267 -1760h-250l-42 314h-284l-38 -314h-258zM142 1868l189 337h302l188 -337h-253l-86 236l-86 -236h-254zM374 529h230l-118 884h-4z" />
<glyph unicode="&#xc3;" horiz-adv-x="976" d="M52 0l251 1760h354l267 -1760h-250l-42 314h-284l-38 -314h-258zM147 1959q28 98 75.5 140t104 42t161.5 -37t126 -37h4q17 3 29.5 16.5t26.5 54.5l142 -28l-9 -48q-21 -99 -61.5 -137.5t-98 -38.5t-156.5 41t-127.5 41t-44 -3.5t-42.5 -57.5zM374 529h230l-118 884h-4z " />
<glyph unicode="&#xc4;" horiz-adv-x="976" d="M52 0l251 1760h354l267 -1760h-250l-42 314h-284l-38 -314h-258zM99 1883v226h282v-226h-282zM374 529h230l-118 884h-4zM583 1883v226h282v-226h-282z" />
<glyph unicode="&#xc5;" horiz-adv-x="976" d="M52 0l251 1760h354l267 -1760h-250l-42 314h-284l-38 -314h-258zM248 2110q0 98 63 161t170.5 63t170 -63t62.5 -161t-62.5 -161t-170 -63t-170.5 63t-63 161zM363 2111q0 -53 31.5 -92t87.5 -39t87.5 39t31.5 92t-31.5 91.5t-87.5 38.5t-87.5 -38.5t-31.5 -91.5z M374 529h230l-118 884h-4z" />
<glyph unicode="&#xc6;" horiz-adv-x="1246" d="M52 0l314 1761h786v-232h-278v-512h262v-232h-262v-554h290v-231h-558v314h-240l-54 -314h-260zM396 512h210v1018l-35 -1z" />
<glyph unicode="&#xc7;" horiz-adv-x="961" d="M110 486v767q0 393 206 491q76 36 184 36q371 0 371 -468v-242h-259v225q0 136 -23 194.5t-90 58.5t-93 -62t-26 -190v-822q0 -142 25 -203t91 -61t91 62t25 205v252h263v-249q0 -255 -91 -377.5t-286 -122.5t-291.5 130.5t-96.5 375.5zM291 -501q231 0 231 141 q0 64 -46.5 106.5t-113.5 57.5l40 196h82l15 -141q228 -78 228 -264q0 -91 -77.5 -162t-209.5 -71q-78 0 -149 26v111z" />
<glyph unicode="&#xc8;" horiz-adv-x="816" d="M132 0v1760h590v-231h-322v-512h306v-226h-306v-560h334v-231h-602zM234 1982v265l413 -203v-156z" />
<glyph unicode="&#xc9;" horiz-adv-x="816" d="M132 0v1760h590v-231h-322v-512h306v-226h-306v-560h334v-231h-602zM233 1898v156l441 192v-258z" />
<glyph unicode="&#xca;" horiz-adv-x="816" d="M99 1868l189 337h302l188 -337h-253l-86 236l-86 -236h-254zM132 0v1760h590v-231h-322v-512h306v-226h-306v-560h334v-231h-602z" />
<glyph unicode="&#xcb;" horiz-adv-x="816" d="M56 1883v226h282v-226h-282zM132 0v1760h590v-231h-322v-512h306v-226h-306v-560h334v-231h-602zM540 1883v226h282v-226h-282z" />
<glyph unicode="&#xcc;" horiz-adv-x="552" d="M71 1982v265l413 -203v-156zM142 0v1760h268v-1760h-268z" />
<glyph unicode="&#xcd;" horiz-adv-x="552" d="M70 1898v156l441 192v-258zM142 0v1760h268v-1760h-268z" />
<glyph unicode="&#xce;" horiz-adv-x="552" d="M-64 1868l189 337h302l188 -337h-253l-86 236l-86 -236h-254zM142 0v1760h268v-1760h-268z" />
<glyph unicode="&#xcf;" horiz-adv-x="552" d="M-107 1883v226h282v-226h-282zM142 0v1760h268v-1760h-268zM377 1883v226h282v-226h-282z" />
<glyph unicode="&#xd0;" horiz-adv-x="1005" d="M58 848v175h478v-175h-478zM131 0v1760h395q194 0 281.5 -114.5t87.5 -337.5l1 -794q0 -266 -88 -390t-291 -124h-386zM399 208h88q74 0 107.5 48t33.5 176l-1 869q0 137 -33.5 195t-115.5 58h-79v-1346z" />
<glyph unicode="&#xd1;" horiz-adv-x="1069" d="M132 0v1760h210l373 -1056l-19 480v576h241v-1760h-190l-383 1093l15 -462v-631h-247zM200 1959q28 98 75.5 140t104 42t161.5 -37t126 -37h4q17 3 29.5 16.5t26.5 54.5l142 -28l-9 -48q-21 -99 -61.5 -137.5t-98 -38.5t-156.5 41t-127.5 41t-44 -3.5t-42.5 -57.5z" />
<glyph unicode="&#xd2;" horiz-adv-x="999" d="M110 492v805q0 484 395 484q204 0 293.5 -123t89.5 -361v-805q0 -258 -92 -385t-294.5 -127t-297 127.5t-94.5 384.5zM294 1986v265l413 -203v-156zM380 489q0 -155 23.5 -216t96.5 -61t96 62.5t23 214.5v820q0 125 -23.5 182.5t-92 57.5t-96 -57.5t-27.5 -181.5v-821z " />
<glyph unicode="&#xd3;" horiz-adv-x="999" d="M110 492v805q0 484 395 484q204 0 293.5 -123t89.5 -361v-805q0 -258 -92 -385t-294.5 -127t-297 127.5t-94.5 384.5zM294 1902v156l441 192v-258zM380 489q0 -155 23.5 -216t96.5 -61t96 62.5t23 214.5v820q0 125 -23.5 182.5t-92 57.5t-96 -57.5t-27.5 -181.5v-821z " />
<glyph unicode="&#xd4;" horiz-adv-x="999" d="M110 492v805q0 484 395 484q204 0 293.5 -123t89.5 -361v-805q0 -258 -92 -385t-294.5 -127t-297 127.5t-94.5 384.5zM159 1872l189 337h302l188 -337h-253l-86 236l-86 -236h-254zM380 489q0 -155 23.5 -216t96.5 -61t96 62.5t23 214.5v820q0 125 -23.5 182.5t-92 57.5 t-96 -57.5t-27.5 -181.5v-821z" />
<glyph unicode="&#xd5;" horiz-adv-x="999" d="M110 492v805q0 484 395 484q204 0 293.5 -123t89.5 -361v-805q0 -258 -92 -385t-294.5 -127t-297 127.5t-94.5 384.5zM164 1963q28 98 75.5 140t104 42t161.5 -37t126 -37h4q17 3 29.5 16.5t26.5 54.5l142 -28l-9 -48q-21 -99 -61.5 -137.5t-98 -38.5t-156.5 41 t-127.5 41t-44 -3.5t-42.5 -57.5zM380 489q0 -155 23.5 -216t96.5 -61t96 62.5t23 214.5v820q0 125 -23.5 182.5t-92 57.5t-96 -57.5t-27.5 -181.5v-821z" />
<glyph unicode="&#xd6;" horiz-adv-x="999" d="M110 492v805q0 484 395 484q204 0 293.5 -123t89.5 -361v-805q0 -258 -92 -385t-294.5 -127t-297 127.5t-94.5 384.5zM116 1887v226h282v-226h-282zM380 489q0 -155 23.5 -216t96.5 -61t96 62.5t23 214.5v820q0 125 -23.5 182.5t-92 57.5t-96 -57.5t-27.5 -181.5v-821z M600 1887v226h282v-226h-282z" />
<glyph unicode="&#xd7;" horiz-adv-x="710" d="M44 478l147 147l-147 147l164 164l147 -147l147 147l164 -164l-147 -147l147 -147l-164 -164l-147 147l-147 -147z" />
<glyph unicode="&#xd8;" horiz-adv-x="900" d="M94 -166l101 287q-85 127 -85 371v805q0 484 395 484q158 0 247 -74l70 199l107 -36l-96 -271q55 -116 55 -302v-805q0 -258 -92 -385t-294 -127q-136 0 -223 57l-86 -243zM380 648l239 680q-2 111 -24.5 166t-91 55t-96 -57.5t-27.5 -181.5v-662zM388 343q6 -44 16 -70 q24 -61 96.5 -61t95.5 62.5t23 214.5v507z" />
<glyph unicode="&#xd9;" d="M122 452v1309h268v-1304q0 -139 13 -169t31.5 -54.5t76.5 -24.5t83 34t30.5 84.5t5.5 129.5v1304h268v-1309q0 -243 -92 -357.5t-295.5 -114.5t-296 115t-92.5 357zM305 1979v265l413 -203v-156z" />
<glyph unicode="&#xda;" d="M122 452v1309h268v-1304q0 -139 13 -169t31.5 -54.5t76.5 -24.5t83 34t30.5 84.5t5.5 129.5v1304h268v-1309q0 -243 -92 -357.5t-295.5 -114.5t-296 115t-92.5 357zM309 1896v156l441 192v-258z" />
<glyph unicode="&#xdb;" d="M122 452v1309h268v-1304q0 -139 13 -169t31.5 -54.5t76.5 -24.5t83 34t30.5 84.5t5.5 129.5v1304h268v-1309q0 -243 -92 -357.5t-295.5 -114.5t-296 115t-92.5 357zM175 1865l189 337h302l188 -337h-253l-86 236l-86 -236h-254z" />
<glyph unicode="&#xdc;" d="M122 452v1309h268v-1304q0 -139 13 -169t31.5 -54.5t76.5 -24.5t83 34t30.5 84.5t5.5 129.5v1304h268v-1309q0 -243 -92 -357.5t-295.5 -114.5t-296 115t-92.5 357zM132 1880v226h282v-226h-282zM616 1880v226h282v-226h-282z" />
<glyph unicode="&#xdd;" horiz-adv-x="862" d="M9 1760h256l174 -658h4l155 658h255l-281 -1057v-703h-268v703zM229 1898v156l441 192v-258z" />
<glyph unicode="&#xde;" horiz-adv-x="982" d="M146 0v1761h268v-264h136q207 0 281.5 -130.5t78.5 -385.5v-28q0 -415 -180 -509q-69 -36 -171 -36h-145v-408h-268zM414 630h92q84 0 110 70t26 255v24q0 164 -26.5 237.5t-107.5 73.5h-94v-660z" />
<glyph unicode="&#xdf;" horiz-adv-x="1032" d="M135 0v1417q0 188 85 276t289 88t295.5 -82.5t91.5 -281.5v-197q0 -118 -36 -182.5t-123 -92.5q123 -29 171 -121.5t48 -270.5v-77q0 -188 -32 -272q-34 -84 -74 -123q-86 -81 -257 -81h-104v212q122 0 164 36.5t42 146.5v261q0 100 -42.5 138t-154.5 38v200 q77 0 107 32.5t30 105.5v268q0 69 -26.5 96.5t-89 27.5t-91 -28.5t-28.5 -95.5v-1438h-265z" />
<glyph unicode="&#xe0;" horiz-adv-x="981" d="M107 394v96q0 192 104 291q67 65 227 126q29 11 80.5 30t72.5 27v131q0 122 -17.5 165.5t-80 43.5t-83.5 -46t-21 -155v-67h-262v45q0 213 79.5 325t282 112t288 -112t85.5 -336v-1070h-267v149q-20 -69 -76.5 -116.5t-136.5 -47.5q-147 0 -210 105.5t-65 303.5z M305 1722v265l413 -203v-156zM377 392q0 -105 22 -150.5t71.5 -45.5t81 33.5t39.5 75.5v509q-126 -56 -170 -106t-44 -155v-161z" />
<glyph unicode="&#xe1;" horiz-adv-x="981" d="M107 394v96q0 192 104 291q67 65 227 126q29 11 80.5 30t72.5 27v131q0 122 -17.5 165.5t-80 43.5t-83.5 -46t-21 -155v-67h-262v45q0 213 79.5 325t282 112t288 -112t85.5 -336v-1070h-267v149q-20 -69 -76.5 -116.5t-136.5 -47.5q-147 0 -210 105.5t-65 303.5z M304 1638v156l441 192v-258zM377 392q0 -105 22 -150.5t71.5 -45.5t81 33.5t39.5 75.5v509q-126 -56 -170 -106t-44 -155v-161z" />
<glyph unicode="&#xe2;" horiz-adv-x="981" d="M107 394v96q0 192 104 291q67 65 227 126q29 11 80.5 30t72.5 27v131q0 122 -17.5 165.5t-80 43.5t-83.5 -46t-21 -155v-67h-262v45q0 213 79.5 325t282 112t288 -112t85.5 -336v-1070h-267v149q-20 -69 -76.5 -116.5t-136.5 -47.5q-147 0 -210 105.5t-65 303.5z M170 1608l189 337h302l188 -337h-253l-86 236l-86 -236h-254zM377 392q0 -105 22 -150.5t71.5 -45.5t81 33.5t39.5 75.5v509q-126 -56 -170 -106t-44 -155v-161z" />
<glyph unicode="&#xe3;" horiz-adv-x="981" d="M107 394v96q0 192 104 291q67 65 227 126q29 11 80.5 30t72.5 27v131q0 122 -17.5 165.5t-80 43.5t-83.5 -46t-21 -155v-67h-262v45q0 213 79.5 325t282 112t288 -112t85.5 -336v-1070h-267v149q-20 -69 -76.5 -116.5t-136.5 -47.5q-147 0 -210 105.5t-65 303.5z M175 1699q28 98 75.5 140t104 42t161.5 -37t126 -37h4q17 3 29.5 16.5t26.5 54.5l142 -28l-9 -48q-21 -99 -61.5 -137.5t-98 -38.5t-156.5 41t-127.5 41t-44 -3.5t-42.5 -57.5zM377 392q0 -105 22 -150.5t71.5 -45.5t81 33.5t39.5 75.5v509q-126 -56 -170 -106t-44 -155 v-161z" />
<glyph unicode="&#xe4;" horiz-adv-x="981" d="M107 394v96q0 192 104 291q67 65 227 126q29 11 80.5 30t72.5 27v131q0 122 -17.5 165.5t-80 43.5t-83.5 -46t-21 -155v-67h-262v45q0 213 79.5 325t282 112t288 -112t85.5 -336v-1070h-267v149q-20 -69 -76.5 -116.5t-136.5 -47.5q-147 0 -210 105.5t-65 303.5z M127 1623v226h282v-226h-282zM377 392q0 -105 22 -150.5t71.5 -45.5t81 33.5t39.5 75.5v509q-126 -56 -170 -106t-44 -155v-161zM611 1623v226h282v-226h-282z" />
<glyph unicode="&#xe5;" horiz-adv-x="981" d="M107 394v96q0 192 104 291q67 65 227 126q29 11 80.5 30t72.5 27v131q0 122 -17.5 165.5t-80 43.5t-83.5 -46t-21 -155v-67h-262v45q0 213 79.5 325t282 112t288 -112t85.5 -336v-1070h-267v149q-20 -69 -76.5 -116.5t-136.5 -47.5q-147 0 -210 105.5t-65 303.5z M276 1850q0 98 63 161t170.5 63t170 -63t62.5 -161t-62.5 -161t-170 -63t-170.5 63t-63 161zM377 392q0 -105 22 -150.5t71.5 -45.5t81 33.5t39.5 75.5v509q-126 -56 -170 -106t-44 -155v-161zM391 1851q0 -53 31.5 -92t87.5 -39t87.5 39t31.5 92t-31.5 91.5t-87.5 38.5 t-87.5 -38.5t-31.5 -91.5z" />
<glyph unicode="&#xe6;" horiz-adv-x="1443" d="M107 406v100q2 140 74 250q25 38 95 78t109.5 56.5t112.5 43.5t94 35v57.5v86t-18 127t-80 64.5t-83.5 -43.5t-21.5 -151.5v-73h-261q-1 6 -1 80q0 178 79.5 290t294.5 112q162 0 229 -109q77 109 264.5 109t266 -121t78.5 -344q0 -301 -2 -327h-477v-254 q0 -147 23 -211.5t81.5 -64.5t78.5 39q32 61 32 229l-1 84v21h263v-70q0 -203 -29.5 -294t-67.5 -133q-83 -90 -255 -90q-97 0 -165.5 39t-101.5 107q-38 -59 -114.5 -101t-165.5 -42q-162 0 -246.5 110t-84.5 311zM377 393q0 -105 22 -150.5t71.5 -45.5t81 33.5t39.5 75.5 v497q-67 -30 -103 -50q-36 -19 -64 -49q-47 -50 -47 -160v-151zM860 906h214v173q0 123 -19.5 176.5t-76 53.5t-75.5 -25q-31 -42 -37 -93t-6 -134v-151z" />
<glyph unicode="&#xe7;" horiz-adv-x="943" d="M110 500v486q0 327 114 441q91 91 275 91t266 -111.5t82 -321.5v-165h-256v174q0 137 -24.5 172t-82.5 35t-82.5 -52t-24.5 -159v-676q0 -111 22.5 -163t87.5 -52q89 1 101 125q3 29 3 68v21v178h256v-152q0 -220 -82 -338.5t-271 -118.5q-225 0 -304.5 133t-79.5 385z M274 -501q231 0 231 141q0 64 -46.5 106.5t-113.5 57.5l40 196h82l15 -141q228 -78 228 -264q0 -91 -77.5 -162t-209.5 -71q-78 0 -149 26v111z" />
<glyph unicode="&#xe8;" horiz-adv-x="958" d="M110 499v559q0 460 383 460q204 0 282.5 -121t78.5 -344v-321h-477v-295q0 -156 27 -198.5t81 -42.5t70 25q27 44 31 90t4 126v132h262v-80q0 -204 -32 -293t-74 -129q-88 -85 -264 -85q-253 0 -326 193q-46 123 -46 324zM281 1721v265l413 -203v-156zM376 887h214v192 q0 123 -19.5 176.5t-79.5 53.5h-1q-104 0 -112 -159q-2 -30 -2 -78v-185z" />
<glyph unicode="&#xe9;" horiz-adv-x="958" d="M110 499v559q0 460 383 460q204 0 282.5 -121t78.5 -344v-321h-477v-295q0 -156 27 -198.5t81 -42.5t70 25q27 44 31 90t4 126v132h262v-80q0 -204 -32 -293t-74 -129q-88 -85 -264 -85q-253 0 -326 193q-46 123 -46 324zM281 1638v156l441 192v-258zM376 887h214v192 q0 123 -19.5 176.5t-79.5 53.5h-1q-104 0 -112 -159q-2 -30 -2 -78v-185z" />
<glyph unicode="&#xea;" horiz-adv-x="958" d="M110 499v559q0 460 383 460q204 0 282.5 -121t78.5 -344v-321h-477v-295q0 -156 27 -198.5t81 -42.5t70 25q27 44 31 90t4 126v132h262v-80q0 -204 -32 -293t-74 -129q-88 -85 -264 -85q-253 0 -326 193q-46 123 -46 324zM146 1607l189 337h302l188 -337h-253l-86 236 l-86 -236h-254zM376 887h214v192q0 123 -19.5 176.5t-79.5 53.5h-1q-104 0 -112 -159q-2 -30 -2 -78v-185z" />
<glyph unicode="&#xeb;" horiz-adv-x="958" d="M103 1622v226h282v-226h-282zM110 499v559q0 460 383 460q204 0 282.5 -121t78.5 -344v-321h-477v-295q0 -156 27 -198.5t81 -42.5t70 25q27 44 31 90t4 126v132h262v-80q0 -204 -32 -293t-74 -129q-88 -85 -264 -85q-253 0 -326 193q-46 123 -46 324zM376 887h214v192 q0 123 -19.5 176.5t-79.5 53.5h-1q-104 0 -112 -159q-2 -30 -2 -78v-185zM587 1622v226h282v-226h-282z" />
<glyph unicode="&#xec;" horiz-adv-x="537" d="M59 1722v265l413 -203v-156zM136 0v1500h265v-1500h-265z" />
<glyph unicode="&#xed;" horiz-adv-x="537" d="M59 1638v156l441 192v-258zM136 0v1500h265v-1500h-265z" />
<glyph unicode="&#xee;" horiz-adv-x="537" d="M-76 1608l189 337h302l188 -337h-253l-86 236l-86 -236h-254zM136 0v1500h265v-1500h-265z" />
<glyph unicode="&#xef;" horiz-adv-x="537" d="M-119 1623v226h282v-226h-282zM136 0v1500h265v-1500h-265zM365 1623v226h282v-226h-282z" />
<glyph unicode="&#xf0;" horiz-adv-x="1013" d="M95 483v103q0 267 80 389.5t255 122.5q116 0 175 -56q0 51 -15.5 170.5t-38.5 165.5l-209 -116l-65 137l189 106q-71 81 -197 125l137 151q170 -26 281 -156l199 110l66 -137l-179 -100q45 -80 77.5 -290t32.5 -351v-330q0 -347 -113 -457q-94 -90 -279 -91 q-224 0 -310 125.5t-86 378.5zM363 434q0 -127 27 -174.5t99 -47.5t99 55.5t27 188.5v320q-6 43 -41.5 70t-97.5 27t-87.5 -58t-25.5 -202v-179z" />
<glyph unicode="&#xf1;" d="M132 0v1500h265v-172q20 80 86 135t155 55q260 0 260 -337v-1181h-265v1165q0 65 -29.5 102t-85.5 37t-88.5 -48t-32.5 -129v-1127h-265zM175 1699q28 98 75.5 140t104 42t161.5 -37t126 -37h4q17 3 29.5 16.5t26.5 54.5l142 -28l-9 -48q-21 -99 -61.5 -137.5t-98 -38.5 t-156.5 41t-127.5 41t-44 -3.5t-42.5 -57.5z" />
<glyph unicode="&#xf2;" horiz-adv-x="970" d="M110 476v561q0 481 375 481t375 -481v-561q0 -375 -193 -461q-74 -33 -181 -33q-212 0 -294 127t-82 367zM280 1722v265l413 -203v-156zM377 413q0 -165 54 -202q22 -15 55 -15q62 0 84.5 54.5t22.5 162.5v671q0 110 -23 165t-85 55t-85 -54.5t-23 -165.5v-671z" />
<glyph unicode="&#xf3;" horiz-adv-x="970" d="M110 476v561q0 481 375 481t375 -481v-561q0 -375 -193 -461q-74 -33 -181 -33q-212 0 -294 127t-82 367zM280 1638v156l441 192v-258zM377 413q0 -165 54 -202q22 -15 55 -15q62 0 84.5 54.5t22.5 162.5v671q0 110 -23 165t-85 55t-85 -54.5t-23 -165.5v-671z" />
<glyph unicode="&#xf4;" horiz-adv-x="970" d="M110 476v561q0 481 375 481t375 -481v-561q0 -375 -193 -461q-74 -33 -181 -33q-212 0 -294 127t-82 367zM145 1608l189 337h302l188 -337h-253l-86 236l-86 -236h-254zM377 413q0 -165 54 -202q22 -15 55 -15q62 0 84.5 54.5t22.5 162.5v671q0 110 -23 165t-85 55 t-85 -54.5t-23 -165.5v-671z" />
<glyph unicode="&#xf5;" horiz-adv-x="970" d="M110 476v561q0 481 375 481t375 -481v-561q0 -375 -193 -461q-74 -33 -181 -33q-212 0 -294 127t-82 367zM150 1699q28 98 75.5 140t104 42t161.5 -37t126 -37h4q17 3 29.5 16.5t26.5 54.5l142 -28l-9 -48q-21 -99 -61.5 -137.5t-98 -38.5t-156.5 41t-127.5 41t-44 -3.5 t-42.5 -57.5zM377 413q0 -165 54 -202q22 -15 55 -15q62 0 84.5 54.5t22.5 162.5v671q0 110 -23 165t-85 55t-85 -54.5t-23 -165.5v-671z" />
<glyph unicode="&#xf6;" horiz-adv-x="970" d="M102 1623v226h282v-226h-282zM110 476v561q0 481 375 481t375 -481v-561q0 -375 -193 -461q-74 -33 -181 -33q-212 0 -294 127t-82 367zM377 413q0 -165 54 -202q22 -15 55 -15q62 0 84.5 54.5t22.5 162.5v671q0 110 -23 165t-85 55t-85 -54.5t-23 -165.5v-671zM586 1623 v226h282v-226h-282z" />
<glyph unicode="&#xf7;" horiz-adv-x="804" d="M94 638v232h616v-232h-616zM253 237v298h298v-298h-298zM253 976v298h298v-298h-298z" />
<glyph unicode="&#xf8;" horiz-adv-x="879" d="M110 476v561q0 481 376 481q89 0 156 -27l51 181l101 -28l-59 -211q125 -117 125 -396v-561q0 -375 -193 -461q-74 -33 -171 -33t-162 22l-50 -177l-100 28l56 200q-130 110 -130 421zM377 544l196 698q-40 51 -87 62q-63 0 -86 -54.5t-23 -165.5v-540zM402 247 q24 -51 85 -51t83.5 54.5t22.5 162.5v515z" />
<glyph unicode="&#xf9;" horiz-adv-x="1015" d="M122 340v1160h266v-1119q0 -93 23 -137.5t86 -44.5q121 0 121 180l1 1121h264v-1500h-265v156q-63 -175 -229 -175q-267 0 -267 359zM312 1722v265l413 -203v-156z" />
<glyph unicode="&#xfa;" horiz-adv-x="1015" d="M122 340v1160h266v-1119q0 -93 23 -137.5t86 -44.5q121 0 121 180l1 1121h264v-1500h-265v156q-63 -175 -229 -175q-267 0 -267 359zM311 1638v156l441 192v-258z" />
<glyph unicode="&#xfb;" horiz-adv-x="1015" d="M122 340v1160h266v-1119q0 -93 23 -137.5t86 -44.5q121 0 121 180l1 1121h264v-1500h-265v156q-63 -175 -229 -175q-267 0 -267 359zM177 1608l189 337h302l188 -337h-253l-86 236l-86 -236h-254z" />
<glyph unicode="&#xfc;" horiz-adv-x="1015" d="M122 340v1160h266v-1119q0 -93 23 -137.5t86 -44.5q121 0 121 180l1 1121h264v-1500h-265v156q-63 -175 -229 -175q-267 0 -267 359zM134 1623v226h282v-226h-282zM618 1623v226h282v-226h-282z" />
<glyph unicode="&#xfd;" horiz-adv-x="852" d="M42 1501h252l96 -768l40 -404h22l36 404l88 768h251l-260 -1565q-17 -113 -57 -157t-140 -44h-282v183h87q50 0 77.5 8t30.5 32q6 10 6 37t-7 73zM225 1638v156l441 192v-258z" />
<glyph unicode="&#xfe;" horiz-adv-x="1000" d="M133 -285v2060h266v-410q28 71 87.5 110.5t125.5 39.5t116 -24q91 -44 124 -156t33 -287v-547q0 -311 -75.5 -415t-223.5 -104q-58 0 -107 31t-80 78v-376h-266zM399 440q0 -188 57 -226q23 -16 59 -16q63 0 84 60t21 193v618q0 122 -11.5 153t-28 55t-60.5 24 q-44 -1 -68 -19q-53 -39 -53 -206v-6v-630z" />
<glyph unicode="&#xff;" horiz-adv-x="852" d="M42 1501h252l96 -768l40 -404h22l36 404l88 768h251l-260 -1565q-17 -113 -57 -157t-140 -44h-282v183h87q50 0 77.5 8t30.5 32q6 10 6 37t-7 73zM48 1623v226h282v-226h-282zM532 1623v226h282v-226h-282z" />
<glyph unicode="&#x100;" horiz-adv-x="976" d="M52 0l251 1760h354l267 -1760h-250l-42 314h-284l-38 -314h-258zM224 1906v151h507v-151h-507zM374 529h230l-118 884h-4z" />
<glyph unicode="&#x101;" horiz-adv-x="981" d="M107 394v96q0 192 104 291q67 65 227 126q29 11 80.5 30t72.5 27v131q0 122 -17.5 165.5t-80 43.5t-83.5 -46t-21 -155v-67h-262v45q0 213 79.5 325t282 112t288 -112t85.5 -336v-1070h-267v149q-20 -69 -76.5 -116.5t-136.5 -47.5q-147 0 -210 105.5t-65 303.5z M252 1646v151h507v-151h-507zM377 392q0 -105 22 -150.5t71.5 -45.5t81 33.5t39.5 75.5v509q-126 -56 -170 -106t-44 -155v-161z" />
<glyph unicode="&#x102;" horiz-adv-x="976" d="M52 0l251 1760h354l267 -1760h-250l-42 314h-284l-38 -314h-258zM199 2137v15h150q0 -76 34.5 -103t97.5 -27t97 26.5t34 103.5h151v-13q0 -264 -282 -264t-282 262zM374 529h230l-118 884h-4z" />
<glyph unicode="&#x103;" horiz-adv-x="981" d="M107 394v96q0 192 104 291q67 65 227 126q29 11 80.5 30t72.5 27v131q0 122 -17.5 165.5t-80 43.5t-83.5 -46t-21 -155v-67h-262v45q0 213 79.5 325t282 112t288 -112t85.5 -336v-1070h-267v149q-20 -69 -76.5 -116.5t-136.5 -47.5q-147 0 -210 105.5t-65 303.5z M227 1877v15h150q0 -76 34.5 -103t97.5 -27t97 26.5t34 103.5h151v-13q0 -264 -282 -264t-282 262zM377 392q0 -105 22 -150.5t71.5 -45.5t81 33.5t39.5 75.5v509q-126 -56 -170 -106t-44 -155v-161z" />
<glyph unicode="&#x104;" horiz-adv-x="976" d="M52 0l251 1760h354l267 -1760h-250l-42 314h-284l-38 -314h-258zM374 529h230l-118 884h-4zM415 -383.5q0 107.5 69 212t197 175.5h107q-180 -189 -180 -339q0 -64 40.5 -96.5t98 -32.5t122.5 15v-138q-20 -11 -71 -23t-98 -12q-137 0 -211 65.5t-74 173z" />
<glyph unicode="&#x105;" horiz-adv-x="981" d="M107 394v96q0 192 104 291q67 65 227 126q29 11 80.5 30t72.5 27v131q0 122 -17.5 165.5t-80 43.5t-83.5 -46t-21 -155v-67h-262v45q0 213 79.5 325t282 112t288 -112t85.5 -336v-1070h-267v149q-20 -69 -76.5 -116.5t-136.5 -47.5q-147 0 -210 105.5t-65 303.5zM377 392 q0 -105 22 -150.5t71.5 -45.5t81 33.5t39.5 75.5v509q-126 -56 -170 -106t-44 -155v-161zM418 -383.5q0 107.5 69 212t197 175.5h107q-180 -189 -180 -339q0 -64 40.5 -96.5t98 -32.5t122.5 15v-138q-20 -11 -71 -23t-98 -12q-137 0 -211 65.5t-74 173z" />
<glyph unicode="&#x106;" horiz-adv-x="961" d="M110 486v767q0 393 206 491q76 36 184 36q371 0 371 -468v-242h-259v225q0 136 -23 194.5t-90 58.5t-93 -62t-26 -190v-822q0 -142 25 -203t91 -61t91 62t25 205v252h263v-249q0 -255 -91 -377.5t-286 -122.5t-291.5 130.5t-96.5 375.5zM294 1898v156l441 192v-258z" />
<glyph unicode="&#x107;" horiz-adv-x="943" d="M110 500v486q0 327 114 441q91 91 275 91t266 -111.5t82 -321.5v-165h-256v174q0 137 -24.5 172t-82.5 35t-82.5 -52t-24.5 -159v-676q0 -111 22.5 -163t87.5 -52q89 1 101 125q3 29 3 68v21v178h256v-152q0 -220 -82 -338.5t-271 -118.5q-225 0 -304.5 133t-79.5 385z M296 1638v156l441 192v-258z" />
<glyph unicode="&#x108;" horiz-adv-x="961" d="M110 486v767q0 393 206 491q76 36 184 36q371 0 371 -468v-242h-259v225q0 136 -23 194.5t-90 58.5t-93 -62t-26 -190v-822q0 -142 25 -203t91 -61t91 62t25 205v252h263v-249q0 -255 -91 -377.5t-286 -122.5t-291.5 130.5t-96.5 375.5zM160 1868l189 337h302l188 -337 h-253l-86 236l-86 -236h-254z" />
<glyph unicode="&#x109;" horiz-adv-x="943" d="M110 500v486q0 327 114 441q91 91 275 91t266 -111.5t82 -321.5v-165h-256v174q0 137 -24.5 172t-82.5 35t-82.5 -52t-24.5 -159v-676q0 -111 22.5 -163t87.5 -52q89 1 101 125q3 29 3 68v21v178h256v-152q0 -220 -82 -338.5t-271 -118.5q-225 0 -304.5 133t-79.5 385z M162 1608l189 337h302l188 -337h-253l-86 236l-86 -236h-254z" />
<glyph unicode="&#x10a;" horiz-adv-x="961" d="M110 486v767q0 393 206 491q76 36 184 36q371 0 371 -468v-242h-259v225q0 136 -23 194.5t-90 58.5t-93 -62t-26 -190v-822q0 -142 25 -203t91 -61t91 62t25 205v252h263v-249q0 -255 -91 -377.5t-286 -122.5t-291.5 130.5t-96.5 375.5zM367 1876v226h271v-226h-271z" />
<glyph unicode="&#x10b;" horiz-adv-x="943" d="M110 500v486q0 327 114 441q91 91 275 91t266 -111.5t82 -321.5v-165h-256v174q0 137 -24.5 172t-82.5 35t-82.5 -52t-24.5 -159v-676q0 -111 22.5 -163t87.5 -52q89 1 101 125q3 29 3 68v21v178h256v-152q0 -220 -82 -338.5t-271 -118.5q-225 0 -304.5 133t-79.5 385z M369 1616v226h271v-226h-271z" />
<glyph unicode="&#x10c;" horiz-adv-x="961" d="M110 486v767q0 393 206 491q76 36 184 36q371 0 371 -468v-242h-259v225q0 136 -23 194.5t-90 58.5t-93 -62t-26 -190v-822q0 -142 25 -203t91 -61t91 62t25 205v252h263v-249q0 -255 -91 -377.5t-286 -122.5t-291.5 130.5t-96.5 375.5zM160 2206h254l86 -237l86 237h253 l-188 -338h-302z" />
<glyph unicode="&#x10d;" horiz-adv-x="943" d="M110 500v486q0 327 114 441q91 91 275 91t266 -111.5t82 -321.5v-165h-256v174q0 137 -24.5 172t-82.5 35t-82.5 -52t-24.5 -159v-676q0 -111 22.5 -163t87.5 -52q89 1 101 125q3 29 3 68v21v178h256v-152q0 -220 -82 -338.5t-271 -118.5q-225 0 -304.5 133t-79.5 385z M162 1946h254l86 -237l86 237h253l-188 -338h-302z" />
<glyph unicode="&#x10e;" horiz-adv-x="1005" d="M131 0v1760h395q194 0 281.5 -114.5t87.5 -337.5l1 -794q0 -266 -88 -390t-291 -124h-386zM157 2206h254l86 -237l86 237h253l-188 -338h-302zM399 208h88q74 0 107.5 48t33.5 176l-1 869q0 137 -33.5 195t-115.5 58h-79v-1346z" />
<glyph unicode="&#x10f;" horiz-adv-x="998" d="M110 479v611q0 188 69 308t228 120q62 0 113.5 -30t80.5 -81v368h265v-1775h-265v139q-60 -154 -215 -154q-121 0 -181 68t-77.5 172.5t-17.5 253.5zM377 443q0 -124 23.5 -185.5t88 -61.5t89 61.5t24.5 205.5v600q0 185 -56 224q-24 16 -58 16q-67 0 -89 -61t-22 -182 v-617zM1011 1494v281h349v-272l-136 -438h-154l94 429h-153z" />
<glyph unicode="&#x110;" horiz-adv-x="1005" d="M32 850v151h507v-151h-507zM131 0v1760h395q194 0 281.5 -114.5t87.5 -337.5l1 -794q0 -266 -88 -390t-291 -124h-386zM399 208h88q74 0 107.5 48t33.5 176l-1 869q0 137 -33.5 195t-115.5 58h-79v-1346z" />
<glyph unicode="&#x111;" horiz-adv-x="998" d="M110 479v611q0 188 69 308t228 120q62 0 113.5 -30t80.5 -81v368h265v-1775h-265v139q-60 -154 -215 -154q-121 0 -181 68t-77.5 172.5t-17.5 253.5zM377 443q0 -124 23.5 -185.5t88 -61.5t89 61.5t24.5 205.5v600q0 185 -56 224q-24 16 -58 16q-67 0 -89 -61t-22 -182 v-617zM464 1540v151h507v-151h-507z" />
<glyph unicode="&#x112;" horiz-adv-x="816" d="M132 0v1760h590v-231h-322v-512h306v-226h-306v-560h334v-231h-602zM181 1906v151h507v-151h-507z" />
<glyph unicode="&#x113;" horiz-adv-x="958" d="M110 499v559q0 460 383 460q204 0 282.5 -121t78.5 -344v-321h-477v-295q0 -156 27 -198.5t81 -42.5t70 25q27 44 31 90t4 126v132h262v-80q0 -204 -32 -293t-74 -129q-88 -85 -264 -85q-253 0 -326 193q-46 123 -46 324zM228 1645v151h507v-151h-507zM376 887h214v192 q0 123 -19.5 176.5t-79.5 53.5h-1q-104 0 -112 -159q-2 -30 -2 -78v-185z" />
<glyph unicode="&#x114;" horiz-adv-x="816" d="M132 0v1760h590v-231h-322v-512h306v-226h-306v-560h334v-231h-602zM156 2137v15h150q0 -76 34.5 -103t97.5 -27t97 26.5t34 103.5h151v-13q0 -264 -282 -264t-282 262z" />
<glyph unicode="&#x115;" horiz-adv-x="958" d="M110 499v559q0 460 383 460q204 0 282.5 -121t78.5 -344v-321h-477v-295q0 -156 27 -198.5t81 -42.5t70 25q27 44 31 90t4 126v132h262v-80q0 -204 -32 -293t-74 -129q-88 -85 -264 -85q-253 0 -326 193q-46 123 -46 324zM203 1876v15h150q0 -76 34.5 -103t97.5 -27 t97 26.5t34 103.5h151v-13q0 -264 -282 -264t-282 262zM376 887h214v192q0 123 -19.5 176.5t-79.5 53.5h-1q-104 0 -112 -159q-2 -30 -2 -78v-185z" />
<glyph unicode="&#x116;" horiz-adv-x="816" d="M132 0v1760h590v-231h-322v-512h306v-226h-306v-560h334v-231h-602zM306 1876v226h271v-226h-271z" />
<glyph unicode="&#x117;" horiz-adv-x="958" d="M110 499v559q0 460 383 460q204 0 282.5 -121t78.5 -344v-321h-477v-295q0 -156 27 -198.5t81 -42.5t70 25q27 44 31 90t4 126v132h262v-80q0 -204 -32 -293t-74 -129q-88 -85 -264 -85q-253 0 -326 193q-46 123 -46 324zM353 1615v226h271v-226h-271zM376 887h214v192 q0 123 -19.5 176.5t-79.5 53.5h-1q-104 0 -112 -159q-2 -30 -2 -78v-185z" />
<glyph unicode="&#x118;" horiz-adv-x="816" d="M132 0v1760h590v-231h-322v-512h306v-226h-306v-560h334v-231h-602zM273 -383.5q0 107.5 69 212t197 175.5h107q-180 -189 -180 -339q0 -64 40.5 -96.5t98 -32.5t122.5 15v-138q-20 -11 -71 -23t-98 -12q-137 0 -211 65.5t-74 173z" />
<glyph unicode="&#x119;" horiz-adv-x="958" d="M110 499v559q0 460 383 460q204 0 282.5 -121t78.5 -344v-321h-477v-295q0 -156 27 -198.5t81 -42.5t70 25q27 44 31 90t4 126v132h262v-80q0 -204 -32 -293t-74 -129q-88 -85 -264 -85q-253 0 -326 193q-46 123 -46 324zM235 -383.5q0 107.5 69 212t197 175.5h107 q-180 -189 -180 -339q0 -64 40.5 -96.5t98 -32.5t122.5 15v-138q-20 -11 -71 -23t-98 -12q-137 0 -211 65.5t-74 173zM376 887h214v192q0 123 -19.5 176.5t-79.5 53.5h-1q-104 0 -112 -159q-2 -30 -2 -78v-185z" />
<glyph unicode="&#x11a;" horiz-adv-x="816" d="M99 2206h254l86 -237l86 237h253l-188 -338h-302zM132 0v1760h590v-231h-322v-512h306v-226h-306v-560h334v-231h-602z" />
<glyph unicode="&#x11b;" horiz-adv-x="958" d="M110 499v559q0 460 383 460q204 0 282.5 -121t78.5 -344v-321h-477v-295q0 -156 27 -198.5t81 -42.5t70 25q27 44 31 90t4 126v132h262v-80q0 -204 -32 -293t-74 -129q-88 -85 -264 -85q-253 0 -326 193q-46 123 -46 324zM146 1945h254l86 -237l86 237h253l-188 -338 h-302zM376 887h214v192q0 123 -19.5 176.5t-79.5 53.5h-1q-104 0 -112 -159q-2 -30 -2 -78v-185z" />
<glyph unicode="&#x11c;" horiz-adv-x="1000" d="M110 515v765q0 244 95.5 372t303.5 128q259 0 329 -193q42 -116 42 -317v-125h-250v184q0 121 -25.5 170t-96 49t-99.5 -58.5t-29 -207.5v-763q0 -173 26 -241t101.5 -68t107 73t31.5 246v237h-135v195h369v-961h-120l-41 173q-21 -89 -92 -140t-164 -51 q-166 0 -259.5 130.5t-93.5 402.5zM165 1868l189 337h302l188 -337h-253l-86 236l-86 -236h-254z" />
<glyph unicode="&#x11d;" horiz-adv-x="990" d="M100 -118l93 167q119 -76 222 -76t144 52t41 140v119q-25 -72 -76.5 -101.5t-131.5 -29.5q-157 0 -217.5 117t-60.5 312v483q0 453 284 453h4q156 0 198 -151v133h265v-1315q0 -192 -93.5 -301t-316 -109t-355.5 107zM180 1608l189 337h302l188 -337h-253l-86 236 l-86 -236h-254zM381 594q0 -123 23.5 -181.5t85 -58.5t86 52.5t24.5 189.5v491q0 105 -25.5 161t-90.5 56t-84 -57.5t-19 -158.5v-494z" />
<glyph unicode="&#x11e;" horiz-adv-x="1000" d="M110 515v765q0 244 95.5 372t303.5 128q259 0 329 -193q42 -116 42 -317v-125h-250v184q0 121 -25.5 170t-96 49t-99.5 -58.5t-29 -207.5v-763q0 -173 26 -241t101.5 -68t107 73t31.5 246v237h-135v195h369v-961h-120l-41 173q-21 -89 -92 -140t-164 -51 q-166 0 -259.5 130.5t-93.5 402.5zM222 2137v15h150q0 -76 34.5 -103t97.5 -27t97 26.5t34 103.5h151v-13q0 -264 -282 -264t-282 262z" />
<glyph unicode="&#x11f;" horiz-adv-x="990" d="M100 -118l93 167q119 -76 222 -76t144 52t41 140v119q-25 -72 -76.5 -101.5t-131.5 -29.5q-157 0 -217.5 117t-60.5 312v483q0 453 284 453h4q156 0 198 -151v133h265v-1315q0 -192 -93.5 -301t-316 -109t-355.5 107zM237 1877v15h150q0 -76 34.5 -103t97.5 -27t97 26.5 t34 103.5h151v-13q0 -264 -282 -264t-282 262zM381 594q0 -123 23.5 -181.5t85 -58.5t86 52.5t24.5 189.5v491q0 105 -25.5 161t-90.5 56t-84 -57.5t-19 -158.5v-494z" />
<glyph unicode="&#x120;" horiz-adv-x="1000" d="M110 515v765q0 244 95.5 372t303.5 128q259 0 329 -193q42 -116 42 -317v-125h-250v184q0 121 -25.5 170t-96 49t-99.5 -58.5t-29 -207.5v-763q0 -173 26 -241t101.5 -68t107 73t31.5 246v237h-135v195h369v-961h-120l-41 173q-21 -89 -92 -140t-164 -51 q-166 0 -259.5 130.5t-93.5 402.5zM372 1876v226h271v-226h-271z" />
<glyph unicode="&#x121;" horiz-adv-x="990" d="M100 -118l93 167q119 -76 222 -76t144 52t41 140v119q-25 -72 -76.5 -101.5t-131.5 -29.5q-157 0 -217.5 117t-60.5 312v483q0 453 284 453h4q156 0 198 -151v133h265v-1315q0 -192 -93.5 -301t-316 -109t-355.5 107zM381 594q0 -123 23.5 -181.5t85 -58.5t86 52.5 t24.5 189.5v491q0 105 -25.5 161t-90.5 56t-84 -57.5t-19 -158.5v-494zM387 1616v226h271v-226h-271z" />
<glyph unicode="&#x122;" horiz-adv-x="1000" d="M110 515v765q0 244 95.5 372t303.5 128q259 0 329 -193q42 -116 42 -317v-125h-250v184q0 121 -25.5 170t-96 49t-99.5 -58.5t-29 -207.5v-763q0 -173 26 -241t101.5 -68t107 73t31.5 246v237h-135v195h369v-961h-120l-41 173q-21 -89 -92 -140t-164 -51 q-166 0 -259.5 130.5t-93.5 402.5zM345 -165h273v-254l-92 -313h-121l55 304h-115v263z" />
<glyph unicode="&#x123;" horiz-adv-x="990" d="M100 -118l93 167q119 -76 222 -76t144 52t41 140v119q-25 -72 -76.5 -101.5t-131.5 -29.5q-157 0 -217.5 117t-60.5 312v483q0 453 284 453h4q156 0 198 -151v133h265v-1315q0 -192 -93.5 -301t-316 -109t-355.5 107zM345 1643v254l92 313h121l-55 -304h115v-263h-273z M381 594q0 -123 23.5 -181.5t85 -58.5t86 52.5t24.5 189.5v491q0 105 -25.5 161t-90.5 56t-84 -57.5t-19 -158.5v-494z" />
<glyph unicode="&#x124;" horiz-adv-x="1040" d="M132 0v1760h268v-712h240v712h268v-1760h-268v818h-240v-818h-268zM183 1868l189 337h302l188 -337h-253l-86 236l-86 -236h-254z" />
<glyph unicode="&#x125;" horiz-adv-x="1016" d="M132 0v1775h265v-447q21 81 83 135.5t150 54.5q130 0 197 -86.5t67 -250.5v-1181h-264v1156q0 145 -106 145q-61 0 -94 -50t-33 -136v-1115h-265zM168 1852l189 337h302l188 -337h-253l-86 236l-86 -236h-254z" />
<glyph unicode="&#x126;" horiz-adv-x="1040" d="M55 1378v131h77v251h268v-251h240v251h268v-251h97v-131h-97v-1378h-268v818h-240v-818h-268v1378h-77zM400 1048h240v330h-240v-330z" />
<glyph unicode="&#x127;" horiz-adv-x="1016" d="M0 1593v109h132v73h265v-73h266v-109h-266v-265q21 81 83 135.5t150 54.5q130 0 197 -86.5t67 -250.5v-1181h-264v1156q0 145 -106 145q-61 0 -94 -50t-33 -136v-1115h-265v1593h-132z" />
<glyph unicode="&#x128;" horiz-adv-x="552" d="M-59 1959q28 98 75.5 140t104 42t161.5 -37t126 -37h4q17 3 29.5 16.5t26.5 54.5l142 -28l-9 -48q-21 -99 -61.5 -137.5t-98 -38.5t-156.5 41t-127.5 41t-44 -3.5t-42.5 -57.5zM142 0v1760h268v-1760h-268z" />
<glyph unicode="&#x129;" horiz-adv-x="537" d="M-71 1699q28 98 75.5 140t104 42t161.5 -37t126 -37h4q17 3 29.5 16.5t26.5 54.5l142 -28l-9 -48q-21 -99 -61.5 -137.5t-98 -38.5t-156.5 41t-127.5 41t-44 -3.5t-42.5 -57.5zM136 0v1500h265v-1500h-265z" />
<glyph unicode="&#x12a;" horiz-adv-x="552" d="M18 1906v151h507v-151h-507zM142 0v1760h268v-1760h-268z" />
<glyph unicode="&#x12b;" horiz-adv-x="537" d="M6 1646v151h507v-151h-507zM136 0v1500h265v-1500h-265z" />
<glyph unicode="&#x12c;" horiz-adv-x="552" d="M-7 2137v15h150q0 -76 34.5 -103t97.5 -27t97 26.5t34 103.5h151v-13q0 -264 -282 -264t-282 262zM142 0v1760h268v-1760h-268z" />
<glyph unicode="&#x12d;" horiz-adv-x="537" d="M-19 1877v15h150q0 -76 34.5 -103t97.5 -27t97 26.5t34 103.5h151v-13q0 -264 -282 -264t-282 262zM136 0v1500h265v-1500h-265z" />
<glyph unicode="&#x12e;" horiz-adv-x="552" d="M7 -383.5q0 107.5 69 212t197 175.5h107q-180 -189 -180 -339q0 -64 40.5 -96.5t98 -32.5t122.5 15v-138q-20 -11 -71 -23t-98 -12q-137 0 -211 65.5t-74 173zM142 0v1760h268v-1760h-268z" />
<glyph unicode="&#x12f;" horiz-adv-x="537" d="M4 -383.5q0 107.5 69 212t197 175.5h107q-180 -189 -180 -339q0 -64 40.5 -96.5t98 -32.5t122.5 15v-138q-20 -11 -71 -23t-98 -12q-137 0 -211 65.5t-74 173zM131 1616v226h271v-226h-271zM136 0v1500h265v-1500h-265z" />
<glyph unicode="&#x130;" horiz-adv-x="552" d="M142 0v1760h268v-1760h-268zM143 1876v226h271v-226h-271z" />
<glyph unicode="&#x131;" horiz-adv-x="537" d="M136 0v1500h265v-1500h-265z" />
<glyph unicode="&#x132;" horiz-adv-x="1474" d="M142 0v1760h268v-1760h-268zM620 389v314h259v-301q0 -146 47 -178q21 -14 52 -14q61 0 80.5 50t19.5 158v1342h268v-1329q0 -216 -95 -333.5t-267.5 -117.5t-268 104.5t-95.5 304.5z" />
<glyph unicode="&#x133;" horiz-adv-x="1098" d="M133 1638v230h267v-230h-267zM136 0v1500h265v-1500h-265zM595 3q17 -4 45 -1q63 3 63 67v1431h265v-1421q0 -137 -55.5 -205t-156.5 -70q-18 -1 -78 -1t-83 17v183zM699 1638v230h267v-230h-267z" />
<glyph unicode="&#x134;" horiz-adv-x="922" d="M68 389v314h259v-301q0 -146 47 -178q21 -14 52 -14q61 0 80.5 50t19.5 158v1342h268v-1329q0 -216 -95 -333.5t-267.5 -117.5t-268 104.5t-95.5 304.5zM238 1868l189 337h302l188 -337h-253l-86 236l-86 -236h-254z" />
<glyph unicode="&#x135;" horiz-adv-x="568" d="M-32 1608l189 337h302l188 -337h-253l-86 236l-86 -236h-254zM65 32l27 -1h18q63 4 63 67v1402h265v-1392q0 -137 -56 -204.5t-157 -69.5q-18 -1 -77.5 -1t-82.5 17v182z" />
<glyph unicode="&#x136;" horiz-adv-x="970" d="M132 0v1760h268v-810l268 810h277l-292 -868l315 -892h-283l-283 822v-822h-270zM329 -165h273v-254l-92 -313h-121l55 304h-115v263z" />
<glyph unicode="&#x137;" horiz-adv-x="937" d="M132 0v1775h265v-957l256 682h269l-289 -738l306 -762h-270l-272 713v-713h-265zM309 -165h273v-254l-92 -313h-121l55 304h-115v263z" />
<glyph unicode="&#x138;" horiz-adv-x="937" d="M132 0v1499h265v-681l256 682h269l-289 -738l306 -762h-270l-272 713v-713h-265z" />
<glyph unicode="&#x139;" horiz-adv-x="761" d="M132 0v1760h268v-1532h339v-228h-607zM179 1898v156l441 192v-258z" />
<glyph unicode="&#x13a;" horiz-adv-x="534" d="M61 1898v156l441 192v-258zM135 0v1775h264v-1775h-264z" />
<glyph unicode="&#x13b;" horiz-adv-x="761" d="M132 0v1760h268v-1532h339v-228h-607zM249 -165h273v-254l-92 -313h-121l55 304h-115v263z" />
<glyph unicode="&#x13c;" horiz-adv-x="534" d="M107 -165h273v-254l-92 -313h-121l55 304h-115v263zM135 0v1775h264v-1775h-264z" />
<glyph unicode="&#x13d;" horiz-adv-x="779" d="M132 0v1760h268v-1532h339v-228h-607zM664 1477v264h273v-255l-92 -313h-121l56 304h-116z" />
<glyph unicode="&#x13e;" horiz-adv-x="534" d="M107 -165h273v-254l-92 -313h-121l55 304h-115v263zM135 0v1775h264v-1775h-264z" />
<glyph unicode="&#x13f;" horiz-adv-x="761" d="M132 0v1760h268v-1532h339v-228h-607zM536 988v245h231v-245h-231z" />
<glyph unicode="&#x140;" horiz-adv-x="1014" d="M135 0v1775h264v-1775h-264zM666 750v245h231v-245h-231z" />
<glyph unicode="&#x141;" horiz-adv-x="794" d="M-1 732v184l133 49v795h268v-695l215 80v-184l-215 -80v-653h339v-228h-607v781z" />
<glyph unicode="&#x142;" horiz-adv-x="648" d="M49 728v193l127 54v800h264v-687l151 65v-193l-151 -65v-895h-264v782z" />
<glyph unicode="&#x143;" horiz-adv-x="1069" d="M132 0v1760h210l373 -1056l-19 480v576h241v-1760h-190l-383 1093l15 -462v-631h-247zM329 1898v156l441 192v-258z" />
<glyph unicode="&#x144;" d="M132 0v1500h265v-172q20 80 86 135t155 55q260 0 260 -337v-1181h-265v1165q0 65 -29.5 102t-85.5 37t-88.5 -48t-32.5 -129v-1127h-265zM304 1638v156l441 192v-258z" />
<glyph unicode="&#x145;" horiz-adv-x="1069" d="M132 0v1760h210l373 -1056l-19 480v576h241v-1760h-190l-383 1093l15 -462v-631h-247zM375 -165h273v-254l-92 -313h-121l55 304h-115v263z" />
<glyph unicode="&#x146;" d="M132 0v1500h265v-172q20 80 86 135t155 55q260 0 260 -337v-1181h-265v1165q0 65 -29.5 102t-85.5 37t-88.5 -48t-32.5 -129v-1127h-265zM350 -165h273v-254l-92 -313h-121l55 304h-115v263z" />
<glyph unicode="&#x147;" horiz-adv-x="1069" d="M132 0v1760h210l373 -1056l-19 480v576h241v-1760h-190l-383 1093l15 -462v-631h-247zM195 2206h254l86 -237l86 237h253l-188 -338h-302z" />
<glyph unicode="&#x148;" d="M132 0v1500h265v-172q20 80 86 135t155 55q260 0 260 -337v-1181h-265v1165q0 65 -29.5 102t-85.5 37t-88.5 -48t-32.5 -129v-1127h-265zM170 1946h254l86 -237l86 237h253l-188 -338h-302z" />
<glyph unicode="&#x14c;" horiz-adv-x="999" d="M110 492v805q0 484 395 484q204 0 293.5 -123t89.5 -361v-805q0 -258 -92 -385t-294.5 -127t-297 127.5t-94.5 384.5zM241 1910v151h507v-151h-507zM380 489q0 -155 23.5 -216t96.5 -61t96 62.5t23 214.5v820q0 125 -23.5 182.5t-92 57.5t-96 -57.5t-27.5 -181.5v-821z " />
<glyph unicode="&#x14d;" horiz-adv-x="970" d="M110 476v561q0 481 375 481t375 -481v-561q0 -375 -193 -461q-74 -33 -181 -33q-212 0 -294 127t-82 367zM227 1646v151h507v-151h-507zM377 413q0 -165 54 -202q22 -15 55 -15q62 0 84.5 54.5t22.5 162.5v671q0 110 -23 165t-85 55t-85 -54.5t-23 -165.5v-671z" />
<glyph unicode="&#x14e;" horiz-adv-x="999" d="M110 492v805q0 484 395 484q204 0 293.5 -123t89.5 -361v-805q0 -258 -92 -385t-294.5 -127t-297 127.5t-94.5 384.5zM216 2141v15h150q0 -76 34.5 -103t97.5 -27t97 26.5t34 103.5h151v-13q0 -264 -282 -264t-282 262zM380 489q0 -155 23.5 -216t96.5 -61t96 62.5 t23 214.5v820q0 125 -23.5 182.5t-92 57.5t-96 -57.5t-27.5 -181.5v-821z" />
<glyph unicode="&#x14f;" horiz-adv-x="970" d="M110 476v561q0 481 375 481t375 -481v-561q0 -375 -193 -461q-74 -33 -181 -33q-212 0 -294 127t-82 367zM202 1877v15h150q0 -76 34.5 -103t97.5 -27t97 26.5t34 103.5h151v-13q0 -264 -282 -264t-282 262zM377 413q0 -165 54 -202q22 -15 55 -15q62 0 84.5 54.5 t22.5 162.5v671q0 110 -23 165t-85 55t-85 -54.5t-23 -165.5v-671z" />
<glyph unicode="&#x150;" horiz-adv-x="999" d="M110 492v805q0 484 395 484q204 0 293.5 -123t89.5 -361v-805q0 -258 -92 -385t-294.5 -127t-297 127.5t-94.5 384.5zM174 1984l151 441l207 -97l-245 -391zM380 489q0 -155 23.5 -216t96.5 -61t96 62.5t23 214.5v820q0 125 -23.5 182.5t-92 57.5t-96 -57.5t-27.5 -181.5 v-821zM511 1984l207 441l211 -101l-307 -392z" />
<glyph unicode="&#x151;" horiz-adv-x="970" d="M110 476v561q0 481 375 481t375 -481v-561q0 -375 -193 -461q-74 -33 -181 -33q-212 0 -294 127t-82 367zM160 1720l151 441l207 -97l-245 -391zM377 413q0 -165 54 -202q22 -15 55 -15q62 0 84.5 54.5t22.5 162.5v671q0 110 -23 165t-85 55t-85 -54.5t-23 -165.5v-671z M497 1720l207 441l211 -101l-307 -392z" />
<glyph unicode="&#x152;" horiz-adv-x="1235" d="M110 494v801q0 234 92 350t298 116h641v-232h-265v-512h249v-232h-249v-554h277v-231h-656q-203 0 -295 119.5t-92 374.5zM378 491q0 -152 22 -204.5t97 -53.5h111v1291h-108q-70 0 -96 -49.5t-26 -169.5v-814z" />
<glyph unicode="&#x153;" horiz-adv-x="1451" d="M110 478v559q0 224 92.5 352.5t289.5 128.5q148 0 245 -108q92 108 248 108q205 0 283.5 -121t78.5 -344q0 -301 -2 -327h-477v-289q0 -157 28 -199t81.5 -42t73.5 39q31 59 31 195t-1 139h264v-70q0 -206 -32.5 -296.5t-74.5 -132.5q-88 -88 -251 -88t-250 103 q-95 -103 -245 -103q-208 0 -295 125t-87 371zM380 413q0 -107 24 -162t87 -55t87 55.5t24 161.5v671q0 109 -24.5 164.5t-87 55.5t-86.5 -55t-24 -165v-671zM868 1059l1 -153h213v173q0 123 -19.5 176.5t-79.5 53.5q-105 0 -113 -171q-2 -32 -2 -79z" />
<glyph unicode="&#x154;" horiz-adv-x="1010" d="M132 0v1760h443q138 0 206 -55.5t89.5 -155t21.5 -260t-34 -244.5t-126 -113q91 -16 127 -123t36 -445.5t10 -363.5h-268q-10 20 -10 631q0 117 -28 155.5t-113 40.5l-86 4v-831h-268zM303 1898v156l441 192v-258zM401 1039h107q51 0 75.5 23t34 79t9.5 171v11 q0 143 -24 187t-111 44h-91v-515z" />
<glyph unicode="&#x155;" horiz-adv-x="688" d="M132 0v1500h267v-167q26 88 91.5 136.5t163.5 48.5q4 0 4 -168l-1 -56q-80 0 -157 -27t-101 -77v-1190h-267zM186 1638v156l441 192v-258z" />
<glyph unicode="&#x156;" horiz-adv-x="1010" d="M132 0v1760h443q138 0 206 -55.5t89.5 -155t21.5 -260t-34 -244.5t-126 -113q91 -16 127 -123t36 -445.5t10 -363.5h-268q-10 20 -10 631q0 117 -28 155.5t-113 40.5l-86 4v-831h-268zM349 -165h273v-254l-92 -313h-121l55 304h-115v263zM401 1039h107q51 0 75.5 23 t34 79t9.5 171v11q0 143 -24 187t-111 44h-91v-515z" />
<glyph unicode="&#x157;" horiz-adv-x="688" d="M132 0v1500h267v-167q26 88 91.5 136.5t163.5 48.5q4 0 4 -168l-1 -56q-80 0 -157 -27t-101 -77v-1190h-267zM162 -165h273v-254l-92 -313h-121l55 304h-115v263z" />
<glyph unicode="&#x158;" horiz-adv-x="1010" d="M132 0v1760h443q138 0 206 -55.5t89.5 -155t21.5 -260t-34 -244.5t-126 -113q91 -16 127 -123t36 -445.5t10 -363.5h-268q-10 20 -10 631q0 117 -28 155.5t-113 40.5l-86 4v-831h-268zM169 2206h254l86 -237l86 237h253l-188 -338h-302zM401 1039h107q51 0 75.5 23t34 79 t9.5 171v11q0 143 -24 187t-111 44h-91v-515z" />
<glyph unicode="&#x159;" horiz-adv-x="688" d="M52 1946h254l86 -237l86 237h253l-188 -338h-302zM132 0v1500h267v-167q26 88 91.5 136.5t163.5 48.5q4 0 4 -168l-1 -56q-80 0 -157 -27t-101 -77v-1190h-267z" />
<glyph unicode="&#x15a;" horiz-adv-x="905" d="M95 1351q0 218 84 324t289 106t277.5 -123.5t72.5 -360.5v-109h-247v126q0 128 -22 183.5t-84.5 55.5t-90 -42t-27.5 -126t28 -134t101 -128l145 -157q109 -118 164.5 -239t55.5 -264q0 -247 -83 -365t-290.5 -118t-289 131.5t-81.5 383.5v157h254v-177q0 -147 25 -206.5 t94 -59.5t91.5 49t22.5 160t-40 193.5t-127 172.5l-130 134q-91 95 -141.5 197t-50.5 236zM274 1897v156l441 192v-258z" />
<glyph unicode="&#x15b;" horiz-adv-x="867" d="M82 1150q0 368 354 368q176 0 257.5 -100.5t81.5 -334.5v-82h-237v99q0 102 -23 151.5t-76.5 49.5t-79 -31t-25.5 -106q0 -119 106 -221l142 -129q219 -204 219 -449q0 -192 -87 -288t-270 -96t-270 104.5t-87 335.5v97h249v-121q0 -200 102 -200q54 0 78 35.5t24 120.5 q0 150 -138 278q-4 4 -64.5 58t-70.5 64q-185 169 -185 397zM247 1638v156l441 192v-258z" />
<glyph unicode="&#x15c;" horiz-adv-x="905" d="M95 1351q0 218 84 324t289 106t277.5 -123.5t72.5 -360.5v-109h-247v126q0 128 -22 183.5t-84.5 55.5t-90 -42t-27.5 -126t28 -134t101 -128l145 -157q109 -118 164.5 -239t55.5 -264q0 -247 -83 -365t-290.5 -118t-289 131.5t-81.5 383.5v157h254v-177q0 -147 25 -206.5 t94 -59.5t91.5 49t22.5 160t-40 193.5t-127 172.5l-130 134q-91 95 -141.5 197t-50.5 236zM140 1866l189 337h302l188 -337h-253l-86 236l-86 -236h-254z" />
<glyph unicode="&#x15d;" horiz-adv-x="867" d="M82 1150q0 368 354 368q176 0 257.5 -100.5t81.5 -334.5v-82h-237v99q0 102 -23 151.5t-76.5 49.5t-79 -31t-25.5 -106q0 -119 106 -221l142 -129q219 -204 219 -449q0 -192 -87 -288t-270 -96t-270 104.5t-87 335.5v97h249v-121q0 -200 102 -200q54 0 78 35.5t24 120.5 q0 150 -138 278q-4 4 -64.5 58t-70.5 64q-185 169 -185 397zM112 1608l189 337h302l188 -337h-253l-86 236l-86 -236h-254z" />
<glyph unicode="&#x15e;" horiz-adv-x="905" d="M95 1351q0 218 84 324t289 106t277.5 -123.5t72.5 -360.5v-109h-247v126q0 128 -22 183.5t-84.5 55.5t-90 -42t-27.5 -126t28 -134t101 -128l145 -157q109 -118 164.5 -239t55.5 -264q0 -247 -83 -365t-290.5 -118t-289 131.5t-81.5 383.5v157h254v-177q0 -147 25 -206.5 t94 -59.5t91.5 49t22.5 160t-40 193.5t-127 172.5l-130 134q-91 95 -141.5 197t-50.5 236zM259 -501q231 0 231 141q0 64 -46.5 106.5t-113.5 57.5l40 196h82l15 -141q228 -78 228 -264q0 -91 -77.5 -162t-209.5 -71q-78 0 -149 26v111z" />
<glyph unicode="&#x15f;" horiz-adv-x="867" d="M82 1150q0 368 354 368q176 0 257.5 -100.5t81.5 -334.5v-82h-237v99q0 102 -23 151.5t-76.5 49.5t-79 -31t-25.5 -106q0 -119 106 -221l142 -129q219 -204 219 -449q0 -192 -87 -288t-270 -96t-270 104.5t-87 335.5v97h249v-121q0 -200 102 -200q54 0 78 35.5t24 120.5 q0 150 -138 278q-4 4 -64.5 58t-70.5 64q-185 169 -185 397zM231 -501q231 0 231 141q0 64 -46.5 106.5t-113.5 57.5l40 196h82l15 -141q228 -78 228 -264q0 -91 -77.5 -162t-209.5 -71q-78 0 -149 26v111z" />
<glyph unicode="&#x160;" horiz-adv-x="905" d="M95 1351q0 218 84 324t289 106t277.5 -123.5t72.5 -360.5v-109h-247v126q0 128 -22 183.5t-84.5 55.5t-90 -42t-27.5 -126t28 -134t101 -128l145 -157q109 -118 164.5 -239t55.5 -264q0 -247 -83 -365t-290.5 -118t-289 131.5t-81.5 383.5v157h254v-177q0 -147 25 -206.5 t94 -59.5t91.5 49t22.5 160t-40 193.5t-127 172.5l-130 134q-91 95 -141.5 197t-50.5 236zM140 2204h254l86 -237l86 237h253l-188 -338h-302z" />
<glyph unicode="&#x161;" horiz-adv-x="867" d="M82 1150q0 368 354 368q176 0 257.5 -100.5t81.5 -334.5v-82h-237v99q0 102 -23 151.5t-76.5 49.5t-79 -31t-25.5 -106q0 -119 106 -221l142 -129q219 -204 219 -449q0 -192 -87 -288t-270 -96t-270 104.5t-87 335.5v97h249v-121q0 -200 102 -200q54 0 78 35.5t24 120.5 q0 150 -138 278q-4 4 -64.5 58t-70.5 64q-185 169 -185 397zM112 1946h254l86 -237l86 237h253l-188 -338h-302z" />
<glyph unicode="&#x164;" horiz-adv-x="703" d="M12 2206h254l86 -237l86 237h253l-188 -338h-302zM16 1528v232h671v-232h-198v-1528h-267v1528h-206z" />
<glyph unicode="&#x165;" horiz-adv-x="645" d="M47 1277v192h122v292h265v-292h146v-192h-146v-1002q0 -53 27.5 -68t123.5 -15v-202h-180q-140 0 -188 53.5t-48 185.5v1048h-122zM717 1483v281h349v-272l-136 -438h-154l94 429h-153z" />
<glyph unicode="&#x168;" d="M122 452v1309h268v-1304q0 -139 13 -169t31.5 -54.5t76.5 -24.5t83 34t30.5 84.5t5.5 129.5v1304h268v-1309q0 -243 -92 -357.5t-295.5 -114.5t-296 115t-92.5 357zM175 1956q28 98 75.5 140t104 42t161.5 -37t126 -37h4q17 3 29.5 16.5t26.5 54.5l142 -28l-9 -48 q-21 -99 -61.5 -137.5t-98 -38.5t-156.5 41t-127.5 41t-44 -3.5t-42.5 -57.5z" />
<glyph unicode="&#x169;" horiz-adv-x="1015" d="M122 340v1160h266v-1119q0 -93 23 -137.5t86 -44.5q121 0 121 180l1 1121h264v-1500h-265v156q-63 -175 -229 -175q-267 0 -267 359zM182 1699q28 98 75.5 140t104 42t161.5 -37t126 -37h4q17 3 29.5 16.5t26.5 54.5l142 -28l-9 -48q-21 -99 -61.5 -137.5t-98 -38.5 t-156.5 41t-127.5 41t-44 -3.5t-42.5 -57.5z" />
<glyph unicode="&#x16a;" d="M122 452v1309h268v-1304q0 -139 13 -169t31.5 -54.5t76.5 -24.5t83 34t30.5 84.5t5.5 129.5v1304h268v-1309q0 -243 -92 -357.5t-295.5 -114.5t-296 115t-92.5 357zM252 1903v151h507v-151h-507z" />
<glyph unicode="&#x16b;" horiz-adv-x="1015" d="M122 340v1160h266v-1119q0 -93 23 -137.5t86 -44.5q121 0 121 180l1 1121h264v-1500h-265v156q-63 -175 -229 -175q-267 0 -267 359zM259 1646v151h507v-151h-507z" />
<glyph unicode="&#x16c;" d="M122 452v1309h268v-1304q0 -139 13 -169t31.5 -54.5t76.5 -24.5t83 34t30.5 84.5t5.5 129.5v1304h268v-1309q0 -243 -92 -357.5t-295.5 -114.5t-296 115t-92.5 357zM227 2134v15h150q0 -76 34.5 -103t97.5 -27t97 26.5t34 103.5h151v-13q0 -264 -282 -264t-282 262z" />
<glyph unicode="&#x16d;" horiz-adv-x="1015" d="M122 340v1160h266v-1119q0 -93 23 -137.5t86 -44.5q121 0 121 180l1 1121h264v-1500h-265v156q-63 -175 -229 -175q-267 0 -267 359zM234 1877v15h150q0 -76 34.5 -103t97.5 -27t97 26.5t34 103.5h151v-13q0 -264 -282 -264t-282 262z" />
<glyph unicode="&#x16e;" d="M122 452v1309h268v-1304q0 -139 13 -169t31.5 -54.5t76.5 -24.5t83 34t30.5 84.5t5.5 129.5v1304h268v-1309q0 -243 -92 -357.5t-295.5 -114.5t-296 115t-92.5 357zM281 2107q0 98 63 161t170.5 63t170 -63t62.5 -161t-62.5 -161t-170 -63t-170.5 63t-63 161zM396 2108 q0 -53 31.5 -92t87.5 -39t87.5 39t31.5 92t-31.5 91.5t-87.5 38.5t-87.5 -38.5t-31.5 -91.5z" />
<glyph unicode="&#x16f;" horiz-adv-x="1015" d="M122 340v1160h266v-1119q0 -93 23 -137.5t86 -44.5q121 0 121 180l1 1121h264v-1500h-265v156q-63 -175 -229 -175q-267 0 -267 359zM283 1850q0 98 63 161t170.5 63t170 -63t62.5 -161t-62.5 -161t-170 -63t-170.5 63t-63 161zM398 1851q0 -53 31.5 -92t87.5 -39 t87.5 39t31.5 92t-31.5 91.5t-87.5 38.5t-87.5 -38.5t-31.5 -91.5z" />
<glyph unicode="&#x170;" d="M122 452v1309h268v-1304q0 -139 13 -169t31.5 -54.5t76.5 -24.5t83 34t30.5 84.5t5.5 129.5v1304h268v-1309q0 -243 -92 -357.5t-295.5 -114.5t-296 115t-92.5 357zM185 1977l151 441l207 -97l-245 -391zM522 1977l207 441l211 -101l-307 -392z" />
<glyph unicode="&#x171;" horiz-adv-x="1015" d="M122 340v1160h266v-1119q0 -93 23 -137.5t86 -44.5q121 0 121 180l1 1121h264v-1500h-265v156q-63 -175 -229 -175q-267 0 -267 359zM192 1720l151 441l207 -97l-245 -391zM529 1720l207 441l211 -101l-307 -392z" />
<glyph unicode="&#x172;" d="M122 452v1309h268v-1304q0 -139 13 -169t31.5 -54.5t76.5 -24.5t83 34t30.5 84.5t5.5 129.5v1304h268v-1309q0 -243 -92 -357.5t-295.5 -114.5t-296 115t-92.5 357zM241 -383.5q0 107.5 69 212t197 175.5h107q-180 -189 -180 -339q0 -64 40.5 -96.5t98 -32.5t122.5 15 v-138q-20 -11 -71 -23t-98 -12q-137 0 -211 65.5t-74 173z" />
<glyph unicode="&#x173;" horiz-adv-x="1015" d="M122 340v1160h266v-1119q0 -93 23 -137.5t86 -44.5q121 0 121 180l1 1121h264v-1500h-265v156q-63 -175 -229 -175q-267 0 -267 359zM449 -383.5q0 107.5 69 212t197 175.5h107q-180 -189 -180 -339q0 -64 40.5 -96.5t98 -32.5t122.5 15v-138q-20 -11 -71 -23t-98 -12 q-137 0 -211 65.5t-74 173z" />
<glyph unicode="&#x174;" horiz-adv-x="1388" d="M60 1760h240l129 -1254l164 1254h216l165 -1254l114 1254h241l-202 -1760h-267l-156 1170l-162 -1170h-267zM365 1868l189 337h302l188 -337h-253l-86 236l-86 -236h-254z" />
<glyph unicode="&#x175;" horiz-adv-x="1251" d="M44 1500h223l76 -633l34 -322h6l33 323l89 632h236l98 -620l42 -335h6l29 334l67 621h222l-190 -1500h-232l-152 1127l-162 -1127h-224zM290 1608l189 337h302l188 -337h-253l-86 236l-86 -236h-254z" />
<glyph unicode="&#x176;" horiz-adv-x="862" d="M9 1760h256l174 -658h4l155 658h255l-281 -1057v-703h-268v703zM95 1868l189 337h302l188 -337h-253l-86 236l-86 -236h-254z" />
<glyph unicode="&#x177;" horiz-adv-x="852" d="M42 1501h252l96 -768l40 -404h22l36 404l88 768h251l-260 -1565q-17 -113 -57 -157t-140 -44h-282v183h87q50 0 77.5 8t30.5 32q6 10 6 37t-7 73zM91 1608l189 337h302l188 -337h-253l-86 236l-86 -236h-254z" />
<glyph unicode="&#x178;" horiz-adv-x="862" d="M9 1760h256l174 -658h4l155 658h255l-281 -1057v-703h-268v703zM52 1883v226h282v-226h-282zM536 1883v226h282v-226h-282z" />
<glyph unicode="&#x179;" horiz-adv-x="810" d="M98 0v238l365 1291h-332v231h613v-217l-365 -1312h357v-231h-638zM244 1898v156l441 192v-258z" />
<glyph unicode="&#x17a;" horiz-adv-x="727" d="M70 0v200l330 1073h-305v227h574v-191l-328 -1087h314v-222h-585zM205 1638v156l441 192v-258z" />
<glyph unicode="&#x17b;" horiz-adv-x="810" d="M98 0v238l365 1291h-332v231h613v-217l-365 -1312h357v-231h-638zM317 1876v226h271v-226h-271z" />
<glyph unicode="&#x17c;" horiz-adv-x="727" d="M70 0v200l330 1073h-305v227h574v-191l-328 -1087h314v-222h-585zM278 1616v226h271v-226h-271z" />
<glyph unicode="&#x17d;" horiz-adv-x="810" d="M98 0v238l365 1291h-332v231h613v-217l-365 -1312h357v-231h-638zM110 2206h254l86 -237l86 237h253l-188 -338h-302z" />
<glyph unicode="&#x17e;" horiz-adv-x="727" d="M70 0v200l330 1073h-305v227h574v-191l-328 -1087h314v-222h-585zM71 1946h254l86 -237l86 237h253l-188 -338h-302z" />
<glyph unicode="&#x192;" horiz-adv-x="767" d="M107 1056v202h147v281q0 244 215 244q100 0 183 -31v-178q-50 13 -82 13q-60 0 -60 -103v-226h146v-202h-146v-835q0 -238 -220 -238q-97 0 -175 25v178q38 -4 48 -4q59 0 75 25t16 98v751h-147z" />
<glyph unicode="&#x1c4;" horiz-adv-x="1815" d="M131 0v1760h395q194 0 281.5 -114.5t87.5 -337.5l1 -794q0 -266 -88 -390t-291 -124h-386zM399 208h88q74 0 107.5 48t33.5 176l-1 869q0 137 -33.5 195t-115.5 58h-79v-1346zM1103 0v238l365 1291h-332v231h613v-217l-365 -1312h357v-231h-638zM1115 2206h254l86 -237 l86 237h253l-188 -338h-302z" />
<glyph unicode="&#x1c5;" horiz-adv-x="1732" d="M131 0v1760h395q194 0 281.5 -114.5t87.5 -337.5l1 -794q0 -266 -88 -390t-291 -124h-386zM399 208h88q74 0 107.5 48t33.5 176l-1 869q0 137 -33.5 195t-115.5 58h-79v-1346zM1075 0v200l330 1073h-305v227h574v-191l-328 -1087h314v-222h-585zM1076 1946h254l86 -237 l86 237h253l-188 -338h-302z" />
<glyph unicode="&#x1c6;" horiz-adv-x="1725" d="M110 479v611q0 188 69 308t228 120q62 0 113.5 -30t80.5 -81v368h265v-1775h-265v139q-60 -154 -215 -154q-121 0 -181 68t-77.5 172.5t-17.5 253.5zM377 443q0 -124 23.5 -185.5t88 -61.5t89 61.5t24.5 205.5v600q0 185 -56 224q-24 16 -58 16q-67 0 -89 -61t-22 -182 v-617zM1068 0v200l330 1073h-305v227h574v-191l-328 -1087h314v-222h-585zM1069 1946h254l86 -237l86 237h253l-188 -338h-302z" />
<glyph unicode="&#x1c7;" horiz-adv-x="1683" d="M132 0v1760h268v-1532h339v-228h-607zM829 389v314h259v-301q0 -146 47 -178q21 -14 52 -14q61 0 80.5 50t19.5 158v1342h268v-1329q0 -216 -95 -333.5t-267.5 -117.5t-268 104.5t-95.5 304.5z" />
<glyph unicode="&#x1c8;" horiz-adv-x="1325" d="M132 0v1760h268v-1532h339v-228h-607zM822 3q17 -4 45 -1q63 3 63 67v1431h265v-1421q0 -137 -55.5 -205t-156.5 -70q-18 -1 -78 -1t-83 17v183zM926 1638v230h267v-230h-267z" />
<glyph unicode="&#x1c9;" horiz-adv-x="1098" d="M135 0v1775h264v-1775h-264zM595 3q17 -4 45 -1q63 3 63 67v1431h265v-1421q0 -137 -55.5 -205t-156.5 -70q-18 -1 -78 -1t-83 17v183zM699 1638v230h267v-230h-267z" />
<glyph unicode="&#x1ca;" horiz-adv-x="1991" d="M132 0v1760h210l373 -1056l-19 480v576h241v-1760h-190l-383 1093l15 -462v-631h-247zM1137 389v314h259v-301q0 -146 47 -178q21 -14 52 -14q61 0 80.5 50t19.5 158v1342h268v-1329q0 -216 -95 -333.5t-267.5 -117.5t-268 104.5t-95.5 304.5z" />
<glyph unicode="&#x1cb;" horiz-adv-x="1633" d="M132 0v1760h210l373 -1056l-19 480v576h241v-1760h-190l-383 1093l15 -462v-631h-247zM1130 3q17 -4 45 -1q63 3 63 67v1431h265v-1421q0 -137 -55.5 -205t-156.5 -70q-18 -1 -78 -1t-83 17v183zM1234 1638v230h267v-230h-267z" />
<glyph unicode="&#x1cc;" horiz-adv-x="1584" d="M132 0v1500h265v-172q20 80 86 135t155 55q260 0 260 -337v-1181h-265v1165q0 65 -29.5 102t-85.5 37t-88.5 -48t-32.5 -129v-1127h-265zM1081 3q17 -4 45 -1q63 3 63 67v1431h265v-1421q0 -137 -55.5 -205t-156.5 -70q-18 -1 -78 -1t-83 17v183zM1185 1638v230h267v-230 h-267z" />
<glyph unicode="&#x1f1;" horiz-adv-x="1815" d="M131 0v1760h395q194 0 281.5 -114.5t87.5 -337.5l1 -794q0 -266 -88 -390t-291 -124h-386zM399 208h88q74 0 107.5 48t33.5 176l-1 869q0 137 -33.5 195t-115.5 58h-79v-1346zM1103 0v238l365 1291h-332v231h613v-217l-365 -1312h357v-231h-638z" />
<glyph unicode="&#x1f2;" horiz-adv-x="1732" d="M131 0v1760h395q194 0 281.5 -114.5t87.5 -337.5l1 -794q0 -266 -88 -390t-291 -124h-386zM399 208h88q74 0 107.5 48t33.5 176l-1 869q0 137 -33.5 195t-115.5 58h-79v-1346zM1075 0v200l330 1073h-305v227h574v-191l-328 -1087h314v-222h-585z" />
<glyph unicode="&#x1f3;" horiz-adv-x="1725" d="M110 479v611q0 188 69 308t228 120q62 0 113.5 -30t80.5 -81v368h265v-1775h-265v139q-60 -154 -215 -154q-121 0 -181 68t-77.5 172.5t-17.5 253.5zM377 443q0 -124 23.5 -185.5t88 -61.5t89 61.5t24.5 205.5v600q0 185 -56 224q-24 16 -58 16q-67 0 -89 -61t-22 -182 v-617zM1068 0v200l330 1073h-305v227h574v-191l-328 -1087h314v-222h-585z" />
<glyph unicode="&#x1f4;" horiz-adv-x="1000" d="M110 515v765q0 244 95.5 372t303.5 128q259 0 329 -193q42 -116 42 -317v-125h-250v184q0 121 -25.5 170t-96 49t-99.5 -58.5t-29 -207.5v-763q0 -173 26 -241t101.5 -68t107 73t31.5 246v237h-135v195h369v-961h-120l-41 173q-21 -89 -92 -140t-164 -51 q-166 0 -259.5 130.5t-93.5 402.5zM300 1898v156l441 192v-258z" />
<glyph unicode="&#x1f5;" horiz-adv-x="990" d="M100 -118l93 167q119 -76 222 -76t144 52t41 140v119q-25 -72 -76.5 -101.5t-131.5 -29.5q-157 0 -217.5 117t-60.5 312v483q0 453 284 453h4q156 0 198 -151v133h265v-1315q0 -192 -93.5 -301t-316 -109t-355.5 107zM315 1638v156l441 192v-258zM381 594 q0 -123 23.5 -181.5t85 -58.5t86 52.5t24.5 189.5v491q0 105 -25.5 161t-90.5 56t-84 -57.5t-19 -158.5v-494z" />
<glyph unicode="&#x200;" horiz-adv-x="976" d="M52 0l251 1760h354l267 -1760h-250l-42 314h-284l-38 -314h-258zM73 2266l191 103l206 -412l-123 -53zM374 529h230l-118 884h-4zM438 2266l187 103l169 -412l-123 -53z" />
<glyph unicode="&#x201;" horiz-adv-x="981" d="M101 2006l191 103l206 -412l-123 -53zM107 394v96q0 192 104 291q67 65 227 126q29 11 80.5 30t72.5 27v131q0 122 -17.5 165.5t-80 43.5t-83.5 -46t-21 -155v-67h-262v45q0 213 79.5 325t282 112t288 -112t85.5 -336v-1070h-267v149q-20 -69 -76.5 -116.5t-136.5 -47.5 q-147 0 -210 105.5t-65 303.5zM377 392q0 -105 22 -150.5t71.5 -45.5t81 33.5t39.5 75.5v509q-126 -56 -170 -106t-44 -155v-161zM466 2006l187 103l169 -412l-123 -53z" />
<glyph unicode="&#x202;" horiz-adv-x="976" d="M52 0l251 1760h354l267 -1760h-250l-42 314h-284l-38 -314h-258zM196 1904v13v4q0 262 280 262q282 0 285 -259v-15l-151 -1q-1 76 -35 102t-94 26q-103 0 -125 -64q-9 -25 -9 -61v-7h-151zM374 529h230l-118 884h-4z" />
<glyph unicode="&#x203;" horiz-adv-x="981" d="M107 394v96q0 192 104 291q67 65 227 126q29 11 80.5 30t72.5 27v131q0 122 -17.5 165.5t-80 43.5t-83.5 -46t-21 -155v-67h-262v45q0 213 79.5 325t282 112t288 -112t85.5 -336v-1070h-267v149q-20 -69 -76.5 -116.5t-136.5 -47.5q-147 0 -210 105.5t-65 303.5z M224 1644v13v4q0 262 280 262q282 0 285 -259v-15l-151 -1q-1 76 -35 102t-94 26q-103 0 -125 -64q-9 -25 -9 -61v-7h-151zM377 392q0 -105 22 -150.5t71.5 -45.5t81 33.5t39.5 75.5v509q-126 -56 -170 -106t-44 -155v-161z" />
<glyph unicode="&#x204;" horiz-adv-x="816" d="M30 2266l191 103l206 -412l-123 -53zM132 0v1760h590v-231h-322v-512h306v-226h-306v-560h334v-231h-602zM395 2266l187 103l169 -412l-123 -53z" />
<glyph unicode="&#x205;" horiz-adv-x="958" d="M77 2005l191 103l206 -412l-123 -53zM110 499v559q0 460 383 460q204 0 282.5 -121t78.5 -344v-321h-477v-295q0 -156 27 -198.5t81 -42.5t70 25q27 44 31 90t4 126v132h262v-80q0 -204 -32 -293t-74 -129q-88 -85 -264 -85q-253 0 -326 193q-46 123 -46 324zM376 887 h214v192q0 123 -19.5 176.5t-79.5 53.5h-1q-104 0 -112 -159q-2 -30 -2 -78v-185zM442 2005l187 103l169 -412l-123 -53z" />
<glyph unicode="&#x206;" horiz-adv-x="816" d="M132 0v1760h590v-231h-322v-512h306v-226h-306v-560h334v-231h-602zM153 1904v13v4q0 262 280 262q282 0 285 -259v-15l-151 -1q-1 76 -35 102t-94 26q-103 0 -125 -64q-9 -25 -9 -61v-7h-151z" />
<glyph unicode="&#x207;" horiz-adv-x="958" d="M110 499v559q0 460 383 460q204 0 282.5 -121t78.5 -344v-321h-477v-295q0 -156 27 -198.5t81 -42.5t70 25q27 44 31 90t4 126v132h262v-80q0 -204 -32 -293t-74 -129q-88 -85 -264 -85q-253 0 -326 193q-46 123 -46 324zM201 1643v13v4q0 262 280 262q282 0 285 -259 v-15l-151 -1q-1 76 -35 102t-94 26q-103 0 -125 -64q-9 -25 -9 -61v-7h-151zM376 887h214v192q0 123 -19.5 176.5t-79.5 53.5h-1q-104 0 -112 -159q-2 -30 -2 -78v-185z" />
<glyph unicode="&#x208;" horiz-adv-x="552" d="M-133 2266l191 103l206 -412l-123 -53zM142 0v1760h268v-1760h-268zM232 2266l187 103l169 -412l-123 -53z" />
<glyph unicode="&#x209;" horiz-adv-x="537" d="M-145 2006l191 103l206 -412l-123 -53zM136 0v1500h265v-1500h-265zM220 2006l187 103l169 -412l-123 -53z" />
<glyph unicode="&#x20a;" horiz-adv-x="552" d="M-10 1904v13v4q0 262 280 262q282 0 285 -259v-15l-151 -1q-1 76 -35 102t-94 26q-103 0 -125 -64q-9 -25 -9 -61v-7h-151zM142 0v1760h268v-1760h-268z" />
<glyph unicode="&#x20b;" horiz-adv-x="537" d="M-11 1644v13v4q0 262 280 262q282 0 285 -259v-15l-151 -1q-1 76 -35 102t-94 26q-103 0 -125 -64q-9 -25 -9 -61v-7h-151zM136 0v1500h265v-1500h-265z" />
<glyph unicode="&#x20c;" horiz-adv-x="999" d="M90 2270l191 103l206 -412l-123 -53zM110 492v805q0 484 395 484q204 0 293.5 -123t89.5 -361v-805q0 -258 -92 -385t-294.5 -127t-297 127.5t-94.5 384.5zM380 489q0 -155 23.5 -216t96.5 -61t96 62.5t23 214.5v820q0 125 -23.5 182.5t-92 57.5t-96 -57.5t-27.5 -181.5 v-821zM455 2270l187 103l169 -412l-123 -53z" />
<glyph unicode="&#x20d;" horiz-adv-x="970" d="M76 2006l191 103l206 -412l-123 -53zM110 476v561q0 481 375 481t375 -481v-561q0 -375 -193 -461q-74 -33 -181 -33q-212 0 -294 127t-82 367zM377 413q0 -165 54 -202q22 -15 55 -15q62 0 84.5 54.5t22.5 162.5v671q0 110 -23 165t-85 55t-85 -54.5t-23 -165.5v-671z M441 2006l187 103l169 -412l-123 -53z" />
<glyph unicode="&#x20e;" horiz-adv-x="999" d="M110 492v805q0 484 395 484q204 0 293.5 -123t89.5 -361v-805q0 -258 -92 -385t-294.5 -127t-297 127.5t-94.5 384.5zM214 1908v13v4q0 262 280 262q282 0 285 -259v-15l-151 -1q-1 76 -35 102t-94 26q-103 0 -125 -64q-9 -25 -9 -61v-7h-151zM380 489q0 -155 23.5 -216 t96.5 -61t96 62.5t23 214.5v820q0 125 -23.5 182.5t-92 57.5t-96 -57.5t-27.5 -181.5v-821z" />
<glyph unicode="&#x20f;" horiz-adv-x="970" d="M110 476v561q0 481 375 481t375 -481v-561q0 -375 -193 -461q-74 -33 -181 -33q-212 0 -294 127t-82 367zM200 1644v13v4q0 262 280 262q282 0 285 -259v-15l-151 -1q-1 76 -35 102t-94 26q-103 0 -125 -64q-9 -25 -9 -61v-7h-151zM377 413q0 -165 54 -202q22 -15 55 -15 q62 0 84.5 54.5t22.5 162.5v671q0 110 -23 165t-85 55t-85 -54.5t-23 -165.5v-671z" />
<glyph unicode="&#x210;" horiz-adv-x="1010" d="M100 2266l191 103l206 -412l-123 -53zM132 0v1760h443q138 0 206 -55.5t89.5 -155t21.5 -260t-34 -244.5t-126 -113q91 -16 127 -123t36 -445.5t10 -363.5h-268q-10 20 -10 631q0 117 -28 155.5t-113 40.5l-86 4v-831h-268zM401 1039h107q51 0 75.5 23t34 79t9.5 171v11 q0 143 -24 187t-111 44h-91v-515zM465 2266l187 103l169 -412l-123 -53z" />
<glyph unicode="&#x211;" horiz-adv-x="688" d="M-17 2006l191 103l206 -412l-123 -53zM132 0v1500h267v-167q26 88 91.5 136.5t163.5 48.5q4 0 4 -168l-1 -56q-80 0 -157 -27t-101 -77v-1190h-267zM348 2006l187 103l169 -412l-123 -53z" />
<glyph unicode="&#x212;" horiz-adv-x="1010" d="M132 0v1760h443q138 0 206 -55.5t89.5 -155t21.5 -260t-34 -244.5t-126 -113q91 -16 127 -123t36 -445.5t10 -363.5h-268q-10 20 -10 631q0 117 -28 155.5t-113 40.5l-86 4v-831h-268zM223 1904v13v4q0 262 280 262q282 0 285 -259v-15l-151 -1q-1 76 -35 102t-94 26 q-103 0 -125 -64q-9 -25 -9 -61v-7h-151zM401 1039h107q51 0 75.5 23t34 79t9.5 171v11q0 143 -24 187t-111 44h-91v-515z" />
<glyph unicode="&#x213;" horiz-adv-x="688" d="M106 1644v13v4q0 262 280 262q282 0 285 -259v-15l-151 -1q-1 76 -35 102t-94 26q-103 0 -125 -64q-9 -25 -9 -61v-7h-151zM132 0v1500h267v-167q26 88 91.5 136.5t163.5 48.5q4 0 4 -168l-1 -56q-80 0 -157 -27t-101 -77v-1190h-267z" />
<glyph unicode="&#x214;" d="M101 2263l191 103l206 -412l-123 -53zM122 452v1309h268v-1304q0 -139 13 -169t31.5 -54.5t76.5 -24.5t83 34t30.5 84.5t5.5 129.5v1304h268v-1309q0 -243 -92 -357.5t-295.5 -114.5t-296 115t-92.5 357zM466 2263l187 103l169 -412l-123 -53z" />
<glyph unicode="&#x215;" horiz-adv-x="1015" d="M108 2006l191 103l206 -412l-123 -53zM122 340v1160h266v-1119q0 -93 23 -137.5t86 -44.5q121 0 121 180l1 1121h264v-1500h-265v156q-63 -175 -229 -175q-267 0 -267 359zM473 2006l187 103l169 -412l-123 -53z" />
<glyph unicode="&#x216;" d="M122 452v1309h268v-1304q0 -139 13 -169t31.5 -54.5t76.5 -24.5t83 34t30.5 84.5t5.5 129.5v1304h268v-1309q0 -243 -92 -357.5t-295.5 -114.5t-296 115t-92.5 357zM229 1901v13v4q0 262 280 262q282 0 285 -259v-15l-151 -1q-1 76 -35 102t-94 26q-103 0 -125 -64 q-9 -25 -9 -61v-7h-151z" />
<glyph unicode="&#x217;" horiz-adv-x="1015" d="M122 340v1160h266v-1119q0 -93 23 -137.5t86 -44.5q121 0 121 180l1 1121h264v-1500h-265v156q-63 -175 -229 -175q-267 0 -267 359zM231 1644v13v4q0 262 280 262q282 0 285 -259v-15l-151 -1q-1 76 -35 102t-94 26q-103 0 -125 -64q-9 -25 -9 -61v-7h-151z" />
<glyph unicode="&#x218;" horiz-adv-x="905" d="M95 1351q0 218 84 324t289 106t277.5 -123.5t72.5 -360.5v-109h-247v126q0 128 -22 183.5t-84.5 55.5t-90 -42t-27.5 -126t28 -134t101 -128l145 -157q109 -118 164.5 -239t55.5 -264q0 -247 -83 -365t-290.5 -118t-289 131.5t-81.5 383.5v157h254v-177q0 -147 25 -206.5 t94 -59.5t91.5 49t22.5 160t-40 193.5t-127 172.5l-130 134q-91 95 -141.5 197t-50.5 236zM297 -165h273v-254l-92 -313h-121l55 304h-115v263z" />
<glyph unicode="&#x219;" horiz-adv-x="867" d="M82 1150q0 368 354 368q176 0 257.5 -100.5t81.5 -334.5v-82h-237v99q0 102 -23 151.5t-76.5 49.5t-79 -31t-25.5 -106q0 -119 106 -221l142 -129q219 -204 219 -449q0 -192 -87 -288t-270 -96t-270 104.5t-87 335.5v97h249v-121q0 -200 102 -200q54 0 78 35.5t24 120.5 q0 150 -138 278q-4 4 -64.5 58t-70.5 64q-185 169 -185 397zM269 -165h273v-254l-92 -313h-121l55 304h-115v263z" />
<glyph unicode="&#x21a;" horiz-adv-x="703" d="M16 1528v232h671v-232h-198v-1528h-267v1528h-206zM192 -165h273v-254l-92 -313h-121l55 304h-115v263z" />
<glyph unicode="&#x21b;" horiz-adv-x="645" d="M47 1277v192h122v292h265v-292h146v-192h-146v-1002q0 -53 27.5 -68t123.5 -15v-202h-180q-140 0 -188 53.5t-48 185.5v1048h-122zM210 -165h273v-254l-92 -313h-121l55 304h-115v263z" />
<glyph unicode="&#x237;" horiz-adv-x="568" d="M65 32l27 -1h18q63 4 63 67v1402h265v-1392q0 -137 -56 -204.5t-157 -69.5q-18 -1 -77.5 -1t-82.5 17v182z" />
<glyph unicode="&#x2c6;" horiz-adv-x="970" d="M145 1608l189 337h302l188 -337h-253l-86 236l-86 -236h-254z" />
<glyph unicode="&#x2c7;" horiz-adv-x="970" d="M145 1946h254l86 -237l86 237h253l-188 -338h-302z" />
<glyph unicode="&#x2c9;" horiz-adv-x="696" d="M90 509v232h516v-232h-516z" />
<glyph unicode="&#x2d8;" horiz-adv-x="1016" d="M225 1877v15h150q0 -76 34.5 -103t97.5 -27t97 26.5t34 103.5h151v-13q0 -264 -282 -264t-282 262z" />
<glyph unicode="&#x2d9;" horiz-adv-x="572" d="M153 896v226h271v-226h-271z" />
<glyph unicode="&#x2da;" horiz-adv-x="923" d="M228 1130q0 98 63 161t170.5 63t170 -63t62.5 -161t-62.5 -161t-170 -63t-170.5 63t-63 161zM343 1131q0 -53 31.5 -92t87.5 -39t87.5 39t31.5 92t-31.5 91.5t-87.5 38.5t-87.5 -38.5t-31.5 -91.5z" />
<glyph unicode="&#x2db;" horiz-adv-x="1015" d="M358 -387.5q0 107.5 69 212t197 175.5h107q-180 -189 -180 -339q0 -64 40.5 -96.5t98 -32.5t122.5 15v-138q-20 -11 -71 -23t-98 -12q-137 0 -211 65.5t-74 173z" />
<glyph unicode="&#x2dc;" horiz-adv-x="1117" d="M223 979q28 98 75.5 140t104 42t161.5 -37t126 -37h4q17 3 29.5 16.5t26.5 54.5l142 -28l-9 -48q-21 -99 -61.5 -137.5t-98 -38.5t-156.5 41t-127.5 41t-44 -3.5t-42.5 -57.5z" />
<glyph unicode="&#x2dd;" horiz-adv-x="1300" d="M336 1000l151 441l207 -97l-245 -391zM673 1000l207 441l211 -101l-307 -392z" />
<glyph unicode="&#x307;" horiz-adv-x="572" d="M107 955v298h358v-298h-358z" />
<glyph unicode="&#x30f;" horiz-adv-x="825" d="M3 2006l191 103l206 -412l-123 -53zM368 2006l187 103l169 -412l-123 -53z" />
<glyph unicode="&#x311;" horiz-adv-x="1016" d="M224 1644v13v4q0 262 280 262q282 0 285 -259v-15l-151 -1q-1 76 -35 102t-94 26q-103 0 -125 -64q-9 -25 -9 -61v-7h-151z" />
<glyph unicode="&#x326;" horiz-adv-x="528" d="M121 5h273v-254l-92 -313h-121l55 304h-115v263z" />
<glyph unicode="&#x394;" horiz-adv-x="921" d="M34 0l243 1353h364l246 -1353h-853zM306 180h306l-137 944h-32z" />
<glyph unicode="&#x3a9;" horiz-adv-x="992" d="M47 0v201h162q-104 157 -126 289q-11 65 -11 140v559q0 205 108 311.5t316 106.5t316 -106.5t108 -311.5v-559q0 -153 -41 -249t-96 -180h162v-201h-396v202q92 47 92 379v630q0 78 -43 121.5t-102 43.5t-102 -43.5t-43 -121.5v-630q0 -122 24 -238.5t68 -140.5v-202 h-396z" />
<glyph unicode="&#x3bc;" horiz-adv-x="1022" d="M122 -186v1686h266v-1119q0 -93 23 -137.5t86 -44.5q120 0 122 180v1121h264v-1500h-265v156q-63 -175 -229 -175h-10v-167h-257z" />
<glyph unicode="&#x3c0;" horiz-adv-x="482" />
<glyph unicode="&#x1e02;" horiz-adv-x="996" d="M142 0v1760h381q197 0 279 -91.5t83 -306.5v-54q0 -284 -154 -349q188 -63 188 -415v-45q-2 -265 -92.5 -382t-295.5 -117h-389zM395 1903v226h271v-226h-271zM410 208h95q80 0 112 55t32 197v142q0 134 -26 189.5t-100 55.5h-113v-639zM410 1048h99q69 0 90.5 44 t21.5 181v106q-1 102 -28 136.5t-93 34.5h-90v-502z" />
<glyph unicode="&#x1e03;" horiz-adv-x="996" d="M132 0v1775h265v-383q22 56 77 91t119 35q192 0 253 -172q39 -110 39 -277v-635v-4q0 -325 -145 -412q-54 -33 -126 -33h-5q-153 2 -212 155v-140h-265zM373 1897v226h271v-226h-271zM397 456q0 -136 24 -197.5t91.5 -61.5t87 59.5t19.5 202.5v614q0 179 -47 215 q-21 16 -54 16q-65 0 -93 -50t-28 -180v-618z" />
<glyph unicode="&#x1e0a;" horiz-adv-x="1005" d="M131 0v1760h395q194 0 281.5 -114.5t87.5 -337.5l1 -794q0 -266 -88 -390t-291 -124h-386zM364 1876v226h271v-226h-271zM399 208h88q74 0 107.5 48t33.5 176l-1 869q0 137 -33.5 195t-115.5 58h-79v-1346z" />
<glyph unicode="&#x1e0b;" horiz-adv-x="998" d="M110 479v611q0 188 69 308t228 120q62 0 113.5 -30t80.5 -81v368h265v-1775h-265v139q-60 -154 -215 -154q-121 0 -181 68t-77.5 172.5t-17.5 253.5zM353 1897v226h271v-226h-271zM377 443q0 -124 23.5 -185.5t88 -61.5t89 61.5t24.5 205.5v600q0 185 -56 224 q-24 16 -58 16q-67 0 -89 -61t-22 -182v-617z" />
<glyph unicode="&#x1e1e;" horiz-adv-x="796" d="M131 0v1760h604v-233h-336v-468h312v-234h-312v-825h-268zM297 1903v226h271v-226h-271z" />
<glyph unicode="&#x1e1f;" horiz-adv-x="637" d="M57 1250v191h117v78q0 126 65.5 195.5t174.5 69.5t176 -25v-166q-30 4 -70 4q-82 0 -82 -86v-70h152v-191h-152v-1250h-265v1250h-116zM289 1906v226h271v-226h-271z" />
<glyph unicode="&#x1e40;" horiz-adv-x="1418" d="M132 0v1760h333l250 -1286l235 1286h335v-1760h-239v656l10 602l-237 -1250h-213l-247 1250l10 -602v-656h-237zM586 1876v226h271v-226h-271z" />
<glyph unicode="&#x1e41;" horiz-adv-x="1505" d="M132 0v1500h265v-163q23 84 83 132.5t157 48.5q166 0 222 -151q81 151 255 151q141 0 204.5 -94t63.5 -275v-1149h-264v1152q0 149 -101 149q-61 0 -94 -42t-33 -121v-1138h-265v1154q0 147 -98 147q-65 0 -97.5 -49.5t-32.5 -127.5v-1124h-265zM698 1616v226h271v-226 h-271z" />
<glyph unicode="&#x1e56;" horiz-adv-x="944" d="M132 0v1760h404q205 0 280.5 -124.5t79.5 -371.5v-37q0 -262 -74.5 -397.5t-276.5 -135.5h-145v-694h-268zM343 1876v226h271v-226h-271zM400 915h92q85 0 110.5 65.5t25.5 249.5v34q-1 156 -27.5 223t-106.5 67h-94v-639z" />
<glyph unicode="&#x1e57;" horiz-adv-x="998" d="M132 -285v1785h265v-135q28 71 89 110.5t127.5 39.5t116.5 -24q93 -45 125.5 -158.5t32.5 -284.5v-547q0 -264 -51 -367.5t-137 -133.5q-50 -18 -110.5 -18t-111 31t-81.5 78v-376h-265zM397 439q0 -125 24 -183.5t90 -58.5t88 60.5t22 192.5v622q0 180 -49 216 q-22 16 -56 16q-60 0 -89.5 -49.5t-29.5 -181.5v-634zM477 1640v226h271v-226h-271z" />
<glyph unicode="&#x1e60;" horiz-adv-x="905" d="M95 1351q0 218 84 324t289 106t277.5 -123.5t72.5 -360.5v-109h-247v126q0 128 -22 183.5t-84.5 55.5t-90 -42t-27.5 -126t28 -134t101 -128l145 -157q109 -118 164.5 -239t55.5 -264q0 -247 -83 -365t-290.5 -118t-289 131.5t-81.5 383.5v157h254v-177q0 -147 25 -206.5 t94 -59.5t91.5 49t22.5 160t-40 193.5t-127 172.5l-130 134q-91 95 -141.5 197t-50.5 236zM343 1874v226h271v-226h-271z" />
<glyph unicode="&#x1e61;" horiz-adv-x="867" d="M82 1150q0 368 354 368q176 0 257.5 -100.5t81.5 -334.5v-82h-237v99q0 102 -23 151.5t-76.5 49.5t-79 -31t-25.5 -106q0 -119 106 -221l142 -129q219 -204 219 -449q0 -192 -87 -288t-270 -96t-270 104.5t-87 335.5v97h249v-121q0 -200 102 -200q54 0 78 35.5t24 120.5 q0 150 -138 278q-4 4 -64.5 58t-70.5 64q-185 169 -185 397zM319 1616v226h271v-226h-271z" />
<glyph unicode="&#x1e6a;" horiz-adv-x="703" d="M16 1528v232h671v-232h-198v-1528h-267v1528h-206zM219 1876v226h271v-226h-271z" />
<glyph unicode="&#x1e6b;" horiz-adv-x="645" d="M47 1277v192h122v292h265v-292h146v-192h-146v-1002q0 -53 27.5 -68t123.5 -15v-202h-180q-140 0 -188 53.5t-48 185.5v1048h-122zM166 1883v226h271v-226h-271z" />
<glyph unicode="&#x1e80;" horiz-adv-x="1388" d="M60 1760h240l129 -1254l164 1254h216l165 -1254l114 1254h241l-202 -1760h-267l-156 1170l-162 -1170h-267zM494 1982v265l413 -203v-156z" />
<glyph unicode="&#x1e81;" horiz-adv-x="1251" d="M44 1500h223l76 -633l34 -322h6l33 323l89 632h236l98 -620l42 -335h6l29 334l67 621h222l-190 -1500h-232l-152 1127l-162 -1127h-224zM425 1722v265l413 -203v-156z" />
<glyph unicode="&#x1e82;" horiz-adv-x="1388" d="M60 1760h240l129 -1254l164 1254h216l165 -1254l114 1254h241l-202 -1760h-267l-156 1170l-162 -1170h-267zM500 1898v156l441 192v-258z" />
<glyph unicode="&#x1e83;" horiz-adv-x="1251" d="M44 1500h223l76 -633l34 -322h6l33 323l89 632h236l98 -620l42 -335h6l29 334l67 621h222l-190 -1500h-232l-152 1127l-162 -1127h-224zM424 1638v156l441 192v-258z" />
<glyph unicode="&#x1e84;" horiz-adv-x="1388" d="M60 1760h240l129 -1254l164 1254h216l165 -1254l114 1254h241l-202 -1760h-267l-156 1170l-162 -1170h-267zM322 1883v226h282v-226h-282zM806 1883v226h282v-226h-282z" />
<glyph unicode="&#x1e85;" horiz-adv-x="1251" d="M44 1500h223l76 -633l34 -322h6l33 323l89 632h236l98 -620l42 -335h6l29 334l67 621h222l-190 -1500h-232l-152 1127l-162 -1127h-224zM247 1623v226h282v-226h-282zM731 1623v226h282v-226h-282z" />
<glyph unicode="&#x1ef2;" horiz-adv-x="862" d="M9 1760h256l174 -658h4l155 658h255l-281 -1057v-703h-268v703zM230 1982v265l413 -203v-156z" />
<glyph unicode="&#x1ef3;" horiz-adv-x="852" d="M42 1501h252l96 -768l40 -404h22l36 404l88 768h251l-260 -1565q-17 -113 -57 -157t-140 -44h-282v183h87q50 0 77.5 8t30.5 32q6 10 6 37t-7 73zM226 1722v265l413 -203v-156z" />
<glyph unicode="&#x2000;" horiz-adv-x="1212" />
<glyph unicode="&#x2001;" horiz-adv-x="2425" />
<glyph unicode="&#x2002;" horiz-adv-x="1212" />
<glyph unicode="&#x2003;" horiz-adv-x="2425" />
<glyph unicode="&#x2004;" horiz-adv-x="808" />
<glyph unicode="&#x2005;" horiz-adv-x="606" />
<glyph unicode="&#x2006;" horiz-adv-x="404" />
<glyph unicode="&#x2007;" horiz-adv-x="404" />
<glyph unicode="&#x2008;" horiz-adv-x="303" />
<glyph unicode="&#x2009;" horiz-adv-x="485" />
<glyph unicode="&#x200a;" horiz-adv-x="134" />
<glyph unicode="&#x2010;" horiz-adv-x="696" d="M89 661v175h478v-175h-478z" />
<glyph unicode="&#x2011;" horiz-adv-x="696" d="M89 661v175h478v-175h-478z" />
<glyph unicode="&#x2012;" horiz-adv-x="696" d="M89 661v175h478v-175h-478z" />
<glyph unicode="&#x2013;" horiz-adv-x="756" d="M120 509v232h516v-232h-516z" />
<glyph unicode="&#x2014;" horiz-adv-x="1153" d="M60 509v232h1032v-232h-1032z" />
<glyph unicode="&#x2018;" horiz-adv-x="586" d="M119 1065v271l136 439h153l-93 -430h153v-280h-349z" />
<glyph unicode="&#x2019;" horiz-adv-x="586" d="M129 1494v281h349v-272l-136 -438h-154l94 429h-153z" />
<glyph unicode="&#x201a;" horiz-adv-x="484" d="M80 0v258h331v-249l-109 -333h-164l78 324h-136z" />
<glyph unicode="&#x201c;" horiz-adv-x="1030" d="M140 1141v253l110 381h164l-78 -372h135v-262h-331zM606 1141v253l110 381h164l-78 -372h135v-262h-331z" />
<glyph unicode="&#x201d;" horiz-adv-x="1077" d="M155 1513v262h331v-253l-110 -381h-164l78 372h-135zM621 1513v262h331v-253l-110 -381h-164l78 372h-135z" />
<glyph unicode="&#x201e;" horiz-adv-x="1016" d="M151 0v261h330v-253l-109 -381h-164l78 373h-135zM617 0v261h330v-253l-109 -381h-164l78 373h-135z" />
<glyph unicode="&#x2020;" horiz-adv-x="909" d="M91 965v217h230v410h270v-410h227v-217h-227v-965h-270v965h-230z" />
<glyph unicode="&#x2021;" horiz-adv-x="909" d="M91 447v217h230v301h-230v217h230v410h270v-410h227v-217h-227v-301h227v-217h-227v-447h-270v447h-230z" />
<glyph unicode="&#x2022;" horiz-adv-x="861" d="M165 741q0 136 69 213t196 77t196.5 -77t69.5 -213t-69.5 -213t-196.5 -77t-196 77t-69 213z" />
<glyph unicode="&#x202f;" horiz-adv-x="485" />
<glyph unicode="&#x2030;" horiz-adv-x="3107" d="M130 1005v358q0 223 77.5 320.5t260.5 97.5t260.5 -97.5t77.5 -320.5v-358q0 -220 -80.5 -322.5t-257.5 -102.5t-257.5 102.5t-80.5 322.5zM356 939q0 -92 24.5 -131.5t87.5 -39.5t87.5 39.5t24.5 131.5v492q0 90 -23 126.5t-88.5 36.5t-89 -36.5t-23.5 -126.5v-492z M662 0l685 1761h204l-676 -1761h-213zM1414 404v358q0 223 77.5 320.5t260.5 97.5t260.5 -97.5t77.5 -320.5v-358q0 -220 -80.5 -322.5t-257.5 -102.5t-257.5 102.5t-80.5 322.5zM1640 338q0 -92 24.5 -131.5t87.5 -39.5t87.5 39.5t24.5 131.5v492q0 90 -23 126.5 t-88.5 36.5t-89 -36.5t-23.5 -126.5v-492zM2301 404v358q0 223 77.5 320.5t260.5 97.5t261 -97.5t78 -320.5v-358q0 -220 -80.5 -322.5t-258 -102.5t-258 102.5t-80.5 322.5zM2527 338q0 -91 24.5 -131t88 -40t88 40t24.5 131v492q0 90 -23.5 126.5t-89 36.5t-89 -36.5 t-23.5 -126.5v-492z" />
<glyph unicode="&#x2039;" horiz-adv-x="606" d="M57 612v275l491 271v-268l-312 -141l312 -150v-272z" />
<glyph unicode="&#x203a;" horiz-adv-x="727" d="M139 327v272l312 150l-312 141v268l491 -271v-275z" />
<glyph unicode="&#x2044;" horiz-adv-x="829" d="M57 0l469 1767h220l-470 -1767h-219z" />
<glyph unicode="&#x205f;" horiz-adv-x="606" />
<glyph unicode="&#x2074;" horiz-adv-x="852" d="M150 811v129l249 821h263v-801h74v-149h-74v-206h-185v206h-327zM322 960h155v559z" />
<glyph unicode="&#x20ac;" horiz-adv-x="1076" d="M23 725v144h87v97h-87v136h87v151q0 393 206 491q76 36 184 36q371 0 371 -468v-242h-259v225q0 136 -23 194.5t-90 58.5t-93 -62t-26 -190v-194h168v-136h-168v-97h168v-144h-168v-251q0 -142 25 -203t91 -61t91 62t25 205v252h263v-249q0 -255 -91 -377.5t-286 -122.5 t-291.5 130.5t-96.5 375.5v239h-87z" />
<glyph unicode="&#x2122;" horiz-adv-x="1676" d="M82 1592v169h490v-169h-143v-1085h-198v1085h-149zM694 507v1254h287l148 -878l144 878h288v-1254h-188v489l7 473l-157 -962h-185l-165 962l7 -473v-489h-186z" />
<glyph unicode="&#x2202;" horiz-adv-x="1072" d="M163 284q0 29 5.5 68t14.5 117.5t13 109t12 86t15 84.5t18.5 74.5t24 70.5t29.5 57.5t37.5 50t57 42t115 24.5t180.5 -34l34 231q2 20 2 39q0 176 -173 176q-59 0 -175 -24l-34 161q133 38 236.5 38t181 -33t126 -112.5t48.5 -214.5q0 -63 -11 -136l-140 -913 q-29 -192 -221 -255q-53 -17 -109 -17q-117 0 -202 81t-85 229zM386 263q0 -88 73 -88q88 0 101 126l87 578q-53 22 -93 22q-81 0 -104 -156l-58 -388q-6 -58 -6 -94z" />
<glyph unicode="&#x220f;" horiz-adv-x="1033" d="M136 0v1761h760v-1761h-262v1543h-235v-1543h-263z" />
<glyph unicode="&#x2211;" horiz-adv-x="814" d="M114 0v221l275 660l-275 674v206h597v-210h-324l259 -671l-259 -655h324v-225h-597z" />
<glyph unicode="&#x2212;" horiz-adv-x="637" d="M60 509v232h516v-232h-516z" />
<glyph unicode="&#x2215;" horiz-adv-x="829" d="M57 0l469 1767h220l-470 -1767h-219z" />
<glyph unicode="&#x221a;" horiz-adv-x="1267" d="M99 741h259l74 -453l228 1212h512v-200h-296l-264 -1300h-324z" />
<glyph unicode="&#x221e;" horiz-adv-x="1300" d="M108 742q0 136 68 211t201.5 75t261.5 -143q126 156 264.5 156t208.5 -79t70 -219.5t-69.5 -222t-200.5 -81.5q-159 0 -273 146q-48 -54 -120 -93.5t-149 -39.5q-128 0 -195 77t-67 213zM344 739.5q0 -70.5 79.5 -70.5t153.5 71q-71 70 -152 70t-81 -70.5zM701 740 q71 -71 159 -71t88 71t-85 71t-162 -71z" />
<glyph unicode="&#x222b;" horiz-adv-x="767" d="M115 8v178q38 -4 48 -4q59 0 75 25t16 98v1234q0 244 215 244q100 0 183 -31v-178q-50 13 -82 13q-60 0 -60 -103v-1263q0 -238 -220 -238q-97 0 -175 25z" />
<glyph unicode="&#x2248;" horiz-adv-x="1117" d="M105 419q81 267 247 267q57 0 206.5 -48.5t163.5 -48.5q72 0 105 111l187 -42q-20 -79 -67 -166q-91 -166 -176 -166q-58 0 -202.5 52.5t-198.5 52.5t-93 -93zM105 912q81 267 247 267q57 0 206.5 -48.5t163.5 -48.5q72 0 105 111l187 -42q-20 -79 -67 -166 q-91 -166 -176 -166q-58 0 -202.5 52.5t-198.5 52.5t-93 -93z" />
<glyph unicode="&#x2260;" horiz-adv-x="884" d="M103 559v232h194l28 151h-222v224h262l109 599h249l-112 -599h171v-224h-213l-29 -151h242v-232h-285l-105 -559h-238l101 559h-152z" />
<glyph unicode="&#x2264;" horiz-adv-x="781" d="M82 655v292l574 365v-275l-397 -236l397 -243v-272zM112 0v179h530v-179h-530z" />
<glyph unicode="&#x2265;" horiz-adv-x="781" d="M107 286v272l396 243l-396 236v275l574 -365v-292zM118 0v179h531v-179h-531z" />
<glyph unicode="&#x25ca;" horiz-adv-x="921" d="M34 713l243 723h371l239 -723l-239 -713h-371zM309 713l134 -534h32l134 534l-134 534h-32z" />
<glyph unicode="&#xe000;" horiz-adv-x="1500" d="M0 0v1500h1500v-1500h-1500z" />
<glyph unicode="&#xf8ff;" horiz-adv-x="327" />
<glyph unicode="&#xfb00;" horiz-adv-x="1274" d="M57 1250v191h117v78q0 126 65.5 195.5t174.5 69.5t176 -25v-166q-30 4 -70 4q-82 0 -82 -86v-70h373v78q0 126 65.5 195.5t174.5 69.5t176 -25v-166q-29 4 -69 4q-82 0 -83 -86v-70h152v-191h-152v-1250h-265v1250h-372v-1250h-265v1250h-116z" />
<glyph unicode="&#xfb01;" horiz-adv-x="1171" d="M57 1309v191h117v66q0 126 65.5 195.5t174.5 69.5t176 -25v-166q-30 4 -70 4q-82 0 -82 -86v-58h600v-1500h-265v1309h-335v-1309h-265v1309h-116zM773 1607v193h265v-193h-265z" />
<glyph unicode="&#xfb02;" horiz-adv-x="1171" d="M57 1250v191h117v78q0 156 51 207t123 61.5t145 10.5q190 0 543 -61v-1737h-264v1593q-130 29 -186 29t-92 -10q-56 -16 -56 -79v-92h152v-191h-152v-1250h-265v1250h-116z" />
<glyph unicode="&#xfb03;" horiz-adv-x="1808" d="M57 1309v191h117v71q0 126 65.5 195.5t174.5 69.5t176 -25v-166q-30 4 -70 4q-82 0 -82 -86v-63h373v71q0 126 65.5 195.5t174.5 69.5t176 -25v-166q-29 4 -69 4q-82 0 -83 -86v-63h600v-1500h-265v1309h-335v-1309h-265v1309h-372v-1309h-265v1309h-116zM1410 1607v193 h265v-193h-265z" />
<glyph unicode="&#xfb04;" horiz-adv-x="1808" d="M57 1250v191h117v78q0 126 65.5 195.5t174.5 69.5t176 -25v-166q-30 4 -70 4q-82 0 -82 -86v-70h373v78q0 156 51 207t123 61.5t145 10.5q190 0 543 -61v-1737h-264v1593q-131 29 -186.5 29t-91.5 -10q-56 -16 -56 -79v-92h152v-191h-152v-1250h-265v1250h-372v-1250 h-265v1250h-116z" />
</font>
</defs>
</svg>
